Уважаемый Гость!
Вы можете поддержать проект и зарегистрироваться у наших партнеров - онлайн-стратегия MyLands. При регистрации в игре Вы получите код, который сможете активировать после регистрации на pirat.ca и получить 1000 дублонов.

Ваш код:
9b65c75582a1bc11d28e5a5e70ceae6fff363398
 
     

(Instrumental) В ритме танца - Вальс (РД) (3CD), FLAC (tracks+cue) - 2011, lossless

Ответить на тему
 
Автор
Сообщение

Пост 05-Мар-2012 22:38

[Q] 

CHARLI2236

В ритме танца - Вальс (РД) (3CD)
Год выпуска альбома: 2011
Страна: Россия
Жанр: Instrumental
Лейбл издания: ИД Ридерз Дайджест
Продолжительность: 3:19:58
Формат: FLAC
Битрейт аудио: lossless
Тип рипа: tracks+.cue
Источник (релизер): диск CDDA
Наличие сканов в содержимом раздачи: да
Трэклист
01 - Richard Alden, his Piano and Orchestra - Que sera, sera (Whatever Will Be, Will Be). (2:29)
02 - Larry Dalton and his Orchestra - That's Amore. (2:32)
03 - Keith Murrell - What's New, Pussycat . (2:51)
04 - Ken Thorne and his Orchestra - Wunderbar. (2:48)
05 - Charles Gerhardt and his Orchestra - Pigalle. (2:28)
06 - Frank Chacksfield and his Orchestra - The Carousel Waltz. (2:53)
07 - Dominique Chatelain, his Piano and Orchestra - La Petite valse (The Petite Waltz) . (2:30)
08 - Christian Colombier and his Orchestra - Cuckoo's Waltz. (3:56)
09 - L'Orchestre de la Butte- Ghislain Slingeneyer, conductor - La Valse brune. (4:31)
10 - Ken Thorne and his Orchestra - My Favorite Things. (2:22)
11 - Mary Carewe - At Last! At Last! . (2:29)
12 - Richard Alden, his Piano and Orchestra - Let's Take An Old-Fashioned Walk. (2:59)
13 - Robert Farnon and his Orchestra - The Girl That I Marry. (2:32)
14 - Reg Owen and his Orchestra - Domino. (2:20)
15 - Richard Abel, his Piano and Orchestra - Charming Waltzes. (4:48)
16 - The Mayfair Dance Orchestra- Ghislain Slingeneyer, conductor - Belle Of The Ball. (3:08)
17 - Ronnie Price, his Piano and Orchestra - Oh, What A Beautiful Morning. (2:13)
18 - Hill Bowen and his Orchestra - Park Avenue Waltz. (2:50)
19 - Ken Thorne and his Orchestra - Cruising Down The River. (2:37)
20 - Douglas Gamley and his Orchestra - Ciribiribin. (3:10)
21 - Frank de Vol and his Orchestra - Matchmaker, Matchmaker. (2:51)
22 - Vaclav Hybs and his Orchestra - Love Dream. (5:42)
23 - Hill Bowen and his Orchestra - Stars In My Eyes. (2:32)
”Отчет ЕАС”
Отчёт EAC об извлечении, выполненном 5. марта 2012, 2:19 для диска:
Various / В ритме танца - Будь что будет
Дисковод: TSSTcorpCDDVDW SH-222AB Adapter: 0 ID: 0
Режим чтения: Достоверный (C2: нет, Точный поток: да, Отключение кэша: да)
Коррекция смещения при чтении: 6
Способность читать области Lead-in и Lead-out : Нет
Выходной формат: C:\Program Files (x86)\FLAC\flac.exe (Пользовательский кодировщик)
128 kBit/s
Дополнительные параметры: -8 -V -T "ARTIST=%a" -T "TITLE=%t" -T "ALBUM=%g" -T "DATE=%y" -T "TRACKNUMBER=%n" -T "GENRE=%m" -T "COMMENT=EAC FLAC -8" %s
Другие параметры:
Заполнение пропущенных сэмплов тишиной : Да
Удаление блоков с тишиной в начале и конце : Нет
Встроенный Win32-интерфейс для Win NT/2000
Трек 1
Имя файла C:\Sergei\новая папка\01 - Richard Alden, his Piano and Orchestra - Que sera, sera (Whatever Will Be, Will Be).wav
Длина предзазора 0:00:02.00
Пиковый уровень 70.7 %
Качество трека 100.0 %
CRC теста 0010AAA9
CRC копии 0010AAA9
Копирование... OK
Трек 2
Имя файла C:\Sergei\новая папка\02 - Larry Dalton and his Orchestra - That's Amore.wav
Длина предзазора 0:00:01.80
Пиковый уровень 99.5 %
Качество трека 100.0 %
CRC теста 7C6CF068
CRC копии 7C6CF068
Копирование... OK
Трек 3
Имя файла C:\Sergei\новая папка\03 - Keith Murrell - What's New, Pussycat .wav
Длина предзазора 0:00:01.80
Пиковый уровень 54.6 %
Качество трека 100.0 %
CRC теста CFB4394B
CRC копии CFB4394B
Копирование... OK
Трек 4
Имя файла C:\Sergei\новая папка\04 - Ken Thorne and his Orchestra - Wunderbar.wav
Длина предзазора 0:00:01.80
Пиковый уровень 94.6 %
Качество трека 100.0 %
CRC теста 876C1590
CRC копии 876C1590
Копирование... OK
Трек 5
Имя файла C:\Sergei\новая папка\05 - Charles Gerhardt and his Orchestra - Pigalle.wav
Длина предзазора 0:00:01.80
Пиковый уровень 92.4 %
Качество трека 100.0 %
CRC теста 0CB5639E
CRC копии 0CB5639E
Копирование... OK
Трек 6
Имя файла C:\Sergei\новая папка\06 - Frank Chacksfield and his Orchestra - The Carousel Waltz.wav
Длина предзазора 0:00:01.80
Пиковый уровень 82.3 %
Качество трека 100.0 %
CRC теста 5626465C
CRC копии 5626465C
Копирование... OK
Трек 7
Имя файла C:\Sergei\новая папка\07 - Dominique Chatelain, his Piano and Orchestra - La Petite valse (The Petite Waltz).wav
Длина предзазора 0:00:01.80
Пиковый уровень 99.2 %
Качество трека 100.0 %
CRC теста 28A4C87D
CRC копии 28A4C87D
Копирование... OK
Трек 8
Имя файла C:\Sergei\новая папка\08 - Christian Colombier and his Orchestra - Cuckoo's Waltz.wav
Длина предзазора 0:00:01.80
Пиковый уровень 86.5 %
Качество трека 100.0 %
CRC теста 61BBB77E
CRC копии 61BBB77E
Копирование... OK
Трек 9
Имя файла C:\Sergei\новая папка\09 - L'Orchestre de la Butte- Ghislain Slingeneyer, conductor - La Valse brune.wav
Длина предзазора 0:00:01.80
Пиковый уровень 73.3 %
Качество трека 99.9 %
CRC теста 63A1E75E
CRC копии 63A1E75E
Копирование... OK
Трек 10
Имя файла C:\Sergei\новая папка\10 - Ken Thorne and his Orchestra - My Favorite Things.wav
Длина предзазора 0:00:01.80
Пиковый уровень 95.9 %
Качество трека 100.0 %
CRC теста B7AF2E2C
CRC копии B7AF2E2C
Копирование... OK
Трек 11
Имя файла C:\Sergei\новая папка\11 - Mary Carewe - At Last! At Last!.wav
Длина предзазора 0:00:01.80
Пиковый уровень 65.2 %
Качество трека 100.0 %
CRC теста 814B0F83
CRC копии 814B0F83
Копирование... OK
Трек 12
Имя файла C:\Sergei\новая папка\12 - Richard Alden, his Piano and Orchestra - Let's Take An Old-Fashioned Walk.wav
Длина предзазора 0:00:01.80
Пиковый уровень 62.7 %
Качество трека 100.0 %
CRC теста 1BFBD7B0
CRC копии 1BFBD7B0
Копирование... OK
Трек 13
Имя файла C:\Sergei\новая папка\13 - Robert Farnon and his Orchestra - The Girl That I Marry.wav
Длина предзазора 0:00:01.80
Пиковый уровень 98.8 %
Качество трека 100.0 %
CRC теста 3E8920F6
CRC копии 3E8920F6
Копирование... OK
Трек 14
Имя файла C:\Sergei\новая папка\14 - Reg Owen and his Orchestra - Domino.wav
Длина предзазора 0:00:01.80
Пиковый уровень 99.2 %
Качество трека 100.0 %
CRC теста FD2A8C7D
CRC копии FD2A8C7D
Копирование... OK
Трек 15
Имя файла C:\Sergei\новая папка\15 - Richard Abel, his Piano and Orchestra - Charming Waltzes.wav
Длина предзазора 0:00:01.80
Пиковый уровень 55.5 %
Качество трека 100.0 %
CRC теста 50ACA45D
CRC копии 50ACA45D
Копирование... OK
Трек 16
Имя файла C:\Sergei\новая папка\16 - The Mayfair Dance Orchestra- Ghislain Slingeneyer, conductor - Belle Of The Ball.wav
Длина предзазора 0:00:01.80
Пиковый уровень 60.3 %
Качество трека 100.0 %
CRC теста 41140728
CRC копии 41140728
Копирование... OK
Трек 17
Имя файла C:\Sergei\новая папка\17 - Ronnie Price, his Piano and Orchestra - Oh, What A Beautiful Morning.wav
Длина предзазора 0:00:01.80
Пиковый уровень 70.4 %
Качество трека 100.0 %
CRC теста 631E638E
CRC копии 631E638E
Копирование... OK
Трек 18
Имя файла C:\Sergei\новая папка\18 - Hill Bowen and his Orchestra - Park Avenue Waltz.wav
Длина предзазора 0:00:01.80
Пиковый уровень 65.7 %
Качество трека 100.0 %
CRC теста 7D41BBBE
CRC копии 7D41BBBE
Копирование... OK
Трек 19
Имя файла C:\Sergei\новая папка\19 - Ken Thorne and his Orchestra - Cruising Down The River.wav
Длина предзазора 0:00:01.80
Пиковый уровень 76.0 %
Качество трека 100.0 %
CRC теста 903F16D2
CRC копии 903F16D2
Копирование... OK
Трек 20
Имя файла C:\Sergei\новая папка\20 - Douglas Gamley and his Orchestra - Ciribiribin.wav
Длина предзазора 0:00:01.78
Пиковый уровень 89.9 %
Качество трека 100.0 %
CRC теста 6D55932B
CRC копии 6D55932B
Копирование... OK
Трек 21
Имя файла C:\Sergei\новая папка\21 - Frank de Vol and his Orchestra - Matchmaker, Matchmaker.wav
Длина предзазора 0:00:01.80
Пиковый уровень 78.1 %
Качество трека 100.0 %
CRC теста 49A30C1F
CRC копии 49A30C1F
Копирование... OK
Трек 22
Имя файла C:\Sergei\новая папка\22 - Vaclav Hybs and his Orchestra - Love Dream.wav
Длина предзазора 0:00:01.80
Пиковый уровень 80.5 %
Качество трека 100.0 %
CRC теста 8006DCF2
CRC копии 8006DCF2
Копирование... OK
Трек 23
Имя файла C:\Sergei\новая папка\23 - Hill Bowen and his Orchestra - Stars In My Eyes.wav
Длина предзазора 0:00:01.80
Пиковый уровень 87.1 %
Качество трека 100.0 %
CRC теста 47C436DD
CRC копии 47C436DD
Копирование... OK
Ошибок не произошло
Конец отчёта
"Non-compilant CUE"
REM GENRE Instrumental
REM DATE 2011
REM DISCID 62105417
REM COMMENT "ExactAudioCopy v0.95b3"
PERFORMER "Various"
TITLE "В ритме танца - Будь что будет"
FILE "01 - Richard Alden, his Piano and Orchestra - Que sera, sera (Whatever Will Be, Will Be).wav" WAVE
TRACK 01 AUDIO
TITLE "Que sera, sera (Whatever Will Be, Will Be)"
PERFORMER "Richard Alden, his Piano and Orchestra"
INDEX 01 00:00:00
TRACK 02 AUDIO
TITLE "That's Amore"
PERFORMER "Larry Dalton and his Orchestra"
INDEX 00 02:27:62
FILE "02 - Larry Dalton and his Orchestra - That's Amore.wav" WAVE
INDEX 01 00:00:00
TRACK 03 AUDIO
TITLE "What's New, Pussycat?"
PERFORMER "Keith Murrell"
INDEX 00 02:30:73
FILE "03 - Keith Murrell - What's New, Pussycat .wav" WAVE
INDEX 01 00:00:00
TRACK 04 AUDIO
TITLE "Wunderbar"
PERFORMER "Ken Thorne and his Orchestra"
INDEX 00 02:49:61
FILE "04 - Ken Thorne and his Orchestra - Wunderbar.wav" WAVE
INDEX 01 00:00:00
TRACK 05 AUDIO
TITLE "Pigalle"
PERFORMER "Charles Gerhardt and his Orchestra"
INDEX 00 02:46:17
FILE "05 - Charles Gerhardt and his Orchestra - Pigalle.wav" WAVE
INDEX 01 00:00:00
TRACK 06 AUDIO
TITLE "The Carousel Waltz"
PERFORMER "Frank Chacksfield and his Orchestra"
INDEX 00 02:26:23
FILE "06 - Frank Chacksfield and his Orchestra - The Carousel Waltz.wav" WAVE
INDEX 01 00:00:00
TRACK 07 AUDIO
TITLE "La Petite valse (The Petite Waltz)"
PERFORMER "Dominique Chatelain, his Piano and Orchestra"
INDEX 00 02:52:10
FILE "07 - Dominique Chatelain, his Piano and Orchestra - La Petite valse (The Petite Waltz).wav" WAVE
INDEX 01 00:00:00
TRACK 08 AUDIO
TITLE "Cuckoo's Waltz"
PERFORMER "Christian Colombier and his Orchestra"
INDEX 00 02:28:56
FILE "08 - Christian Colombier and his Orchestra - Cuckoo's Waltz.wav" WAVE
INDEX 01 00:00:00
TRACK 09 AUDIO
TITLE "La Valse brune"
PERFORMER "L'Orchestre de la Butte\ Ghislain Slingeneyer, conductor"
INDEX 00 03:54:32
FILE "09 - L'Orchestre de la Butte- Ghislain Slingeneyer, conductor - La Valse brune.wav" WAVE
INDEX 01 00:00:00
TRACK 10 AUDIO
TITLE "My Favorite Things"
PERFORMER "Ken Thorne and his Orchestra"
INDEX 00 04:29:38
FILE "10 - Ken Thorne and his Orchestra - My Favorite Things.wav" WAVE
INDEX 01 00:00:00
TRACK 11 AUDIO
TITLE "At Last! At Last!"
PERFORMER "Mary Carewe"
INDEX 00 02:20:15
FILE "11 - Mary Carewe - At Last! At Last!.wav" WAVE
INDEX 01 00:00:00
TRACK 12 AUDIO
TITLE "Let's Take An Old-Fashioned Walk"
PERFORMER "Richard Alden, his Piano and Orchestra"
INDEX 00 02:27:55
FILE "12 - Richard Alden, his Piano and Orchestra - Let's Take An Old-Fashioned Walk.wav" WAVE
INDEX 01 00:00:00
TRACK 13 AUDIO
TITLE "The Girl That I Marry"
PERFORMER "Robert Farnon and his Orchestra"
INDEX 00 02:57:26
FILE "13 - Robert Farnon and his Orchestra - The Girl That I Marry.wav" WAVE
INDEX 01 00:00:00
TRACK 14 AUDIO
TITLE "Domino"
PERFORMER "Reg Owen and his Orchestra"
INDEX 00 02:30:53
FILE "14 - Reg Owen and his Orchestra - Domino.wav" WAVE
INDEX 01 00:00:00
TRACK 15 AUDIO
TITLE "Charming Waltzes"
PERFORMER "Richard Abel, his Piano and Orchestra"
INDEX 00 02:18:50
FILE "15 - Richard Abel, his Piano and Orchestra - Charming Waltzes.wav" WAVE
INDEX 01 00:00:00
TRACK 16 AUDIO
TITLE "Belle Of The Ball "
PERFORMER "The Mayfair Dance Orchestra\ Ghislain Slingeneyer, conductor"
INDEX 00 04:47:03
FILE "16 - The Mayfair Dance Orchestra- Ghislain Slingeneyer, conductor - Belle Of The Ball.wav" WAVE
INDEX 01 00:00:00
TRACK 17 AUDIO
TITLE "Oh, What A Beautiful Morning"
PERFORMER "Ronnie Price, his Piano and Orchestra"
INDEX 00 03:06:51
FILE "17 - Ronnie Price, his Piano and Orchestra - Oh, What A Beautiful Morning.wav" WAVE
INDEX 01 00:00:00
TRACK 18 AUDIO
TITLE "Park Avenue Waltz"
PERFORMER "Hill Bowen and his Orchestra"
INDEX 00 02:11:37
FILE "18 - Hill Bowen and his Orchestra - Park Avenue Waltz.wav" WAVE
INDEX 01 00:00:00
TRACK 19 AUDIO
TITLE "Cruising Down The River"
PERFORMER "Ken Thorne and his Orchestra"
INDEX 00 02:48:45
FILE "19 - Ken Thorne and his Orchestra - Cruising Down The River.wav" WAVE
INDEX 01 00:00:00
TRACK 20 AUDIO
TITLE "Ciribiribin"
PERFORMER "Douglas Gamley and his Orchestra"
INDEX 00 02:35:34
FILE "20 - Douglas Gamley and his Orchestra - Ciribiribin.wav" WAVE
INDEX 01 00:00:00
TRACK 21 AUDIO
TITLE "Matchmaker, Matchmaker"
PERFORMER "Frank de Vol and his Orchestra"
INDEX 00 03:08:74
FILE "21 - Frank de Vol and his Orchestra - Matchmaker, Matchmaker.wav" WAVE
INDEX 01 00:00:00
TRACK 22 AUDIO
TITLE "Love Dream"
PERFORMER "Vaclav Hybs and his Orchestra"
INDEX 00 02:49:18
FILE "22 - Vaclav Hybs and his Orchestra - Love Dream.wav" WAVE
INDEX 01 00:00:00
TRACK 23 AUDIO
TITLE "Stars In My Eyes"
PERFORMER "Hill Bowen and his Orchestra"
INDEX 00 05:41:05
FILE "23 - Hill Bowen and his Orchestra - Stars In My Eyes.wav" WAVE
INDEX 01 00:00:00
"Лог Audiochecker"
AUDIOCHECKER v2.0 beta (build 457) - by Dester - [email protected]
~~~~~~~~~~~~~~~~~~~~~~~~~~~~~~~~~~
-=== НЕ РЕДАКТИРУЙТЕ ЭТОТ ФАЙЛ! ===-
Путь: ...\Будь что будет
01 -=- 01 - Richard Alden, his Piano and Orchestra - Que sera, sera (Whatever Will Be, Will Be).flac -=- CDDA (100%)
02 -=- 02 - Larry Dalton and his Orchestra - That's Amore.flac -=- CDDA (100%)
03 -=- 03 - Keith Murrell - What's New, Pussycat .flac -=- CDDA (100%)
04 -=- 04 - Ken Thorne and his Orchestra - Wunderbar.flac -=- CDDA (99%)
05 -=- 05 - Charles Gerhardt and his Orchestra - Pigalle.flac -=- CDDA (100%)
06 -=- 06 - Frank Chacksfield and his Orchestra - The Carousel Waltz.flac -=- CDDA (100%)
07 -=- 07 - Dominique Chatelain, his Piano and Orchestra - La Petite valse (The Petite Waltz).flac -=- CDDA (100%)
08 -=- 08 - Christian Colombier and his Orchestra - Cuckoo's Waltz.flac -=- CDDA (100%)
09 -=- 09 - L'Orchestre de la Butte- Ghislain Slingeneyer, conductor - La Valse brune.flac -=- CDDA (99%)
10 -=- 10 - Ken Thorne and his Orchestra - My Favorite Things.flac -=- CDDA (99%)
11 -=- 11 - Mary Carewe - At Last! At Last!.flac -=- CDDA (100%)
12 -=- 12 - Richard Alden, his Piano and Orchestra - Let's Take An Old-Fashioned Walk.flac -=- CDDA (100%)
13 -=- 13 - Robert Farnon and his Orchestra - The Girl That I Marry.flac -=- CDDA (100%)
14 -=- 14 - Reg Owen and his Orchestra - Domino.flac -=- CDDA (100%)
15 -=- 15 - Richard Abel, his Piano and Orchestra - Charming Waltzes.flac -=- CDDA (100%)
16 -=- 16 - The Mayfair Dance Orchestra- Ghislain Slingeneyer, conductor - Belle Of The Ball.flac -=- CDDA (100%)
17 -=- 17 - Ronnie Price, his Piano and Orchestra - Oh, What A Beautiful Morning.flac -=- CDDA (99%)
18 -=- 18 - Hill Bowen and his Orchestra - Park Avenue Waltz.flac -=- CDDA (100%)
19 -=- 19 - Ken Thorne and his Orchestra - Cruising Down The River.flac -=- CDDA (100%)
20 -=- 20 - Douglas Gamley and his Orchestra - Ciribiribin.flac -=- CDDA (100%)
21 -=- 21 - Frank de Vol and his Orchestra - Matchmaker, Matchmaker.flac -=- MPEG (91%)
22 -=- 22 - Vaclav Hybs and his Orchestra - Love Dream.flac -=- CDDA (100%)
23 -=- 23 - Hill Bowen and his Orchestra - Stars In My Eyes.flac -=- CDDA (100%)
Сводка 95,87% CDDA
85313908
Трэклист
01 - Kenny Rogers - Somewhere, My Love. (2:43)
02 - Ken Thorne and his Orchestra - Try To Remember. (2:54)
03 - Douglas Gamley and his Orchestra - And Love Was Born. (3:36)
04 - Orchestre de la Butte-Ghislain Slingeneyer, conductor - C'est l'amour. (3:05)
05 - Hill Bowen and his Orchestra - The Loveliest Night Of The Year. (2:37)
06 - Ken Thorne and his Orchestra - If You Were The Only Girl In The World.. (3:11)
07 - Roland Shaw and his Orchestra - A Wonderful Guy. (2:20)
08 - Cyril Stapleton and his Orchestra - A Countess From Hong Kong. (3:03)
09 - Steve Clayton - Alice Blue Gown. (2:27)
10 - Ken Thorne and his Orchestra - Allegheny Moon. (3:12)
11 - Hill Bowen and his Orchestra - Charmaine. (2:51)
12 - Richard Alden, his Piano and Orchestra - Tammy. (3:03)
13 - Robert Farnon and his Orchestra - Together. (2:50)
14 - Robert Mandell and his Orchestra - Kiss Me Again. (2:20)
15 - Roland Shaw and his Orchestra - Anniversary Song. (2:22)
16 - Norman Percival and his Orchestra - Falling In Love With Love. (2:30)
17 - Richard Alden, his Piano and Orchestra - Girl Of My Dreams. (3:11)
18 - Norman Percival and his Orchestra - Jeannine, I Dream Of Lilac Time. (3:23)
19 - Douglas Gamley and his Orchestra - Remember. (3:08)
20 - Roland Shaw and his Orchestra - Goodnight My Someone. (2:56)
21 - Ben Cramer - Vaya Con Dios. (4:03)
”Отчет ЕАС”
Отчёт EAC об извлечении, выполненном 5. марта 2012, 3:50 для диска:
Various / В ритме танца - Любовь моя
Дисковод: TSSTcorpCDDVDW SH-222AB Adapter: 0 ID: 0
Режим чтения: Достоверный (C2: нет, Точный поток: да, Отключение кэша: да)
Коррекция смещения при чтении: 6
Способность читать области Lead-in и Lead-out : Нет
Выходной формат: C:\Program Files (x86)\FLAC\flac.exe (Пользовательский кодировщик)
128 kBit/s
Дополнительные параметры: -8 -V -T "ARTIST=%a" -T "TITLE=%t" -T "ALBUM=%g" -T "DATE=%y" -T "TRACKNUMBER=%n" -T "GENRE=%m" -T "COMMENT=EAC FLAC -8" %s
Другие параметры:
Заполнение пропущенных сэмплов тишиной : Да
Удаление блоков с тишиной в начале и конце : Нет
Встроенный Win32-интерфейс для Win NT/2000
Трек 1
Имя файла C:\Sergei\новая папка\01 - Kenny Rogers - Somewhere, My Love.wav
Длина предзазора 0:00:02.00
Пиковый уровень 75.9 %
Качество трека 100.0 %
CRC теста 4F3E51B3
CRC копии 4F3E51B3
Копирование... OK
Трек 2
Имя файла C:\Sergei\новая папка\02 - Ken Thorne and his Orchestra - Try To Remember.wav
Длина предзазора 0:00:01.80
Пиковый уровень 99.0 %
Качество трека 100.0 %
CRC теста 354CE1CA
CRC копии 354CE1CA
Копирование... OK
Трек 3
Имя файла C:\Sergei\новая папка\03 - Douglas Gamley and his Orchestra - And Love Was Born.wav
Длина предзазора 0:00:01.80
Пиковый уровень 66.2 %
Качество трека 99.9 %
CRC теста 78905A5F
CRC копии 78905A5F
Копирование... OK
Трек 4
Имя файла C:\Sergei\новая папка\04 - Orchestre de la Butte-Ghislain Slingeneyer, conductor - C'est l'amour.wav
Длина предзазора 0:00:01.80
Пиковый уровень 72.4 %
Качество трека 100.0 %
CRC теста 45D09AEE
CRC копии 45D09AEE
Копирование... OK
Трек 5
Имя файла C:\Sergei\новая папка\05 - Hill Bowen and his Orchestra - The Loveliest Night Of The Year.wav
Длина предзазора 0:00:01.80
Пиковый уровень 86.7 %
Качество трека 100.0 %
CRC теста 8715E849
CRC копии 8715E849
Копирование... OK
Трек 6
Имя файла C:\Sergei\новая папка\06 - Ken Thorne and his Orchestra - If You Were The Only Girl In The World.wav
Длина предзазора 0:00:01.80
Пиковый уровень 84.4 %
Качество трека 100.0 %
CRC теста 7F102543
CRC копии 7F102543
Копирование... OK
Трек 7
Имя файла C:\Sergei\новая папка\07 - Roland Shaw and his Orchestra - A Wonderful Guy.wav
Длина предзазора 0:00:01.80
Пиковый уровень 95.8 %
Качество трека 100.0 %
CRC теста A8642888
CRC копии A8642888
Копирование... OK
Трек 8
Имя файла C:\Sergei\новая папка\08 - Cyril Stapleton and his Orchestra - A Countess From Hong Kong.wav
Длина предзазора 0:00:01.80
Пиковый уровень 81.6 %
Качество трека 100.0 %
CRC теста 1753BE48
CRC копии 1753BE48
Копирование... OK
Трек 9
Имя файла C:\Sergei\новая папка\09 - Steve Clayton - Alice Blue Gown.wav
Длина предзазора 0:00:01.80
Пиковый уровень 72.8 %
Качество трека 100.0 %
CRC теста 8902BBEB
CRC копии 8902BBEB
Копирование... OK
Трек 10
Имя файла C:\Sergei\новая папка\10 - Ken Thorne and his Orchestra - Allegheny Moon.wav
Длина предзазора 0:00:01.78
Пиковый уровень 99.5 %
Качество трека 100.0 %
CRC теста 83D9AE26
CRC копии 83D9AE26
Копирование... OK
Трек 11
Имя файла C:\Sergei\новая папка\11 - Hill Bowen and his Orchestra - Charmaine.wav
Длина предзазора 0:00:01.80
Пиковый уровень 94.6 %
Качество трека 99.9 %
CRC теста 84FEDAD5
CRC копии 84FEDAD5
Копирование... OK
Трек 12
Имя файла C:\Sergei\новая папка\12 - Richard Alden, his Piano and Orchestra - Tammy.wav
Длина предзазора 0:00:01.80
Пиковый уровень 72.0 %
Качество трека 100.0 %
CRC теста 2BCFB1CD
CRC копии 2BCFB1CD
Копирование... OK
Трек 13
Имя файла C:\Sergei\новая папка\13 - Robert Farnon and his Orchestra - Together.wav
Длина предзазора 0:00:01.80
Пиковый уровень 91.1 %
Качество трека 100.0 %
CRC теста E3FFBBD9
CRC копии E3FFBBD9
Копирование... OK
Трек 14
Имя файла C:\Sergei\новая папка\14 - Robert Mandell and his Orchestra - Kiss Me Again.wav
Длина предзазора 0:00:01.80
Пиковый уровень 89.7 %
Качество трека 100.0 %
CRC теста 3BAE8F3B
CRC копии 3BAE8F3B
Копирование... OK
Трек 15
Имя файла C:\Sergei\новая папка\15 - Roland Shaw and his Orchestra - Anniversary Song.wav
Длина предзазора 0:00:01.80
Пиковый уровень 98.9 %
Качество трека 100.0 %
CRC теста 1D79F48D
CRC копии 1D79F48D
Копирование... OK
Трек 16
Имя файла C:\Sergei\новая папка\16 - Norman Percival and his Orchestra - Falling In Love With Love.wav
Длина предзазора 0:00:01.80
Пиковый уровень 90.8 %
Качество трека 100.0 %
CRC теста B6E2D7A8
CRC копии B6E2D7A8
Копирование... OK
Трек 17
Имя файла C:\Sergei\новая папка\17 - Richard Alden, his Piano and Orchestra - Girl Of My Dreams.wav
Длина предзазора 0:00:01.80
Пиковый уровень 82.9 %
Качество трека 100.0 %
CRC теста EE47CCDE
CRC копии EE47CCDE
Копирование... OK
Трек 18
Имя файла C:\Sergei\новая папка\18 - Norman Percival and his Orchestra - Jeannine, I Dream Of Lilac Time.wav
Длина предзазора 0:00:01.80
Пиковый уровень 86.0 %
Качество трека 100.0 %
CRC теста FC3EE328
CRC копии FC3EE328
Копирование... OK
Трек 19
Имя файла C:\Sergei\новая папка\19 - Douglas Gamley and his Orchestra - Remember.wav
Длина предзазора 0:00:01.80
Пиковый уровень 72.9 %
Качество трека 100.0 %
CRC теста 449865FD
CRC копии 449865FD
Копирование... OK
Трек 20
Имя файла C:\Sergei\новая папка\20 - Roland Shaw and his Orchestra - Goodnight My Someone.wav
Длина предзазора 0:00:01.80
Пиковый уровень 98.8 %
Качество трека 100.0 %
CRC теста A718C706
CRC копии A718C706
Копирование... OK
Трек 21
Имя файла C:\Sergei\новая папка\21 - Ben Cramer - Vaya Con Dios.wav
Длина предзазора 0:00:01.80
Пиковый уровень 74.4 %
Качество трека 99.9 %
CRC теста 16A91A03
CRC копии 16A91A03
Копирование... OK
Ошибок не произошло
Конец отчёта
"Non-compilant CUE"
REM GENRE Instrumental
REM DATE 2011
REM DISCID 300E8215
REM COMMENT "ExactAudioCopy v0.95b3"
PERFORMER "Various"
TITLE "В ритме танца - Любовь моя"
FILE "01 - Kenny Rogers - Somewhere, My Love.wav" WAVE
TRACK 01 AUDIO
TITLE "Somewhere, My Love"
PERFORMER "Kenny Rogers"
INDEX 01 00:00:00
TRACK 02 AUDIO
TITLE "Try To Remember"
PERFORMER "Ken Thorne and his Orchestra"
INDEX 00 02:41:73
FILE "02 - Ken Thorne and his Orchestra - Try To Remember.wav" WAVE
INDEX 01 00:00:00
TRACK 03 AUDIO
TITLE "And Love Was Born"
PERFORMER "Douglas Gamley and his Orchestra"
INDEX 00 02:52:24
FILE "03 - Douglas Gamley and his Orchestra - And Love Was Born.wav" WAVE
INDEX 01 00:00:00
TRACK 04 AUDIO
TITLE "C'est l'amour"
PERFORMER "Orchestre de la Butte\Ghislain Slingeneyer, conductor"
INDEX 00 03:34:26
FILE "04 - Orchestre de la Butte-Ghislain Slingeneyer, conductor - C'est l'amour.wav" WAVE
INDEX 01 00:00:00
TRACK 05 AUDIO
TITLE "The Loveliest Night Of The Year "
PERFORMER "Hill Bowen and his Orchestra"
INDEX 00 03:03:68
FILE "05 - Hill Bowen and his Orchestra - The Loveliest Night Of The Year.wav" WAVE
INDEX 01 00:00:00
TRACK 06 AUDIO
TITLE "If You Were The Only Girl In The World"
PERFORMER "Ken Thorne and his Orchestra"
INDEX 00 02:35:22
FILE "06 - Ken Thorne and his Orchestra - If You Were The Only Girl In The World.wav" WAVE
INDEX 01 00:00:00
TRACK 07 AUDIO
TITLE "A Wonderful Guy"
PERFORMER "Roland Shaw and his Orchestra"
INDEX 00 03:09:15
FILE "07 - Roland Shaw and his Orchestra - A Wonderful Guy.wav" WAVE
INDEX 01 00:00:00
TRACK 08 AUDIO
TITLE "A Countess From Hong Kong"
PERFORMER "Cyril Stapleton and his Orchestra"
INDEX 00 02:18:51
FILE "08 - Cyril Stapleton and his Orchestra - A Countess From Hong Kong.wav" WAVE
INDEX 01 00:00:00
TRACK 09 AUDIO
TITLE "Alice Blue Gown"
PERFORMER "Steve Clayton"
INDEX 00 03:01:55
FILE "09 - Steve Clayton - Alice Blue Gown.wav" WAVE
INDEX 01 00:00:00
TRACK 10 AUDIO
TITLE "Allegheny Moon"
PERFORMER "Ken Thorne and his Orchestra"
INDEX 00 02:26:12
FILE "10 - Ken Thorne and his Orchestra - Allegheny Moon.wav" WAVE
INDEX 01 00:00:00
TRACK 11 AUDIO
TITLE "Charmaine"
PERFORMER "Hill Bowen and his Orchestra"
INDEX 00 03:11:00
FILE "11 - Hill Bowen and his Orchestra - Charmaine.wav" WAVE
INDEX 01 00:00:00
TRACK 12 AUDIO
TITLE "Tammy"
PERFORMER "Richard Alden, his Piano and Orchestra"
INDEX 00 02:49:41
FILE "12 - Richard Alden, his Piano and Orchestra - Tammy.wav" WAVE
INDEX 01 00:00:00
TRACK 13 AUDIO
TITLE "Together"
PERFORMER "Robert Farnon and his Orchestra"
INDEX 00 03:01:33
FILE "13 - Robert Farnon and his Orchestra - Together.wav" WAVE
INDEX 01 00:00:00
TRACK 14 AUDIO
TITLE "Kiss Me Again"
PERFORMER "Robert Mandell and his Orchestra"
INDEX 00 02:48:50
FILE "14 - Robert Mandell and his Orchestra - Kiss Me Again.wav" WAVE
INDEX 01 00:00:00
TRACK 15 AUDIO
TITLE "Anniversary Song"
PERFORMER "Roland Shaw and his Orchestra"
INDEX 00 02:18:29
FILE "15 - Roland Shaw and his Orchestra - Anniversary Song.wav" WAVE
INDEX 01 00:00:00
TRACK 16 AUDIO
TITLE "Falling In Love With Love"
PERFORMER "Norman Percival and his Orchestra"
INDEX 00 02:21:06
FILE "16 - Norman Percival and his Orchestra - Falling In Love With Love.wav" WAVE
INDEX 01 00:00:00
TRACK 17 AUDIO
TITLE "Girl Of My Dreams"
PERFORMER "Richard Alden, his Piano and Orchestra"
INDEX 00 02:28:66
FILE "17 - Richard Alden, his Piano and Orchestra - Girl Of My Dreams.wav" WAVE
INDEX 01 00:00:00
TRACK 18 AUDIO
TITLE "Jeannine, I Dream Of Lilac Time"
PERFORMER "Norman Percival and his Orchestra"
INDEX 00 03:09:28
FILE "18 - Norman Percival and his Orchestra - Jeannine, I Dream Of Lilac Time.wav" WAVE
INDEX 01 00:00:00
TRACK 19 AUDIO
TITLE "Remember"
PERFORMER "Douglas Gamley and his Orchestra"
INDEX 00 03:21:60
FILE "19 - Douglas Gamley and his Orchestra - Remember.wav" WAVE
INDEX 01 00:00:00
TRACK 20 AUDIO
TITLE "Goodnight My Someone"
PERFORMER "Roland Shaw and his Orchestra"
INDEX 00 03:07:06
FILE "20 - Roland Shaw and his Orchestra - Goodnight My Someone.wav" WAVE
INDEX 01 00:00:00
TRACK 21 AUDIO
TITLE "Vaya Con Dios"
PERFORMER "Ben Cramer"
INDEX 00 02:54:53
FILE "21 - Ben Cramer - Vaya Con Dios.wav" WAVE
INDEX 01 00:00:00
"Лог Audiochecker"
AUDIOCHECKER v2.0 beta (build 457) - by Dester - [email protected]
~~~~~~~~~~~~~~~~~~~~~~~~~~~~~~~~~~
-=== НЕ РЕДАКТИРУЙТЕ ЭТОТ ФАЙЛ! ===-
Путь: ...\Любовь моя
01 -=- 01 - Kenny Rogers - Somewhere, My Love.flac -=- CDDA (100%)
02 -=- 02 - Ken Thorne and his Orchestra - Try To Remember.flac -=- CDDA (100%)
03 -=- 03 - Douglas Gamley and his Orchestra - And Love Was Born.flac -=- CDDA (100%)
04 -=- 04 - Orchestre de la Butte-Ghislain Slingeneyer, conductor - C'est l'amour.flac -=- CDDA (100%)
05 -=- 05 - Hill Bowen and his Orchestra - The Loveliest Night Of The Year.flac -=- CDDA (100%)
06 -=- 06 - Ken Thorne and his Orchestra - If You Were The Only Girl In The World.flac -=- CDDA (100%)
07 -=- 07 - Roland Shaw and his Orchestra - A Wonderful Guy.flac -=- CDDA (100%)
08 -=- 08 - Cyril Stapleton and his Orchestra - A Countess From Hong Kong.flac -=- CDDA (100%)
09 -=- 09 - Steve Clayton - Alice Blue Gown.flac -=- CDDA (100%)
10 -=- 10 - Ken Thorne and his Orchestra - Allegheny Moon.flac -=- CDDA (100%)
11 -=- 11 - Hill Bowen and his Orchestra - Charmaine.flac -=- CDDA (100%)
12 -=- 12 - Richard Alden, his Piano and Orchestra - Tammy.flac -=- CDDA (100%)
13 -=- 13 - Robert Farnon and his Orchestra - Together.flac -=- CDDA (100%)
14 -=- 14 - Robert Mandell and his Orchestra - Kiss Me Again.flac -=- CDDA (100%)
15 -=- 15 - Roland Shaw and his Orchestra - Anniversary Song.flac -=- CDDA (99%)
16 -=- 16 - Norman Percival and his Orchestra - Falling In Love With Love.flac -=- CDDA (100%)
17 -=- 17 - Richard Alden, his Piano and Orchestra - Girl Of My Dreams.flac -=- CDDA (100%)
18 -=- 18 - Norman Percival and his Orchestra - Jeannine, I Dream Of Lilac Time.flac -=- CDDA (62%)
19 -=- 19 - Douglas Gamley and his Orchestra - Remember.flac -=- CDDA (99%)
20 -=- 20 - Roland Shaw and his Orchestra - Goodnight My Someone.flac -=- CDDA (100%)
21 -=- 21 - Ben Cramer - Vaya Con Dios.flac -=- CDDA (100%)
Сводка 98,10% CDDA
145531332
Трэклист
01 - Douglas Gamley and his Orchestra - Edelweiss. (3:31)
02 - Matt Monro with Michel Legrand and his Orchestra - A Place In Paris. (2:29)
03 - Dominique Chatelain, his Piano and Orchestra - Valsinha. (2:51)
04 - Mary Carewe - Where Is Your Heart (The Waltz from 'Moulin Rouge') . (2:15)
05 - Ben Cramer - The Canals Of Amsterdam. (2:41)
06 - Christian Colombier and his Orchestra - Les Filles du bord de mer. (3:31)
07 - Paul Mauriat and his Orchestra - Paris Musette. (2:47)
08 - Ralph Benatar and his Orchestra - Frou-Frou. (3:13)
09 - Lei Wang, Violin, with the Fierland Festival Orchestra - L'Amour est un bouquet de violettes. (2:38)
10 - Mary Carewe - Hi-Lili, Hi-Lo. (2:48)
11 - Patti Page - Tennessee Waltz. (2:58)
12 - Piotr Kaldinski and his Orchestra - Embarras Waltz. (3:39)
13 - Lei Wang, Violin, with the Fierland Festival Orchestra - The Wild Rose (Villiruusu) . (3:32)
14 - Mary Carewe - Dancing With Tears In My Eyes. (2:31)
15 - Larry Dalton and his Orchestra - The Godfather Waltz. (4:29)
16 - Ken Thorne and his Orchestra - L'Eau vive. (2:37)
17 - Ken Thorne and his Orchestra - La Seine (The River Seine) . (2:33)
18 - Robert Farnon and his Orchestra - Carolina Moon. (3:01)
19 - Hill Bowen and his Orchestra - Paradise. (2:35)
20 - Norrie Paramor and his Orchestra - Calypso. (3:20)
21 - Norman Percival and his Orchestra - The Missouri Waltz. (2:18)
22 - Richard Hayman and his Orchestra - Mademoiselle de Paris. (2:53)
23 - Richard Alden, his Piano and Orchestra - It's A Big, Wide, Wonderful World. (3:05)
”Отчет ЕАС”
Отчёт EAC об извлечении, выполненном 5. марта 2012, 5:32 для диска:
Various / В ритме танца - Этот прекрасный мир
Дисковод: TSSTcorpCDDVDW SH-222AB Adapter: 0 ID: 0
Режим чтения: Достоверный (C2: нет, Точный поток: да, Отключение кэша: да)
Коррекция смещения при чтении: 6
Способность читать области Lead-in и Lead-out : Нет
Выходной формат: C:\Program Files (x86)\FLAC\flac.exe (Пользовательский кодировщик)
128 kBit/s
Дополнительные параметры: -8 -V -T "ARTIST=%a" -T "TITLE=%t" -T "ALBUM=%g" -T "DATE=%y" -T "TRACKNUMBER=%n" -T "GENRE=%m" -T "COMMENT=EAC FLAC -8" %s
Другие параметры:
Заполнение пропущенных сэмплов тишиной : Да
Удаление блоков с тишиной в начале и конце : Нет
Встроенный Win32-интерфейс для Win NT/2000
Трек 1
Имя файла C:\Sergei\новая папка\01 - Douglas Gamley and his Orchestra - Edelweiss.wav
Длина предзазора 0:00:02.00
Пиковый уровень 95.8 %
Качество трека 100.0 %
CRC теста 1DA966F0
CRC копии 1DA966F0
Копирование... OK
Трек 2
Имя файла C:\Sergei\новая папка\02 - Matt Monro with Michel Legrand and his Orchestra - A Place In Paris.wav
Длина предзазора 0:00:01.80
Пиковый уровень 77.7 %
Качество трека 100.0 %
CRC теста 06188D31
CRC копии 06188D31
Копирование... OK
Трек 3
Имя файла C:\Sergei\новая папка\03 - Dominique Chatelain, his Piano and Orchestra - Valsinha.wav
Длина предзазора 0:00:01.80
Пиковый уровень 63.0 %
Качество трека 99.9 %
CRC теста D9133CFB
CRC копии D9133CFB
Копирование... OK
Трек 4
Имя файла C:\Sergei\новая папка\04 - Mary Carewe - Where Is Your Heart (The Waltz from 'Moulin Rouge').wav
Длина предзазора 0:00:01.80
Пиковый уровень 87.1 %
Качество трека 99.9 %
CRC теста 20C9BA7D
CRC копии 20C9BA7D
Копирование... OK
Трек 5
Имя файла C:\Sergei\новая папка\05 - Ben Cramer - The Canals Of Amsterdam.wav
Длина предзазора 0:00:01.80
Пиковый уровень 41.2 %
Качество трека 99.9 %
CRC теста 680EC9CF
CRC копии 680EC9CF
Копирование... OK
Трек 6
Имя файла C:\Sergei\новая папка\06 - Christian Colombier and his Orchestra - Les Filles du bord de mer.wav
Длина предзазора 0:00:01.80
Пиковый уровень 58.4 %
Качество трека 100.0 %
CRC теста 9CDACC96
CRC копии 9CDACC96
Копирование... OK
Трек 7
Имя файла C:\Sergei\новая папка\07 - Paul Mauriat and his Orchestra - Paris Musette.wav
Длина предзазора 0:00:01.80
Пиковый уровень 62.6 %
Качество трека 100.0 %
CRC теста DDB22A14
CRC копии DDB22A14
Копирование... OK
Трек 8
Имя файла C:\Sergei\новая папка\08 - Ralph Benatar and his Orchestra - Frou-Frou.wav
Длина предзазора 0:00:01.80
Пиковый уровень 70.0 %
Качество трека 100.0 %
CRC теста 845E9D56
CRC копии 845E9D56
Копирование... OK
Трек 9
Имя файла C:\Sergei\новая папка\09 - Lei Wang, Violin, with the Fierland Festival Orchestra - L'Amour est un bouquet de violettes.wav
Длина предзазора 0:00:01.80
Пиковый уровень 72.5 %
Качество трека 100.0 %
CRC теста A1EF03A5
CRC копии A1EF03A5
Копирование... OK
Трек 10
Имя файла C:\Sergei\новая папка\10 - Mary Carewe - Hi-Lili, Hi-Lo.wav
Длина предзазора 0:00:01.80
Пиковый уровень 55.3 %
Качество трека 100.0 %
CRC теста FB822D3C
CRC копии FB822D3C
Копирование... OK
Трек 11
Имя файла C:\Sergei\новая папка\11 - Patti Page - Tennessee Waltz.wav
Длина предзазора 0:00:01.80
Пиковый уровень 99.5 %
Качество трека 100.0 %
CRC теста 30B7209F
CRC копии 30B7209F
Копирование... OK
Трек 12
Имя файла C:\Sergei\новая папка\12 - Piotr Kaldinski and his Orchestra - Embarras Waltz.wav
Длина предзазора 0:00:01.80
Пиковый уровень 75.7 %
Качество трека 100.0 %
CRC теста 4AF72987
CRC копии 4AF72987
Копирование... OK
Трек 13
Имя файла C:\Sergei\новая папка\13 - Lei Wang, Violin, with the Fierland Festival Orchestra - The Wild Rose (Villiruusu).wav
Длина предзазора 0:00:01.80
Пиковый уровень 62.9 %
Качество трека 99.9 %
CRC теста 881D09EC
CRC копии 881D09EC
Копирование... OK
Трек 14
Имя файла C:\Sergei\новая папка\14 - Mary Carewe - Dancing With Tears In My Eyes.wav
Длина предзазора 0:00:01.80
Пиковый уровень 62.8 %
Качество трека 100.0 %
CRC теста 76DB7B30
CRC копии 76DB7B30
Копирование... OK
Трек 15
Имя файла C:\Sergei\новая папка\15 - Larry Dalton and his Orchestra - The Godfather Waltz.wav
Длина предзазора 0:00:01.80
Пиковый уровень 81.3 %
Качество трека 100.0 %
CRC теста D12CEA46
CRC копии D12CEA46
Копирование... OK
Трек 16
Имя файла C:\Sergei\новая папка\16 - Ken Thorne and his Orchestra - L'Eau vive.wav
Длина предзазора 0:00:01.80
Пиковый уровень 96.4 %
Качество трека 100.0 %
CRC теста 7B30D8C6
CRC копии 7B30D8C6
Копирование... OK
Трек 17
Имя файла C:\Sergei\новая папка\17 - Ken Thorne and his Orchestra - La Seine (The River Seine).wav
Длина предзазора 0:00:01.80
Пиковый уровень 86.9 %
Качество трека 100.0 %
CRC теста 928D0226
CRC копии 928D0226
Копирование... OK
Трек 18
Имя файла C:\Sergei\новая папка\18 - Robert Farnon and his Orchestra - Carolina Moon.wav
Длина предзазора 0:00:01.80
Пиковый уровень 94.2 %
Качество трека 100.0 %
CRC теста ECEFB519
CRC копии ECEFB519
Копирование... OK
Трек 19
Имя файла C:\Sergei\новая папка\19 - Hill Bowen and his Orchestra - Paradise.wav
Длина предзазора 0:00:01.80
Пиковый уровень 84.1 %
Качество трека 100.0 %
CRC теста CADEF6C9
CRC копии CADEF6C9
Копирование... OK
Трек 20
Имя файла C:\Sergei\новая папка\20 - Norrie Paramor and his Orchestra - Calypso.wav
Длина предзазора 0:00:01.80
Пиковый уровень 84.2 %
Качество трека 99.9 %
CRC теста 478D0882
CRC копии 478D0882
Копирование... OK
Трек 21
Имя файла C:\Sergei\новая папка\21 - Norman Percival and his Orchestra - The Missouri Waltz.wav
Длина предзазора 0:00:01.80
Пиковый уровень 67.8 %
Качество трека 100.0 %
CRC теста 8439F700
CRC копии 8439F700
Копирование... OK
Трек 22
Имя файла C:\Sergei\новая папка\22 - Richard Hayman and his Orchestra - Mademoiselle de Paris.wav
Длина предзазора 0:00:01.80
Пиковый уровень 97.4 %
Качество трека 100.0 %
CRC теста 78DC349F
CRC копии 78DC349F
Копирование... OK
Трек 23
Имя файла C:\Sergei\новая папка\23 - Richard Alden, his Piano and Orchestra - It's A Big, Wide, Wonderful World.wav
Длина предзазора 0:00:01.78
Пиковый уровень 64.7 %
Качество трека 100.0 %
CRC теста 332DD0CE
CRC копии 332DD0CE
Копирование... OK
Ошибок не произошло
Конец отчёта
"Non-compilant CUE"
REM GENRE Instrumental
REM DATE 2011
REM DISCID 28100817
REM COMMENT "ExactAudioCopy v0.95b3"
PERFORMER "Various"
TITLE "В ритме танца - Этот прекрасный мир"
FILE "01 - Douglas Gamley and his Orchestra - Edelweiss.wav" WAVE
TRACK 01 AUDIO
TITLE "Edelweiss"
PERFORMER "Douglas Gamley and his Orchestra"
INDEX 01 00:00:00
TRACK 02 AUDIO
TITLE "A Place In Paris"
PERFORMER "Matt Monro with Michel Legrand and his Orchestra"
INDEX 00 03:29:25
FILE "02 - Matt Monro with Michel Legrand and his Orchestra - A Place In Paris.wav" WAVE
INDEX 01 00:00:00
TRACK 03 AUDIO
TITLE "Valsinha"
PERFORMER "Dominique Chatelain, his Piano and Orchestra"
INDEX 00 02:27:62
FILE "03 - Dominique Chatelain, his Piano and Orchestra - Valsinha.wav" WAVE
INDEX 01 00:00:00
TRACK 04 AUDIO
TITLE "Where Is Your Heart (The Waltz from 'Moulin Rouge')"
PERFORMER "Mary Carewe"
INDEX 00 02:49:15
FILE "04 - Mary Carewe - Where Is Your Heart (The Waltz from 'Moulin Rouge').wav" WAVE
INDEX 01 00:00:00
TRACK 05 AUDIO
TITLE "The Canals Of Amsterdam"
PERFORMER "Ben Cramer"
INDEX 00 02:13:74
FILE "05 - Ben Cramer - The Canals Of Amsterdam.wav" WAVE
INDEX 01 00:00:00
TRACK 06 AUDIO
TITLE "Les Filles du bord de mer"
PERFORMER "Christian Colombier and his Orchestra"
INDEX 00 02:39:43
FILE "06 - Christian Colombier and his Orchestra - Les Filles du bord de mer.wav" WAVE
INDEX 01 00:00:00
TRACK 07 AUDIO
TITLE "Paris Musette"
PERFORMER "Paul Mauriat and his Orchestra"
INDEX 00 03:29:21
FILE "07 - Paul Mauriat and his Orchestra - Paris Musette.wav" WAVE
INDEX 01 00:00:00
TRACK 08 AUDIO
TITLE "Frou-Frou"
PERFORMER "Ralph Benatar and his Orchestra"
INDEX 00 02:45:52
FILE "08 - Ralph Benatar and his Orchestra - Frou-Frou.wav" WAVE
INDEX 01 00:00:00
TRACK 09 AUDIO
TITLE "L'Amour est un bouquet de violettes"
PERFORMER "Lei Wang, Violin, with the Fierland Festival Orchestra"
INDEX 00 03:12:12
FILE "09 - Lei Wang, Violin, with the Fierland Festival Orchestra - L'Amour est un bouquet de violettes.wav" WAVE
INDEX 01 00:00:00
TRACK 10 AUDIO
TITLE "Hi-Lili, Hi-Lo "
PERFORMER "Mary Carewe"
INDEX 00 02:36:52
FILE "10 - Mary Carewe - Hi-Lili, Hi-Lo.wav" WAVE
INDEX 01 00:00:00
TRACK 11 AUDIO
TITLE "Tennessee Waltz"
PERFORMER "Patti Page"
INDEX 00 02:47:01
FILE "11 - Patti Page - Tennessee Waltz.wav" WAVE
INDEX 01 00:00:00
TRACK 12 AUDIO
TITLE "Embarras Waltz"
PERFORMER "Piotr Kaldinski and his Orchestra"
INDEX 00 02:56:20
FILE "12 - Piotr Kaldinski and his Orchestra - Embarras Waltz.wav" WAVE
INDEX 01 00:00:00
TRACK 13 AUDIO
TITLE "The Wild Rose (Villiruusu)"
PERFORMER "Lei Wang, Violin, with the Fierland Festival Orchestra"
INDEX 00 03:37:66
FILE "13 - Lei Wang, Violin, with the Fierland Festival Orchestra - The Wild Rose (Villiruusu).wav" WAVE
INDEX 01 00:00:00
TRACK 14 AUDIO
TITLE "Dancing With Tears In My Eyes"
PERFORMER "Mary Carewe"
INDEX 00 03:30:29
FILE "14 - Mary Carewe - Dancing With Tears In My Eyes.wav" WAVE
INDEX 01 00:00:00
TRACK 15 AUDIO
TITLE "The Godfather Waltz"
PERFORMER "Larry Dalton and his Orchestra"
INDEX 00 02:29:42
FILE "15 - Larry Dalton and his Orchestra - The Godfather Waltz.wav" WAVE
INDEX 01 00:00:00
TRACK 16 AUDIO
TITLE "L'Eau vive"
PERFORMER "Ken Thorne and his Orchestra"
INDEX 00 04:27:21
FILE "16 - Ken Thorne and his Orchestra - L'Eau vive.wav" WAVE
INDEX 01 00:00:00
TRACK 17 AUDIO
TITLE "La Seine (The River Seine)"
PERFORMER "Ken Thorne and his Orchestra"
INDEX 00 02:35:30
FILE "17 - Ken Thorne and his Orchestra - La Seine (The River Seine).wav" WAVE
INDEX 01 00:00:00
TRACK 18 AUDIO
TITLE "Carolina Moon"
PERFORMER "Robert Farnon and his Orchestra"
INDEX 00 02:31:39
FILE "18 - Robert Farnon and his Orchestra - Carolina Moon.wav" WAVE
INDEX 01 00:00:00
TRACK 19 AUDIO
TITLE "Paradise"
PERFORMER "Hill Bowen and his Orchestra"
INDEX 00 02:59:31
FILE "19 - Hill Bowen and his Orchestra - Paradise.wav" WAVE
INDEX 01 00:00:00
TRACK 20 AUDIO
TITLE "Calypso"
PERFORMER "Norrie Paramor and his Orchestra"
INDEX 00 02:33:56
FILE "20 - Norrie Paramor and his Orchestra - Calypso.wav" WAVE
INDEX 01 00:00:00
TRACK 21 AUDIO
TITLE "The Missouri Waltz"
PERFORMER "Norman Percival and his Orchestra"
INDEX 00 03:18:57
FILE "21 - Norman Percival and his Orchestra - The Missouri Waltz.wav" WAVE
INDEX 01 00:00:00
TRACK 22 AUDIO
TITLE "Mademoiselle de Paris"
PERFORMER "Richard Hayman and his Orchestra"
INDEX 00 02:16:15
FILE "22 - Richard Hayman and his Orchestra - Mademoiselle de Paris.wav" WAVE
INDEX 01 00:00:00
TRACK 23 AUDIO
TITLE "It's A Big, Wide, Wonderful World"
PERFORMER "Richard Alden, his Piano and Orchestra"
INDEX 00 02:51:73
FILE "23 - Richard Alden, his Piano and Orchestra - It's A Big, Wide, Wonderful World.wav" WAVE
INDEX 01 00:00:00
"Лог Audiochecker"
AUDIOCHECKER v2.0 beta (build 457) - by Dester - [email protected]
~~~~~~~~~~~~~~~~~~~~~~~~~~~~~~~~~~
-=== НЕ РЕДАКТИРУЙТЕ ЭТОТ ФАЙЛ! ===-
Путь: ...\Этот прекрасный мир
01 -=- 01 - Douglas Gamley and his Orchestra - Edelweiss.flac -=- CDDA (100%)
02 -=- 02 - Matt Monro with Michel Legrand and his Orchestra - A Place In Paris.flac -=- CDDA (99%)
03 -=- 03 - Dominique Chatelain, his Piano and Orchestra - Valsinha.flac -=- CDDA (100%)
04 -=- 04 - Mary Carewe - Where Is Your Heart (The Waltz from 'Moulin Rouge').flac -=- CDDA (100%)
05 -=- 05 - Ben Cramer - The Canals Of Amsterdam.flac -=- CDDA (100%)
06 -=- 06 - Christian Colombier and his Orchestra - Les Filles du bord de mer.flac -=- CDDA (100%)
07 -=- 07 - Paul Mauriat and his Orchestra - Paris Musette.flac -=- CDDA (100%)
08 -=- 08 - Ralph Benatar and his Orchestra - Frou-Frou.flac -=- CDDA (100%)
09 -=- 09 - Lei Wang, Violin, with the Fierland Festival Orchestra - L'Amour est un bouquet de violettes.flac -=- CDDA (100%)
10 -=- 10 - Mary Carewe - Hi-Lili, Hi-Lo.flac -=- CDDA (100%)
11 -=- 11 - Patti Page - Tennessee Waltz.flac -=- CDDA (100%)
12 -=- 12 - Piotr Kaldinski and his Orchestra - Embarras Waltz.flac -=- CDDA (100%)
13 -=- 13 - Lei Wang, Violin, with the Fierland Festival Orchestra - The Wild Rose (Villiruusu).flac -=- CDDA (99%)
14 -=- 14 - Mary Carewe - Dancing With Tears In My Eyes.flac -=- CDDA (100%)
15 -=- 15 - Larry Dalton and his Orchestra - The Godfather Waltz.flac -=- CDDA (99%)
16 -=- 16 - Ken Thorne and his Orchestra - L'Eau vive.flac -=- CDDA (100%)
17 -=- 17 - Ken Thorne and his Orchestra - La Seine (The River Seine).flac -=- CDDA (100%)
18 -=- 18 - Robert Farnon and his Orchestra - Carolina Moon.flac -=- CDDA (100%)
19 -=- 19 - Hill Bowen and his Orchestra - Paradise.flac -=- CDDA (99%)
20 -=- 20 - Norrie Paramor and his Orchestra - Calypso.flac -=- CDDA (100%)
21 -=- 21 - Norman Percival and his Orchestra - The Missouri Waltz.flac -=- CDDA (100%)
22 -=- 22 - Richard Hayman and his Orchestra - Mademoiselle de Paris.flac -=- CDDA (100%)
23 -=- 23 - Richard Alden, his Piano and Orchestra - It's A Big, Wide, Wonderful World.flac -=- CDDA (100%)
Сводка 99,83% CDDA
154960996
Мы помогаем людям, чтобы они, в свою очередь, помогли нам; таким образом, наши услуги сводятся просто к благодеяниям, которые мы загодя оказываем самим себе. (Франсуа де Ларошфуко)
Download / Скачать

Хотите скачать бесплатно? Зарегистрируйтесь на сайте (ссылка на регистрацию). Pirat.ca - самый быстрый торрент трекер в рунете!

Как скачивать  ·   Что такое торрент  ·   Рейтинг и ограничения



Последний раз редактировалось: CHARLI2236 (2012-06-30 20:32), всего редактировалось 2 раз(а)

vladik9

Корсар

Пост 09-Мар-2012 18:11 (спустя 3 дня)

[Q] 

Даааа, вся музыка российская...
[Профиль]  [ЛС] 

vladik9

Корсар

Пост 09-Мар-2012 18:13 (спустя 1 минута)

[Q] 

А вообще, подборка хорошая, за труды спасибо!
[Профиль]  [ЛС] 
Показать сообщения:    
Ответить на тему

Текущее время: Сегодня 21:11

Часовой пояс: GMT + 4



Вы не можете начинать темы
Вы не можете отвечать на сообщения
Вы не можете редактировать свои сообщения
Вы не можете удалять свои сообщения
Вы не можете голосовать в опросах
Вы не можете прикреплять файлы к сообщениям
Вы не можете скачивать файлы

▼ Вниз