Уважаемый Гость!
Вы можете поддержать проект и зарегистрироваться у наших партнеров - онлайн-стратегия MyLands. При регистрации в игре Вы получите код, который сможете активировать после регистрации на pirat.ca и получить 1000 дублонов.

Ваш код:
a573f8e87940149b313a01c1976449cc92aefe50
 
     

(Instrumental) В ритме танца - Венский бал (РД) (3CD), FLAC (tracks+cue) - 2011, lossless

Ответить на тему
 
Автор
Сообщение

Пост 27-Мар-2012 17:43

[Q] 

CHARLI2236

В ритме танца - Венский бал (РД) (3CD)
Год выпуска альбома: 2011
Страна: Россия
Жанр: Instrumental
Лейбл издания: ИД Ридерз Дайджест
Продолжительность: 3:26:26
Формат: FLAC
Битрейт аудио: lossless
Тип рипа: tracks+.cue
Источник (релизер): диск CDDA
Наличие сканов в содержимом раздачи: да
Трэклист
01 - Franck Pourcel and his Orchestra - By The Beautiful Blue Danube. (4:54)
02 - Franck Pourcel and his Orchestra - Voices Of Spring. (4:39)
03 - Franck Pourcel and his Orchestra - Vienna Blood. (4:00)
04 - Franck Pourcel and his Orchestra - Roses From The South. (2:54)
05 - London Promenade Orchestra- Charles Gerhardt, conductor - Gold And Silver Waltz. (5:21)
06 - National Philharmonic Orchestra- Charles Gerhardt, conductor - My Mother Was A Viennese. (3:29)
07 - National Philharmonic Orchestra- Charles Gerhardt, conductor - Schenkt man sich Rosen in Tirol. (3:31)
08 - Franck Pourcel and his Orchestra - Vienna Bonbons. (3:19)
09 - Franck Pourcel and his Orchestra - Wine, Women and Song. (3:57)
10 - Franck Pourcel and his Orchestra - Acceleration Waltz. (3:44)
11 - Franck Pourcel and his Orchestra - Artist's Life Waltz. (3:37)
12 - Philharmonic Symphony of London- Charles Gerhardt, conductor - Danube Waves. (3:04)
13 - National Philharmonic Orchestra- Charles Gerhardt, conductor - Wien wird bei Nacht erst schцn. (3:18)
14 - Slovak Philharmonic Orchestra- Mario Kosik, conductor - Gehen wir ins Chambre sйparйe. (3:40)
15 - Franck Pourcel and his Orchestra - A Thousand And One Nights Waltz. (3:12)
16 - Franck Pourcel and his Orchestra - Morning Papers. (3:04)
17 - Franck Pourcel and his Orchestra - Tales From The Vienna Woods. (3:29)
18 - Franck Pourcel and his Orchestra - Treasure Waltz. (4:08)
19 - Franck Pourcel and his Orchestra - Emperor Waltz. (4:18)
”Отчет ЕАС”
Отчёт EAC об извлечении, выполненном 24. марта 2012, 19:48 для диска:
Various / В ритме танца - На берегу Дуная
Дисковод: TSSTcorpCDDVDW SH-222AB Adapter: 0 ID: 0
Режим чтения: Достоверный (C2: нет, Точный поток: да, Отключение кэша: да)
Коррекция смещения при чтении: 6
Способность читать области Lead-in и Lead-out : Нет
Выходной формат: C:\Program Files (x86)\FLAC\flac.exe (Пользовательский кодировщик)
128 kBit/s
Дополнительные параметры: -8 -V -T "ARTIST=%a" -T "TITLE=%t" -T "ALBUM=%g" -T "DATE=%y" -T "TRACKNUMBER=%n" -T "GENRE=%m" -T "COMMENT=EAC FLAC -8" %s
Другие параметры:
Заполнение пропущенных сэмплов тишиной : Да
Удаление блоков с тишиной в начале и конце : Нет
Встроенный Win32-интерфейс для Win NT/2000
Трек 1
Имя файла C:\Sergei\новая папка\01 - Franck Pourcel and his Orchestra - By The Beautiful Blue Danube.wav
Длина предзазора 0:00:02.00
Пиковый уровень 99.1 %
Качество трека 100.0 %
CRC теста 0C03E3F6
CRC копии 0C03E3F6
Копирование... OK
Трек 2
Имя файла C:\Sergei\новая папка\02 - Franck Pourcel and his Orchestra - Voices Of Spring.wav
Длина предзазора 0:00:01.80
Пиковый уровень 99.1 %
Качество трека 100.0 %
CRC теста 2309FCC7
CRC копии 2309FCC7
Копирование... OK
Трек 3
Имя файла C:\Sergei\новая папка\03 - Franck Pourcel and his Orchestra - Vienna Blood.wav
Длина предзазора 0:00:01.80
Пиковый уровень 94.6 %
Качество трека 100.0 %
CRC теста 525E71E9
CRC копии 525E71E9
Копирование... OK
Трек 4
Имя файла C:\Sergei\новая папка\04 - Franck Pourcel and his Orchestra - Roses From The South.wav
Длина предзазора 0:00:01.80
Пиковый уровень 96.1 %
Качество трека 100.0 %
CRC теста 12E9A533
CRC копии 12E9A533
Копирование... OK
Трек 5
Имя файла C:\Sergei\новая папка\05 - London Promenade Orchestra- Charles Gerhardt, conductor - Gold And Silver Waltz.wav
Длина предзазора 0:00:01.80
Пиковый уровень 93.5 %
Качество трека 99.9 %
CRC теста 63CF40A8
CRC копии 63CF40A8
Копирование... OK
Трек 6
Имя файла C:\Sergei\новая папка\06 - National Philharmonic Orchestra- Charles Gerhardt, conductor - My Mother Was A Viennese.wav
Длина предзазора 0:00:01.80
Пиковый уровень 72.8 %
Качество трека 100.0 %
CRC теста A399ED7B
CRC копии A399ED7B
Копирование... OK
Трек 7
Имя файла C:\Sergei\новая папка\07 - National Philharmonic Orchestra- Charles Gerhardt, conductor - Schenkt man sich Rosen in Tirol.wav
Длина предзазора 0:00:01.80
Пиковый уровень 98.9 %
Качество трека 100.0 %
CRC теста 3EAA5B1F
CRC копии 3EAA5B1F
Копирование... OK
Трек 8
Имя файла C:\Sergei\новая папка\08 - Franck Pourcel and his Orchestra - Vienna Bonbons.wav
Длина предзазора 0:00:01.80
Пиковый уровень 99.0 %
Качество трека 100.0 %
CRC теста FE9C9587
CRC копии FE9C9587
Копирование... OK
Трек 9
Имя файла C:\Sergei\новая папка\09 - Franck Pourcel and his Orchestra - Wine, Women and Song.wav
Длина предзазора 0:00:01.80
Пиковый уровень 99.2 %
Качество трека 100.0 %
CRC теста 56D5ABFB
CRC копии 56D5ABFB
Копирование... OK
Трек 10
Имя файла C:\Sergei\новая папка\10 - Franck Pourcel and his Orchestra - Acceleration Waltz.wav
Длина предзазора 0:00:01.80
Пиковый уровень 91.4 %
Качество трека 100.0 %
CRC теста CADCC031
CRC копии CADCC031
Копирование... OK
Трек 11
Имя файла C:\Sergei\новая папка\11 - Franck Pourcel and his Orchestra - Artist's Life Waltz.wav
Длина предзазора 0:00:01.80
Пиковый уровень 98.9 %
Качество трека 99.9 %
CRC теста 587D54D5
CRC копии 587D54D5
Копирование... OK
Трек 12
Имя файла C:\Sergei\новая папка\12 - Philharmonic Symphony of London- Charles Gerhardt, conductor - Danube Waves.wav
Длина предзазора 0:00:01.80
Пиковый уровень 99.4 %
Качество трека 100.0 %
CRC теста 891CD423
CRC копии 891CD423
Копирование... OK
Трек 13
Имя файла C:\Sergei\новая папка\13 - National Philharmonic Orchestra- Charles Gerhardt, conductor - Wien wird bei Nacht erst schцn.wav
Длина предзазора 0:00:01.80
Пиковый уровень 82.4 %
Качество трека 100.0 %
CRC теста BC9689A9
CRC копии BC9689A9
Копирование... OK
Трек 14
Имя файла C:\Sergei\новая папка\14 - Slovak Philharmonic Orchestra- Mario Kosik, conductor - Gehen wir ins Chambre sйparйe.wav
Длина предзазора 0:00:01.80
Пиковый уровень 98.8 %
Качество трека 100.0 %
CRC теста A8813357
CRC копии A8813357
Копирование... OK
Трек 15
Имя файла C:\Sergei\новая папка\15 - Franck Pourcel and his Orchestra - A Thousand And One Nights Waltz.wav
Длина предзазора 0:00:01.78
Пиковый уровень 99.1 %
Качество трека 100.0 %
CRC теста 53CB9264
CRC копии 53CB9264
Копирование... OK
Трек 16
Имя файла C:\Sergei\новая папка\16 - Franck Pourcel and his Orchestra - Morning Papers.wav
Длина предзазора 0:00:01.80
Пиковый уровень 90.6 %
Качество трека 100.0 %
CRC теста 31A72262
CRC копии 31A72262
Копирование... OK
Трек 17
Имя файла C:\Sergei\новая папка\17 - Franck Pourcel and his Orchestra - Tales From The Vienna Woods.wav
Длина предзазора 0:00:01.80
Пиковый уровень 98.5 %
Качество трека 99.9 %
CRC теста 901A364F
CRC копии 901A364F
Копирование... OK
Трек 18
Имя файла C:\Sergei\новая папка\18 - Franck Pourcel and his Orchestra - Treasure Waltz.wav
Длина предзазора 0:00:01.80
Пиковый уровень 99.2 %
Качество трека 99.9 %
CRC теста 77A1F706
CRC копии 77A1F706
Копирование... OK
Трек 19
Имя файла C:\Sergei\новая папка\19 - Franck Pourcel and his Orchestra - Emperor Waltz.wav
Длина предзазора 0:00:01.80
Пиковый уровень 99.0 %
Качество трека 100.0 %
CRC теста F3013782
CRC копии F3013782
Копирование... OK
Ошибок не произошло
Конец отчёта
"Non-compilant CUE"
REM GENRE Instrumental
REM DATE 2011
REM DISCID 1610D213
REM COMMENT "ExactAudioCopy v0.95b3"
PERFORMER "Various"
TITLE "В ритме танца - На берегу Дуная"
FILE "01 - Franck Pourcel and his Orchestra - By The Beautiful Blue Danube.wav" WAVE
TRACK 01 AUDIO
TITLE "By The Beautiful Blue Danube"
PERFORMER "Franck Pourcel and his Orchestra"
INDEX 01 00:00:00
TRACK 02 AUDIO
TITLE "Voices Of Spring"
PERFORMER "Franck Pourcel and his Orchestra"
INDEX 00 04:53:11
FILE "02 - Franck Pourcel and his Orchestra - Voices Of Spring.wav" WAVE
INDEX 01 00:00:00
TRACK 03 AUDIO
TITLE "Vienna Blood"
PERFORMER "Franck Pourcel and his Orchestra"
INDEX 00 04:37:70
FILE "03 - Franck Pourcel and his Orchestra - Vienna Blood.wav" WAVE
INDEX 01 00:00:00
TRACK 04 AUDIO
TITLE "Roses From The South"
PERFORMER "Franck Pourcel and his Orchestra"
INDEX 00 03:58:40
FILE "04 - Franck Pourcel and his Orchestra - Roses From The South.wav" WAVE
INDEX 01 00:00:00
TRACK 05 AUDIO
TITLE "Gold And Silver Waltz"
PERFORMER "London Promenade Orchestra\ Charles Gerhardt, conductor"
INDEX 00 02:52:20
FILE "05 - London Promenade Orchestra- Charles Gerhardt, conductor - Gold And Silver Waltz.wav" WAVE
INDEX 01 00:00:00
TRACK 06 AUDIO
TITLE "My Mother Was A Viennese"
PERFORMER "National Philharmonic Orchestra\ Charles Gerhardt, conductor"
INDEX 00 05:19:70
FILE "06 - National Philharmonic Orchestra- Charles Gerhardt, conductor - My Mother Was A Viennese.wav" WAVE
INDEX 01 00:00:00
TRACK 07 AUDIO
TITLE "Schenkt man sich Rosen in Tirol"
PERFORMER "National Philharmonic Orchestra\ Charles Gerhardt, conductor"
INDEX 00 03:28:05
FILE "07 - National Philharmonic Orchestra- Charles Gerhardt, conductor - Schenkt man sich Rosen in Tirol.wav" WAVE
INDEX 01 00:00:00
TRACK 08 AUDIO
TITLE "Vienna Bonbons"
PERFORMER "Franck Pourcel and his Orchestra"
INDEX 00 03:29:59
FILE "08 - Franck Pourcel and his Orchestra - Vienna Bonbons.wav" WAVE
INDEX 01 00:00:00
TRACK 09 AUDIO
TITLE "Wine, Women and Song"
PERFORMER "Franck Pourcel and his Orchestra"
INDEX 00 03:17:70
FILE "09 - Franck Pourcel and his Orchestra - Wine, Women and Song.wav" WAVE
INDEX 01 00:00:00
TRACK 10 AUDIO
TITLE "Acceleration Waltz"
PERFORMER "Franck Pourcel and his Orchestra"
INDEX 00 03:55:59
FILE "10 - Franck Pourcel and his Orchestra - Acceleration Waltz.wav" WAVE
INDEX 01 00:00:00
TRACK 11 AUDIO
TITLE "Artist's Life Waltz"
PERFORMER "Franck Pourcel and his Orchestra"
INDEX 00 03:42:16
FILE "11 - Franck Pourcel and his Orchestra - Artist's Life Waltz.wav" WAVE
INDEX 01 00:00:00
TRACK 12 AUDIO
TITLE "Danube Waves"
PERFORMER "Philharmonic Symphony of London\ Charles Gerhardt, conductor"
INDEX 00 03:35:27
FILE "12 - Philharmonic Symphony of London- Charles Gerhardt, conductor - Danube Waves.wav" WAVE
INDEX 01 00:00:00
TRACK 13 AUDIO
TITLE "Wien wird bei Nacht erst schцn"
PERFORMER "National Philharmonic Orchestra\ Charles Gerhardt, conductor"
INDEX 00 03:02:18
FILE "13 - National Philharmonic Orchestra- Charles Gerhardt, conductor - Wien wird bei Nacht erst schцn.wav" WAVE
INDEX 01 00:00:00
TRACK 14 AUDIO
TITLE "Gehen wir ins Chambre sйparйe"
PERFORMER "Slovak Philharmonic Orchestra\ Mario Kosik, conductor"
INDEX 00 03:16:66
FILE "14 - Slovak Philharmonic Orchestra- Mario Kosik, conductor - Gehen wir ins Chambre sйparйe.wav" WAVE
INDEX 01 00:00:00
TRACK 15 AUDIO
TITLE "A Thousand And One Nights Waltz"
PERFORMER "Franck Pourcel and his Orchestra"
INDEX 00 03:38:30
FILE "15 - Franck Pourcel and his Orchestra - A Thousand And One Nights Waltz.wav" WAVE
INDEX 01 00:00:00
TRACK 16 AUDIO
TITLE "Morning Papers"
PERFORMER "Franck Pourcel and his Orchestra"
INDEX 00 03:10:22
FILE "16 - Franck Pourcel and his Orchestra - Morning Papers.wav" WAVE
INDEX 01 00:00:00
TRACK 17 AUDIO
TITLE "Tales From The Vienna Woods"
PERFORMER "Franck Pourcel and his Orchestra"
INDEX 00 03:02:52
FILE "17 - Franck Pourcel and his Orchestra - Tales From The Vienna Woods.wav" WAVE
INDEX 01 00:00:00
TRACK 18 AUDIO
TITLE "Treasure Waltz"
PERFORMER "Franck Pourcel and his Orchestra"
INDEX 00 03:28:04
FILE "18 - Franck Pourcel and his Orchestra - Treasure Waltz.wav" WAVE
INDEX 01 00:00:00
TRACK 19 AUDIO
TITLE "Emperor Waltz"
PERFORMER "Franck Pourcel and his Orchestra"
INDEX 00 04:06:17
FILE "19 - Franck Pourcel and his Orchestra - Emperor Waltz.wav" WAVE
INDEX 01 00:00:00
"Лог Audiochecker"
AUDIOCHECKER v2.0 beta (build 457) - by Dester - [email protected]
~~~~~~~~~~~~~~~~~~~~~~~~~~~~~~~~~~
-=== НЕ РЕДАКТИРУЙТЕ ЭТОТ ФАЙЛ! ===-
Путь: ...\На берегу Дуная
01 -=- 01 - Franck Pourcel and his Orchestra - By The Beautiful Blue Danube.flac -=- CDDA (100%)
02 -=- 02 - Franck Pourcel and his Orchestra - Voices Of Spring.flac -=- CDDA (100%)
03 -=- 03 - Franck Pourcel and his Orchestra - Vienna Blood.flac -=- CDDA (100%)
04 -=- 04 - Franck Pourcel and his Orchestra - Roses From The South.flac -=- CDDA (100%)
05 -=- 05 - London Promenade Orchestra- Charles Gerhardt, conductor - Gold And Silver Waltz.flac -=- CDDA (100%)
06 -=- 06 - National Philharmonic Orchestra- Charles Gerhardt, conductor - My Mother Was A Viennese.flac -=- CDDA (99%)
07 -=- 07 - National Philharmonic Orchestra- Charles Gerhardt, conductor - Schenkt man sich Rosen in Tirol.flac -=- CDDA (100%)
08 -=- 08 - Franck Pourcel and his Orchestra - Vienna Bonbons.flac -=- CDDA (99%)
09 -=- 09 - Franck Pourcel and his Orchestra - Wine, Women and Song.flac -=- CDDA (100%)
10 -=- 10 - Franck Pourcel and his Orchestra - Acceleration Waltz.flac -=- CDDA (100%)
11 -=- 11 - Franck Pourcel and his Orchestra - Artist's Life Waltz.flac -=- CDDA (100%)
12 -=- 12 - Philharmonic Symphony of London- Charles Gerhardt, conductor - Danube Waves.flac -=- CDDA (100%)
13 -=- 13 - National Philharmonic Orchestra- Charles Gerhardt, conductor - Wien wird bei Nacht erst schцn.flac -=- CDDA (100%)
14 -=- 14 - Slovak Philharmonic Orchestra- Mario Kosik, conductor - Gehen wir ins Chambre sйparйe.flac -=- CDDA (100%)
15 -=- 15 - Franck Pourcel and his Orchestra - A Thousand And One Nights Waltz.flac -=- CDDA (100%)
16 -=- 16 - Franck Pourcel and his Orchestra - Morning Papers.flac -=- CDDA (100%)
17 -=- 17 - Franck Pourcel and his Orchestra - Tales From The Vienna Woods.flac -=- CDDA (100%)
18 -=- 18 - Franck Pourcel and his Orchestra - Treasure Waltz.flac -=- CDDA (100%)
19 -=- 19 - Franck Pourcel and his Orchestra - Emperor Waltz.flac -=- CDDA (100%)
Сводка 99,89% CDDA
214810836
Трэклист
01 - Vienna State Opera Orchestra- Reg Owen, conductor - Love's Roundalay (Leise, ganz leise), from 'A Waltz Dream'. (3:05)
02 - National Philharmonic Orchestra- Charles Gerhardt, Conductor - Florenz hat schцne Frauen, from 'Boccaccio'. (2:50)
03 - National Philharmonic Orchestra- Eric Hammerstein, conductor - Je te veux. (3:46)
04 - National Philharmonic Orchestra- Gordon Langford, conductor - Le Dйsir Waltz. (3:15)
05 - Mary Carewe and Michael Dore, with the Mayfair String Orchestra- - Once Upon A Dream, from 'The Sleeping Beauty'. (2:42)
06 - Patrice Fontanarosa, Violin, with the Sinfonia of London- Dougla - Liebesleid. (4:09)
07 - National Philharmonic Orchestra- Massimo Freccia, conductor - Trиs jolie - Waltz. (4:25)
08 - Lei Wang, Violin, with the Mayfair String Orchestra- Ghislain Sl - La Lettre. (3:05)
09 - Andrzej Kaldinski, Piano, with the Mayfair String Orchestra- Ghi - Waltz n° 7 Op. 64. (4:02)
10 - Sinfonia of London- Douglas Gamley, conductor - Coppelia Waltz. (3:28)
11 - Philharmonic Symphony of London- Charles Gerhardt, conductor - Grand Waltz from 'Swan Lake'. (3:37)
12 - National Philharmonic Orchestra- Eric Robinson, Conductor - Espaсa Waltz. (5:21)
13 - National Philharmonic Orchestra- Charles Gerhardt, Conductor - Estudiantina Waltz. (4:53)
14 - Vaclav Hybs and his Orchestra - Polish Blood - Cavalier. (6:44)
15 - Andrzej Kaldinski, Piano, with the Mayfair String Orchestra- Ghi - Valse brillante. (5:37)
16 - Philharmonic Symphony of London- Charles Gerhardt, conductor - Waltz from 'Faust'. (2:34)
17 - National Philharmonic Orchestra- Charles Gerhardt, Conductor - Valse de l'adieu. (4:18)
”Отчет ЕАС”
Отчёт EAC об извлечении, выполненном 24. марта 2012, 21:43 для диска:
Various / В ритме танца - Хоровод влюбленных
Дисковод: TSSTcorpCDDVDW SH-222AB Adapter: 0 ID: 0
Режим чтения: Достоверный (C2: нет, Точный поток: да, Отключение кэша: да)
Коррекция смещения при чтении: 6
Способность читать области Lead-in и Lead-out : Нет
Выходной формат: C:\Program Files (x86)\FLAC\flac.exe (Пользовательский кодировщик)
128 kBit/s
Дополнительные параметры: -8 -V -T "ARTIST=%a" -T "TITLE=%t" -T "ALBUM=%g" -T "DATE=%y" -T "TRACKNUMBER=%n" -T "GENRE=%m" -T "COMMENT=EAC FLAC -8" %s
Другие параметры:
Заполнение пропущенных сэмплов тишиной : Да
Удаление блоков с тишиной в начале и конце : Нет
Встроенный Win32-интерфейс для Win NT/2000
Трек 1
Имя файла C:\Sergei\новая папка\01 - Vienna State Opera Orchestra- Reg Owen, conductor - Love's Roundalay (Leise, ganz leise), from 'A Waltz Dream'.wav
Длина предзазора 0:00:02.00
Пиковый уровень 70.6 %
Качество трека 100.0 %
CRC теста 0B7F0652
CRC копии 0B7F0652
Копирование... OK
Трек 2
Имя файла C:\Sergei\новая папка\02 - National Philharmonic Orchestra- Charles Gerhardt, Conductor - Florenz hat schцne Frauen, from 'Boccaccio'.wav
Длина предзазора 0:00:01.80
Пиковый уровень 99.2 %
Качество трека 100.0 %
CRC теста CF4B4A8E
CRC копии CF4B4A8E
Копирование... OK
Трек 3
Имя файла C:\Sergei\новая папка\03 - National Philharmonic Orchestra- Eric Hammerstein, conductor - Je te veux.wav
Длина предзазора 0:00:01.80
Пиковый уровень 61.0 %
Качество трека 99.9 %
CRC теста F0FB7A95
CRC копии F0FB7A95
Копирование... OK
Трек 4
Имя файла C:\Sergei\новая папка\04 - National Philharmonic Orchestra- Gordon Langford, conductor - Le Dйsir Waltz.wav
Длина предзазора 0:00:01.80
Пиковый уровень 46.2 %
Качество трека 100.0 %
CRC теста 777A2F62
CRC копии 777A2F62
Копирование... OK
Трек 5
Имя файла C:\Sergei\новая папка\05 - Mary Carewe and Michael Dore, with the Mayfair String Orchestra- - Once Upon A Dream, from 'The Sleeping Beauty'.wav
Длина предзазора 0:00:01.80
Пиковый уровень 48.2 %
Качество трека 100.0 %
CRC теста F06C59A3
CRC копии F06C59A3
Копирование... OK
Трек 6
Имя файла C:\Sergei\новая папка\06 - Patrice Fontanarosa, Violin, with the Sinfonia of London- Dougla - Liebesleid.wav
Длина предзазора 0:00:01.80
Пиковый уровень 38.5 %
Качество трека 100.0 %
CRC теста 80748620
CRC копии 80748620
Копирование... OK
Трек 7
Имя файла C:\Sergei\новая папка\07 - National Philharmonic Orchestra- Massimo Freccia, conductor - Trиs jolie - Waltz.wav
Длина предзазора 0:00:01.80
Пиковый уровень 96.0 %
Качество трека 100.0 %
CRC теста A775AF8E
CRC копии A775AF8E
Копирование... OK
Трек 8
Имя файла C:\Sergei\новая папка\08 - Lei Wang, Violin, with the Mayfair String Orchestra- Ghislain Sl - La Lettre.wav
Длина предзазора 0:00:01.80
Пиковый уровень 32.5 %
Качество трека 99.9 %
CRC теста DB3E54BB
CRC копии DB3E54BB
Копирование... OK
Трек 9
Имя файла C:\Sergei\новая папка\09 - Andrzej Kaldinski, Piano, with the Mayfair String Orchestra- Ghi - Waltz n° 7 Op. 64.wav
Длина предзазора 0:00:01.80
Пиковый уровень 23.2 %
Качество трека 100.0 %
CRC теста 5FF36E2F
CRC копии 5FF36E2F
Копирование... OK
Трек 10
Имя файла C:\Sergei\новая папка\10 - Sinfonia of London- Douglas Gamley, conductor - Coppelia Waltz.wav
Длина предзазора 0:00:01.80
Пиковый уровень 89.9 %
Качество трека 100.0 %
CRC теста C8F50273
CRC копии C8F50273
Копирование... OK
Трек 11
Имя файла C:\Sergei\новая папка\11 - Philharmonic Symphony of London- Charles Gerhardt, conductor - Grand Waltz from 'Swan Lake'.wav
Длина предзазора 0:00:01.80
Пиковый уровень 78.0 %
Качество трека 100.0 %
CRC теста E54A932A
CRC копии E54A932A
Копирование... OK
Трек 12
Имя файла C:\Sergei\новая папка\12 - National Philharmonic Orchestra- Eric Robinson, Conductor - Espaсa Waltz.wav
Длина предзазора 0:00:01.80
Пиковый уровень 81.8 %
Качество трека 100.0 %
CRC теста E9B67E0E
CRC копии E9B67E0E
Копирование... OK
Трек 13
Имя файла C:\Sergei\новая папка\13 - National Philharmonic Orchestra- Charles Gerhardt, Conductor - Estudiantina Waltz.wav
Длина предзазора 0:00:01.80
Пиковый уровень 72.1 %
Качество трека 100.0 %
CRC теста 40AC39A8
CRC копии 40AC39A8
Копирование... OK
Трек 14
Имя файла C:\Sergei\новая папка\14 - Vaclav Hybs and his Orchestra - Polish Blood - Cavalier.wav
Длина предзазора 0:00:01.80
Пиковый уровень 63.7 %
Качество трека 100.0 %
CRC теста 949841F4
CRC копии 949841F4
Копирование... OK
Трек 15
Имя файла C:\Sergei\новая папка\15 - Andrzej Kaldinski, Piano, with the Mayfair String Orchestra- Ghi - Valse brillante.wav
Длина предзазора 0:00:01.80
Пиковый уровень 30.2 %
Качество трека 100.0 %
CRC теста AD3EFF3F
CRC копии AD3EFF3F
Копирование... OK
Трек 16
Имя файла C:\Sergei\новая папка\16 - Philharmonic Symphony of London- Charles Gerhardt, conductor - Waltz from 'Faust'.wav
Длина предзазора 0:00:01.80
Пиковый уровень 84.6 %
Качество трека 100.0 %
CRC теста B879AD9B
CRC копии B879AD9B
Копирование... OK
Трек 17
Имя файла C:\Sergei\новая папка\17 - National Philharmonic Orchestra- Charles Gerhardt, Conductor - Valse de l'adieu.wav
Длина предзазора 0:00:01.80
Пиковый уровень 57.8 %
Качество трека 100.0 %
CRC теста 3B54BCC6
CRC копии 3B54BCC6
Копирование... OK
Ошибок не произошло
Конец отчёта
"Non-compilant CUE"
REM GENRE Instrumental
REM DATE 2011
REM DISCID FD0FF011
REM COMMENT "ExactAudioCopy v0.95b3"
PERFORMER "Various"
TITLE "В ритме танца - Хоровод влюбленных"
FILE "01 - Vienna State Opera Orchestra- Reg Owen, conductor - Love's Roundalay (Leise, ganz leise), from 'A Waltz Dream'.wav" WAVE
TRACK 01 AUDIO
TITLE "Love's Roundalay (Leise, ganz leise), from 'A Waltz Dream'"
PERFORMER "Vienna State Opera Orchestra\ Reg Owen, conductor"
INDEX 01 00:00:00
TRACK 02 AUDIO
TITLE "Florenz hat schцne Frauen, from 'Boccaccio'"
PERFORMER "National Philharmonic Orchestra\ Charles Gerhardt, Conductor"
INDEX 00 03:04:02
FILE "02 - National Philharmonic Orchestra- Charles Gerhardt, Conductor - Florenz hat schцne Frauen, from 'Boccaccio'.wav" WAVE
INDEX 01 00:00:00
TRACK 03 AUDIO
TITLE "Je te veux"
PERFORMER "National Philharmonic Orchestra\ Eric Hammerstein, conductor"
INDEX 00 02:48:74
FILE "03 - National Philharmonic Orchestra- Eric Hammerstein, conductor - Je te veux.wav" WAVE
INDEX 01 00:00:00
TRACK 04 AUDIO
TITLE "Le Dйsir Waltz"
PERFORMER "National Philharmonic Orchestra\ Gordon Langford, conductor"
INDEX 00 03:44:50
FILE "04 - National Philharmonic Orchestra- Gordon Langford, conductor - Le Dйsir Waltz.wav" WAVE
INDEX 01 00:00:00
TRACK 05 AUDIO
TITLE "Once Upon A Dream, from 'The Sleeping Beauty'"
PERFORMER "Mary Carewe and Michael Dore, with the Mayfair String Orchestra\"
INDEX 00 03:13:53
FILE "05 - Mary Carewe and Michael Dore, with the Mayfair String Orchestra- - Once Upon A Dream, from 'The Sleeping Beauty'.wav" WAVE
INDEX 01 00:00:00
TRACK 06 AUDIO
TITLE "Liebesleid"
PERFORMER "Patrice Fontanarosa, Violin, with the Sinfonia of London\ Dougla"
INDEX 00 02:40:33
FILE "06 - Patrice Fontanarosa, Violin, with the Sinfonia of London- Dougla - Liebesleid.wav" WAVE
INDEX 01 00:00:00
TRACK 07 AUDIO
TITLE "Trиs jolie - Waltz"
PERFORMER "National Philharmonic Orchestra\ Massimo Freccia, conductor"
INDEX 00 04:08:11
FILE "07 - National Philharmonic Orchestra- Massimo Freccia, conductor - Trиs jolie - Waltz.wav" WAVE
INDEX 01 00:00:00
TRACK 08 AUDIO
TITLE "La Lettre"
PERFORMER "Lei Wang, Violin, with the Mayfair String Orchestra\ Ghislain Sl"
INDEX 00 04:23:19
FILE "08 - Lei Wang, Violin, with the Mayfair String Orchestra- Ghislain Sl - La Lettre.wav" WAVE
INDEX 01 00:00:00
TRACK 09 AUDIO
TITLE "Waltz n° 7 Op. 64"
PERFORMER "Andrzej Kaldinski, Piano, with the Mayfair String Orchestra\ Ghi"
INDEX 00 03:04:09
FILE "09 - Andrzej Kaldinski, Piano, with the Mayfair String Orchestra- Ghi - Waltz n° 7 Op. 64.wav" WAVE
INDEX 01 00:00:00
TRACK 10 AUDIO
TITLE "Coppelia Waltz"
PERFORMER "Sinfonia of London\ Douglas Gamley, conductor"
INDEX 00 04:00:16
FILE "10 - Sinfonia of London- Douglas Gamley, conductor - Coppelia Waltz.wav" WAVE
INDEX 01 00:00:00
TRACK 11 AUDIO
TITLE "Grand Waltz from 'Swan Lake'"
PERFORMER "Philharmonic Symphony of London\ Charles Gerhardt, conductor"
INDEX 00 03:26:72
FILE "11 - Philharmonic Symphony of London- Charles Gerhardt, conductor - Grand Waltz from 'Swan Lake'.wav" WAVE
INDEX 01 00:00:00
TRACK 12 AUDIO
TITLE "Espaсa Waltz"
PERFORMER "National Philharmonic Orchestra\ Eric Robinson, Conductor"
INDEX 00 03:35:34
FILE "12 - National Philharmonic Orchestra- Eric Robinson, Conductor - Espaсa Waltz.wav" WAVE
INDEX 01 00:00:00
TRACK 13 AUDIO
TITLE "Estudiantina Waltz"
PERFORMER "National Philharmonic Orchestra\ Charles Gerhardt, Conductor"
INDEX 00 05:20:09
FILE "13 - National Philharmonic Orchestra- Charles Gerhardt, Conductor - Estudiantina Waltz.wav" WAVE
INDEX 01 00:00:00
TRACK 14 AUDIO
TITLE "Polish Blood - Cavalier"
PERFORMER "Vaclav Hybs and his Orchestra"
INDEX 00 04:51:50
FILE "14 - Vaclav Hybs and his Orchestra - Polish Blood - Cavalier.wav" WAVE
INDEX 01 00:00:00
TRACK 15 AUDIO
TITLE "Valse brillante"
PERFORMER "Andrzej Kaldinski, Piano, with the Mayfair String Orchestra\ Ghi"
INDEX 00 06:42:40
FILE "15 - Andrzej Kaldinski, Piano, with the Mayfair String Orchestra- Ghi - Valse brillante.wav" WAVE
INDEX 01 00:00:00
TRACK 16 AUDIO
TITLE "Waltz from 'Faust'"
PERFORMER "Philharmonic Symphony of London\ Charles Gerhardt, conductor"
INDEX 00 05:35:48
FILE "16 - Philharmonic Symphony of London- Charles Gerhardt, conductor - Waltz from 'Faust'.wav" WAVE
INDEX 01 00:00:00
TRACK 17 AUDIO
TITLE "Valse de l'adieu"
PERFORMER "National Philharmonic Orchestra\ Charles Gerhardt, Conductor"
INDEX 00 02:33:10
FILE "17 - National Philharmonic Orchestra- Charles Gerhardt, Conductor - Valse de l'adieu.wav" WAVE
INDEX 01 00:00:00
"Лог Audiochecker"
AUDIOCHECKER v2.0 beta (build 457) - by Dester - [email protected]
~~~~~~~~~~~~~~~~~~~~~~~~~~~~~~~~~~
-=== НЕ РЕДАКТИРУЙТЕ ЭТОТ ФАЙЛ! ===-
Путь: ...\Хоровод влюбленных
01 -=- 01 - Vienna State Opera Orchestra- Reg Owen, conductor - Love's Roundalay (Leise, ganz leise), from 'A Waltz Dream'.flac -=- MPEG (89%)
02 -=- 02 - National Philharmonic Orchestra- Charles Gerhardt, Conductor - Florenz hat schцne Frauen, from 'Boccaccio'.flac -=- CDDA (100%)
03 -=- 03 - National Philharmonic Orchestra- Eric Hammerstein, conductor - Je te veux.flac -=- CDDA (100%)
04 -=- 04 - National Philharmonic Orchestra- Gordon Langford, conductor - Le Dйsir Waltz.flac -=- CDDA (100%)
05 -=- 06 - Patrice Fontanarosa, Violin, with the Sinfonia of London- Dougla - Liebesleid.flac -=- CDDA (100%)
06 -=- 07 - National Philharmonic Orchestra- Massimo Freccia, conductor - Trиs jolie - Waltz.flac -=- CDDA (54%)
07 -=- 08 - Lei Wang, Violin, with the Mayfair String Orchestra- Ghislain Sl - La Lettre.flac -=- CDDA (100%)
08 -=- 09 - Andrzej Kaldinski, Piano, with the Mayfair String Orchestra- Ghi - Waltz n° 7 Op. 64.flac -=- CDDA (76%)
09 -=- 10 - Sinfonia of London- Douglas Gamley, conductor - Coppelia Waltz.flac -=- CDDA (99%)
10 -=- 11 - Philharmonic Symphony of London- Charles Gerhardt, conductor - Grand Waltz from 'Swan Lake'.flac -=- CDDA (100%)
11 -=- 12 - National Philharmonic Orchestra- Eric Robinson, Conductor - Espaсa Waltz.flac -=- CDDA (100%)
12 -=- 13 - National Philharmonic Orchestra- Charles Gerhardt, Conductor - Estudiantina Waltz.flac -=- CDDA (99%)
13 -=- 14 - Vaclav Hybs and his Orchestra - Polish Blood - Cavalier.flac -=- CDDA (100%)
14 -=- 15 - Andrzej Kaldinski, Piano, with the Mayfair String Orchestra- Ghi - Valse brillante.flac -=- CDDA (62%)
15 -=- 16 - Philharmonic Symphony of London- Charles Gerhardt, conductor - Waltz from 'Faust'.flac -=- CDDA (99%)
16 -=- 17 - National Philharmonic Orchestra- Charles Gerhardt, Conductor - Valse de l'adieu.flac -=- CDDA (99%)
Сводка 87,44% CDDA
189603668
Трэклист
01 - Philharmonic Symphony of London- Charles Gerhardt, conductor - Two Hearts In Three-Quarter Time. (3:15)
02 - Martina Dorak with Eric Becht and his Orchestra - Mein Liebeslied muss ein Walzer sein (My Song Of Love). (3:05)
03 - The Royal Philharmonic Orchestra- Gilbert Vinter, conductor - The Merry Widow Waltzes. (5:10)
04 - Melanie Holliday and Volker Bengl - Einmal mцcht ich wieder tanzen, from 'Countess Mariza'. (3:47)
05 - London Promenade Orchestra- Eric Hammerstein, conductor - Lagoon Waltz, from 'A Night In Venice'. (2:34)
06 - Herbert Druml and Vera Nentwich - Tanzen mцcht ich. (3:13)
07 - Royal Philharmonic Orchestra- Eric Hammerstein, conductor - Kiss Waltz. (3:56)
08 - London Promenade Orchestra- Eric Hammerstein, conductor - Waltz Of The Baron And The Gloveseller. (3:12)
09 - London Promenade Orchestra- Eric Hammerstein, conductor - Waltz Of The Red Lady. (2:14)
10 - Robert Bentley and his Orchestra - Plaisir d'amour. (3:09)
11 - Philharmonic Symphony of London- Charles Gerhardt, conductor - Elizabethan Serenade. (2:52)
12 - Russian State Symphony Orchestra- Dmitry Yablonsky, conductor - Waltz n° 2, from 'Jazz Suite'. (3:15)
13 - Ken Thorne and his Orchestra - La Ronde. (2:02)
14 - Kenny King, his Trumpet and Orchestra - Capriccio Italien Waltz. (2:25)
15 - Richard Abel, his Piano and Orchestra - Nabucco. (3:02)
16 - Paul Mauriat and his Orchestra - Grande valse brillante. (5:33)
17 - London Promenade Orchestra- Eric Hammerstein, conductor - The Kiss Waltz. (4:39)
18 - London Promenade Orchestra- Eric Hammerstein, conductor - The Colonial Dames Waltzes. (3:17)
19 - Franck Pourcel and his Orchestra - Waltz Of The Flowers, from 'Nutcracker Suite'. (5:52)
”Отчет ЕАС”
Отчёт EAC об извлечении, выполненном 24. марта 2012, 23:26 для диска:
Various / В ритме танца - Два сердца на три четверти
Дисковод: TSSTcorpCDDVDW SH-222AB Adapter: 0 ID: 0
Режим чтения: Достоверный (C2: нет, Точный поток: да, Отключение кэша: да)
Коррекция смещения при чтении: 6
Способность читать области Lead-in и Lead-out : Нет
Выходной формат: C:\Program Files (x86)\FLAC\flac.exe (Пользовательский кодировщик)
128 kBit/s
Дополнительные параметры: -8 -V -T "ARTIST=%a" -T "TITLE=%t" -T "ALBUM=%g" -T "DATE=%y" -T "TRACKNUMBER=%n" -T "GENRE=%m" -T "COMMENT=EAC FLAC -8" %s
Другие параметры:
Заполнение пропущенных сэмплов тишиной : Да
Удаление блоков с тишиной в начале и конце : Нет
Встроенный Win32-интерфейс для Win NT/2000
Трек 1
Имя файла C:\Sergei\новая папка\01 - Philharmonic Symphony of London- Charles Gerhardt, conductor - Two Hearts In Three-Quarter Time.wav
Длина предзазора 0:00:02.00
Пиковый уровень 86.3 %
Качество трека 100.0 %
CRC теста 13B28153
CRC копии 13B28153
Копирование... OK
Трек 2
Имя файла C:\Sergei\новая папка\02 - Martina Dorak with Eric Becht and his Orchestra - Mein Liebeslied muss ein Walzer sein (My Song Of Love).wav
Длина предзазора 0:00:01.80
Пиковый уровень 54.8 %
Качество трека 100.0 %
CRC теста 77BCF9F1
CRC копии 77BCF9F1
Копирование... OK
Трек 3
Имя файла C:\Sergei\новая папка\03 - The Royal Philharmonic Orchestra- Gilbert Vinter, conductor - The Merry Widow Waltzes.wav
Длина предзазора 0:00:01.80
Пиковый уровень 67.2 %
Качество трека 100.0 %
CRC теста EC068562
CRC копии EC068562
Копирование... OK
Трек 4
Имя файла C:\Sergei\новая папка\04 - Melanie Holliday and Volker Bengl - Einmal mцcht ich wieder tanzen, from 'Countess Mariza'.wav
Длина предзазора 0:00:01.80
Пиковый уровень 61.9 %
Качество трека 100.0 %
CRC теста 2E2C67DC
CRC копии 2E2C67DC
Копирование... OK
Трек 5
Имя файла C:\Sergei\новая папка\05 - London Promenade Orchestra- Eric Hammerstein, conductor - Lagoon Waltz, from 'A Night In Venice'.wav
Длина предзазора 0:00:01.80
Пиковый уровень 59.3 %
Качество трека 100.0 %
CRC теста 659FE19C
CRC копии 659FE19C
Копирование... OK
Трек 6
Имя файла C:\Sergei\новая папка\06 - Herbert Druml and Vera Nentwich - Tanzen mцcht ich.wav
Длина предзазора 0:00:01.80
Пиковый уровень 72.3 %
Качество трека 100.0 %
CRC теста EECC62CD
CRC копии EECC62CD
Копирование... OK
Трек 7
Имя файла C:\Sergei\новая папка\07 - Royal Philharmonic Orchestra- Eric Hammerstein, conductor - Kiss Waltz.wav
Длина предзазора 0:00:01.80
Пиковый уровень 73.6 %
Качество трека 100.0 %
CRC теста 5C521B09
CRC копии 5C521B09
Копирование... OK
Трек 8
Имя файла C:\Sergei\новая папка\08 - London Promenade Orchestra- Eric Hammerstein, conductor - Waltz Of The Baron And The Gloveseller.wav
Длина предзазора 0:00:01.80
Пиковый уровень 72.6 %
Качество трека 100.0 %
CRC теста 426752D4
CRC копии 426752D4
Копирование... OK
Трек 9
Имя файла C:\Sergei\новая папка\09 - London Promenade Orchestra- Eric Hammerstein, conductor - Waltz Of The Red Lady.wav
Длина предзазора 0:00:01.80
Пиковый уровень 60.9 %
Качество трека 100.0 %
CRC теста DBF0E268
CRC копии DBF0E268
Копирование... OK
Трек 10
Имя файла C:\Sergei\новая папка\10 - Robert Bentley and his Orchestra - Plaisir d'amour.wav
Длина предзазора 0:00:01.80
Пиковый уровень 53.5 %
Качество трека 100.0 %
CRC теста 1C03FE0B
CRC копии 1C03FE0B
Копирование... OK
Трек 11
Имя файла C:\Sergei\новая папка\11 - Philharmonic Symphony of London- Charles Gerhardt, conductor - Elizabethan Serenade.wav
Длина предзазора 0:00:01.78
Пиковый уровень 71.4 %
Качество трека 99.9 %
CRC теста 9D5AA150
CRC копии 9D5AA150
Копирование... OK
Трек 12
Имя файла C:\Sergei\новая папка\12 - Russian State Symphony Orchestra- Dmitry Yablonsky, conductor - Waltz n° 2, from 'Jazz Suite'.wav
Длина предзазора 0:00:01.80
Пиковый уровень 74.8 %
Качество трека 99.9 %
CRC теста 4F739AD1
CRC копии 4F739AD1
Копирование... OK
Трек 13
Имя файла C:\Sergei\новая папка\13 - Ken Thorne and his Orchestra - La Ronde.wav
Длина предзазора 0:00:01.80
Пиковый уровень 65.3 %
Качество трека 99.9 %
CRC теста 26C31AB1
CRC копии 26C31AB1
Копирование... OK
Трек 14
Имя файла C:\Sergei\новая папка\14 - Kenny King, his Trumpet and Orchestra - Capriccio Italien Waltz.wav
Длина предзазора 0:00:01.80
Пиковый уровень 37.0 %
Качество трека 100.0 %
CRC теста D586E376
CRC копии D586E376
Копирование... OK
Трек 15
Имя файла C:\Sergei\новая папка\15 - Richard Abel, his Piano and Orchestra - Nabucco.wav
Длина предзазора 0:00:01.80
Пиковый уровень 44.1 %
Качество трека 100.0 %
CRC теста DFB63CF4
CRC копии DFB63CF4
Копирование... OK
Трек 16
Имя файла C:\Sergei\новая папка\16 - Paul Mauriat and his Orchestra - Grande valse brillante.wav
Длина предзазора 0:00:01.80
Пиковый уровень 77.9 %
Качество трека 100.0 %
CRC теста FB6A6447
CRC копии FB6A6447
Копирование... OK
Трек 17
Имя файла C:\Sergei\новая папка\17 - London Promenade Orchestra- Eric Hammerstein, conductor - The Kiss Waltz.wav
Длина предзазора 0:00:01.80
Пиковый уровень 66.2 %
Качество трека 100.0 %
CRC теста F50896A8
CRC копии F50896A8
Копирование... OK
Трек 18
Имя файла C:\Sergei\новая папка\18 - London Promenade Orchestra- Eric Hammerstein, conductor - The Colonial Dames Waltzes.wav
Длина предзазора 0:00:01.80
Пиковый уровень 97.1 %
Качество трека 100.0 %
CRC теста 5764B365
CRC копии 5764B365
Копирование... OK
Трек 19
Имя файла C:\Sergei\новая папка\19 - Franck Pourcel and his Orchestra - Waltz Of The Flowers, from 'Nutcracker Suite'.wav
Длина предзазора 0:00:01.80
Пиковый уровень 87.6 %
Качество трека 100.0 %
CRC теста B7119B75
CRC копии B7119B75
Копирование... OK
Ошибок не произошло
Конец отчёта
"Non-compilant CUE"
REM GENRE Instrumental
REM DATE 2011
REM DISCID 0B0FA013
REM COMMENT "ExactAudioCopy v0.95b3"
PERFORMER "Various"
TITLE "В ритме танца - Два сердца на три четверти"
FILE "01 - Philharmonic Symphony of London- Charles Gerhardt, conductor - Two Hearts In Three-Quarter Time.wav" WAVE
TRACK 01 AUDIO
TITLE "Two Hearts In Three-Quarter Time"
PERFORMER "Philharmonic Symphony of London\ Charles Gerhardt, conductor"
INDEX 01 00:00:00
TRACK 02 AUDIO
TITLE "Mein Liebeslied muss ein Walzer sein (My Song Of Love)"
PERFORMER "Martina Dorak with Eric Becht and his Orchestra"
INDEX 00 03:13:68
FILE "02 - Martina Dorak with Eric Becht and his Orchestra - Mein Liebeslied muss ein Walzer sein (My Song Of Love).wav" WAVE
INDEX 01 00:00:00
TRACK 03 AUDIO
TITLE "The Merry Widow Waltzes"
PERFORMER "The Royal Philharmonic Orchestra\ Gilbert Vinter, conductor"
INDEX 00 03:03:17
FILE "03 - The Royal Philharmonic Orchestra- Gilbert Vinter, conductor - The Merry Widow Waltzes.wav" WAVE
INDEX 01 00:00:00
TRACK 04 AUDIO
TITLE "Einmal mцcht ich wieder tanzen, from 'Countess Mariza'"
PERFORMER "Melanie Holliday and Volker Bengl"
INDEX 00 05:09:07
FILE "04 - Melanie Holliday and Volker Bengl - Einmal mцcht ich wieder tanzen, from 'Countess Mariza'.wav" WAVE
INDEX 01 00:00:00
TRACK 05 AUDIO
TITLE "Lagoon Waltz, from 'A Night In Venice'"
PERFORMER "London Promenade Orchestra\ Eric Hammerstein, conductor"
INDEX 00 03:45:33
FILE "05 - London Promenade Orchestra- Eric Hammerstein, conductor - Lagoon Waltz, from 'A Night In Venice'.wav" WAVE
INDEX 01 00:00:00
TRACK 06 AUDIO
TITLE "Tanzen mцcht ich"
PERFORMER "Herbert Druml and Vera Nentwich"
INDEX 00 02:33:10
FILE "06 - Herbert Druml and Vera Nentwich - Tanzen mцcht ich.wav" WAVE
INDEX 01 00:00:00
TRACK 07 AUDIO
TITLE "Kiss Waltz"
PERFORMER "Royal Philharmonic Orchestra\ Eric Hammerstein, conductor"
INDEX 00 03:11:18
FILE "07 - Royal Philharmonic Orchestra- Eric Hammerstein, conductor - Kiss Waltz.wav" WAVE
INDEX 01 00:00:00
TRACK 08 AUDIO
TITLE "Waltz Of The Baron And The Gloveseller"
PERFORMER "London Promenade Orchestra\ Eric Hammerstein, conductor"
INDEX 00 03:54:41
FILE "08 - London Promenade Orchestra- Eric Hammerstein, conductor - Waltz Of The Baron And The Gloveseller.wav" WAVE
INDEX 01 00:00:00
TRACK 09 AUDIO
TITLE "Waltz Of The Red Lady"
PERFORMER "London Promenade Orchestra\ Eric Hammerstein, conductor"
INDEX 00 03:10:54
FILE "09 - London Promenade Orchestra- Eric Hammerstein, conductor - Waltz Of The Red Lady.wav" WAVE
INDEX 01 00:00:00
TRACK 10 AUDIO
TITLE "Plaisir d'amour"
PERFORMER "Robert Bentley and his Orchestra"
INDEX 00 02:12:17
FILE "10 - Robert Bentley and his Orchestra - Plaisir d'amour.wav" WAVE
INDEX 01 00:00:00
TRACK 11 AUDIO
TITLE "Elizabethan Serenade"
PERFORMER "Philharmonic Symphony of London\ Charles Gerhardt, conductor"
INDEX 00 03:08:01
FILE "11 - Philharmonic Symphony of London- Charles Gerhardt, conductor - Elizabethan Serenade.wav" WAVE
INDEX 01 00:00:00
TRACK 12 AUDIO
TITLE "Waltz n° 2, from 'Jazz Suite'"
PERFORMER "Russian State Symphony Orchestra\ Dmitry Yablonsky, conductor"
INDEX 00 02:51:14
FILE "12 - Russian State Symphony Orchestra- Dmitry Yablonsky, conductor - Waltz n° 2, from 'Jazz Suite'.wav" WAVE
INDEX 01 00:00:00
TRACK 13 AUDIO
TITLE "La Ronde"
PERFORMER "Ken Thorne and his Orchestra"
INDEX 00 03:13:32
FILE "13 - Ken Thorne and his Orchestra - La Ronde.wav" WAVE
INDEX 01 00:00:00
TRACK 14 AUDIO
TITLE "Capriccio Italien Waltz"
PERFORMER "Kenny King, his Trumpet and Orchestra"
INDEX 00 02:00:30
FILE "14 - Kenny King, his Trumpet and Orchestra - Capriccio Italien Waltz.wav" WAVE
INDEX 01 00:00:00
TRACK 15 AUDIO
TITLE "Nabucco"
PERFORMER "Richard Abel, his Piano and Orchestra"
INDEX 00 02:23:58
FILE "15 - Richard Abel, his Piano and Orchestra - Nabucco.wav" WAVE
INDEX 01 00:00:00
TRACK 16 AUDIO
TITLE "Grande valse brillante"
PERFORMER "Paul Mauriat and his Orchestra"
INDEX 00 03:01:01
FILE "16 - Paul Mauriat and his Orchestra - Grande valse brillante.wav" WAVE
INDEX 01 00:00:00
TRACK 17 AUDIO
TITLE "The Kiss Waltz"
PERFORMER "London Promenade Orchestra\ Eric Hammerstein, conductor"
INDEX 00 05:31:50
FILE "17 - London Promenade Orchestra- Eric Hammerstein, conductor - The Kiss Waltz.wav" WAVE
INDEX 01 00:00:00
TRACK 18 AUDIO
TITLE "The Colonial Dames Waltzes"
PERFORMER "London Promenade Orchestra\ Eric Hammerstein, conductor"
INDEX 00 04:37:20
FILE "18 - London Promenade Orchestra- Eric Hammerstein, conductor - The Colonial Dames Waltzes.wav" WAVE
INDEX 01 00:00:00
TRACK 19 AUDIO
TITLE "Waltz Of The Flowers, from 'Nutcracker Suite'"
PERFORMER "Franck Pourcel and his Orchestra"
INDEX 00 03:15:27
FILE "19 - Franck Pourcel and his Orchestra - Waltz Of The Flowers, from 'Nutcracker Suite'.wav" WAVE
INDEX 01 00:00:00
"Лог Audiochecker"
AUDIOCHECKER v2.0 beta (build 457) - by Dester - [email protected]
~~~~~~~~~~~~~~~~~~~~~~~~~~~~~~~~~~
-=== НЕ РЕДАКТИРУЙТЕ ЭТОТ ФАЙЛ! ===-
Путь: ...\Два сердца на три четверти
01 -=- 01 - Philharmonic Symphony of London- Charles Gerhardt, conductor - Two Hearts In Three-Quarter Time.flac -=- CDDA (100%)
02 -=- 02 - Martina Dorak with Eric Becht and his Orchestra - Mein Liebeslied muss ein Walzer sein (My Song Of Love).flac -=- CDDA (100%)
03 -=- 03 - The Royal Philharmonic Orchestra- Gilbert Vinter, conductor - The Merry Widow Waltzes.flac -=- CDDA (100%)
04 -=- 04 - Melanie Holliday and Volker Bengl - Einmal mцcht ich wieder tanzen, from 'Countess Mariza'.flac -=- CDDA (100%)
05 -=- 05 - London Promenade Orchestra- Eric Hammerstein, conductor - Lagoon Waltz, from 'A Night In Venice'.flac -=- CDDA (100%)
06 -=- 06 - Herbert Druml and Vera Nentwich - Tanzen mцcht ich.flac -=- CDDA (100%)
07 -=- 07 - Royal Philharmonic Orchestra- Eric Hammerstein, conductor - Kiss Waltz.flac -=- CDDA (99%)
08 -=- 08 - London Promenade Orchestra- Eric Hammerstein, conductor - Waltz Of The Baron And The Gloveseller.flac -=- CDDA (100%)
09 -=- 09 - London Promenade Orchestra- Eric Hammerstein, conductor - Waltz Of The Red Lady.flac -=- CDDA (100%)
10 -=- 10 - Robert Bentley and his Orchestra - Plaisir d'amour.flac -=- CDDA (100%)
11 -=- 11 - Philharmonic Symphony of London- Charles Gerhardt, conductor - Elizabethan Serenade.flac -=- CDDA (100%)
12 -=- 12 - Russian State Symphony Orchestra- Dmitry Yablonsky, conductor - Waltz n° 2, from 'Jazz Suite'.flac -=- CDDA (100%)
13 -=- 13 - Ken Thorne and his Orchestra - La Ronde.flac -=- CDDA (100%)
14 -=- 14 - Kenny King, his Trumpet and Orchestra - Capriccio Italien Waltz.flac -=- CDDA (100%)
15 -=- 15 - Richard Abel, his Piano and Orchestra - Nabucco.flac -=- CDDA (100%)
16 -=- 16 - Paul Mauriat and his Orchestra - Grande valse brillante.flac -=- CDDA (100%)
17 -=- 17 - London Promenade Orchestra- Eric Hammerstein, conductor - The Kiss Waltz.flac -=- CDDA (100%)
18 -=- 18 - London Promenade Orchestra- Eric Hammerstein, conductor - The Colonial Dames Waltzes.flac -=- CDDA (100%)
19 -=- 19 - Franck Pourcel and his Orchestra - Waltz Of The Flowers, from 'Nutcracker Suite'.flac -=- CDDA (100%)
Сводка 99,95% CDDA
160893716
Мы помогаем людям, чтобы они, в свою очередь, помогли нам; таким образом, наши услуги сводятся просто к благодеяниям, которые мы загодя оказываем самим себе. (Франсуа де Ларошфуко)
Download / Скачать

Хотите скачать бесплатно? Зарегистрируйтесь на сайте (ссылка на регистрацию). Pirat.ca - самый быстрый торрент трекер в рунете!

Как скачивать  ·   Что такое торрент  ·   Рейтинг и ограничения



Последний раз редактировалось: CHARLI2236 (2012-12-22 11:27), всего редактировалось 1 раз

nifff

Лоцман

Пост 20-Дек-2012 21:11 (спустя 8 месяцев 24 дня)

[Q] 

скачать скачал а проиграть не могу... пишет ошибка в метатегах. adobe audition тоже отказался открывать файлы flac эти, другие flac прекрасно открываются везде
error while processing metadata
flac file decoder seekable stream decoder pack
попробовал в разных проигрывателях - результат один - обыдно - значит раздача фэйковая
из всех играет только один файл, чем только не пробовал "вылечить больные" файлы, всё без толку
[Профиль]  [ЛС] 

CHARLI2236 ®

1186

Пост 22-Дек-2012 11:32 (спустя 1 день 14 часов)

[Q] 

проверил - проблема действительно было - исправлено....
просьба перекачать торрент

_________________
[Профиль]  [ЛС] 

Sirius

Шкипер

Пост 23-Дек-2012 01:06 (спустя 13 часов)

[Q] 

[Профиль]  [ЛС] 
Показать сообщения:    
Ответить на тему

Текущее время: Сегодня 05:52

Часовой пояс: GMT + 4



Вы не можете начинать темы
Вы не можете отвечать на сообщения
Вы не можете редактировать свои сообщения
Вы не можете удалять свои сообщения
Вы не можете голосовать в опросах
Вы не можете прикреплять файлы к сообщениям
Вы не можете скачивать файлы

▼ Вниз