Уважаемый Гость!
Вы можете поддержать проект и зарегистрироваться у наших партнеров - онлайн-стратегия MyLands. При регистрации в игре Вы получите код, который сможете активировать после регистрации на pirat.ca и получить 1000 дублонов.

Ваш код:
9b65c75582a1bc11d28e5a5e70ceae6fff363398
 
     

(Instrumental) В ритме танца - Медленный танец (РД) (3CD), FLAC (tracks+cue) - 2011, lossless

Ответить на тему
 
Автор
Сообщение

Пост 27-Мар-2012 18:01

[Q] 

CHARLI2236

В ритме танца - Медленный танец (РД) (3CD)
Год выпуска альбома: 2011
Страна: Россия
Жанр: Instrumental
Лейбл издания: ИД Ридерз Дайджест
Продолжительность: 3:20:31
Формат: FLAC
Битрейт аудио: lossless
Тип рипа: tracks+.cue
Источник (релизер): диск CDDA
Наличие сканов в содержимом раздачи: да
Трэклист
01 - Captain & Tennille - Unforgettable. (4:02)
02 - Graham Bickley - Ramona. (2:36)
03 - Engelbert Humperdinck - They Say It's Wonderful. (3:23)
04 - Kenny Rogers - I Only Have Eyes For You. (4:16)
05 - Helen Forrest - It Had To Be You. (3:25)
06 - Ben Cramer - Everybody Loves Somebody. (2:49)
07 - Tommy Blaize - Two Loves Have I. (2:47)
08 - Mary Carewe - Around The World. (3:02)
09 - Tony Bennett - Blue Moon. (2:14)
10 - Claude Blouin and his Orchestra - Harbour Lights. (3:33)
11 - Vaughn Monroe - My Cup Runneth Over. (2:28)
12 - Anita Harris - The Anniversary Waltz. (2:43)
13 - Rosemary Squires - Among My Souvenirs. (2:48)
14 - The Four Aces - Love Is A Many-Splendored Thing. (3:01)
15 - Bob Curtis - Dance, Ballerina, Dance. (3:03)
16 - Graham Bickley - Always In My Heart. (2:34)
17 - Henry Mancini, Piano, and his Orchestra - Stardust. (3:00)
18 - Engelbert Humperdinck - I'll Walk Alone. (3:41)
19 - Ben Cramer - Tulips From Amsterdam. (3:10)
20 - Mary Carewe - With All My Heart. (2:58)
21 - Lance Ellington - Fascination. (2:28)
”Отчет ЕАС”
Отчёт EAC об извлечении, выполненном 24. марта 2012, 17:47 для диска:
Various / В ритме танца -Незабываемое
Дисковод: TSSTcorpCDDVDW SH-222AB Adapter: 0 ID: 0
Режим чтения: Достоверный (C2: нет, Точный поток: да, Отключение кэша: да)
Коррекция смещения при чтении: 6
Способность читать области Lead-in и Lead-out : Нет
Выходной формат: C:\Program Files (x86)\FLAC\flac.exe (Пользовательский кодировщик)
128 kBit/s
Дополнительные параметры: -8 -V -T "ARTIST=%a" -T "TITLE=%t" -T "ALBUM=%g" -T "DATE=%y" -T "TRACKNUMBER=%n" -T "GENRE=%m" -T "COMMENT=EAC FLAC -8" %s
Другие параметры:
Заполнение пропущенных сэмплов тишиной : Да
Удаление блоков с тишиной в начале и конце : Нет
Встроенный Win32-интерфейс для Win NT/2000
Трек 1
Имя файла C:\Sergei\новая папка\01 - Captain & Tennille - Unforgettable.wav
Длина предзазора 0:00:02.00
Пиковый уровень 96.8 %
Качество трека 100.0 %
CRC теста 6A65EE0B
CRC копии 6A65EE0B
Копирование... OK
Трек 2
Имя файла C:\Sergei\новая папка\02 - Graham Bickley - Ramona.wav
Длина предзазора 0:00:01.74
Пиковый уровень 60.2 %
Качество трека 99.9 %
CRC теста EF69A2C8
CRC копии EF69A2C8
Копирование... OK
Трек 3
Имя файла C:\Sergei\новая папка\03 - Engelbert Humperdinck - They Say It's Wonderful.wav
Длина предзазора 0:00:01.74
Пиковый уровень 97.1 %
Качество трека 100.0 %
CRC теста 2D52D120
CRC копии 2D52D120
Копирование... OK
Трек 4
Имя файла C:\Sergei\новая папка\04 - Kenny Rogers - I Only Have Eyes For You.wav
Длина предзазора 0:00:01.74
Пиковый уровень 96.5 %
Качество трека 100.0 %
CRC теста 000A471B
CRC копии 000A471B
Копирование... OK
Трек 5
Имя файла C:\Sergei\новая папка\05 - Helen Forrest - It Had To Be You.wav
Длина предзазора 0:00:01.74
Пиковый уровень 97.1 %
Качество трека 99.9 %
CRC теста 81FE99C3
CRC копии 81FE99C3
Копирование... OK
Трек 6
Имя файла C:\Sergei\новая папка\06 - Ben Cramer - Everybody Loves Somebody.wav
Длина предзазора 0:00:01.76
Пиковый уровень 74.0 %
Качество трека 100.0 %
CRC теста CE5BAD73
CRC копии CE5BAD73
Копирование... OK
Трек 7
Имя файла C:\Sergei\новая папка\07 - Tommy Blaize - Two Loves Have I.wav
Длина предзазора 0:00:01.73
Пиковый уровень 96.8 %
Качество трека 100.0 %
CRC теста BE0283E1
CRC копии BE0283E1
Копирование... OK
Трек 8
Имя файла C:\Sergei\новая папка\08 - Mary Carewe - Around The World.wav
Длина предзазора 0:00:01.76
Пиковый уровень 76.8 %
Качество трека 100.0 %
CRC теста C2DB1BD2
CRC копии C2DB1BD2
Копирование... OK
Трек 9
Имя файла C:\Sergei\новая папка\09 - Tony Bennett - Blue Moon.wav
Длина предзазора 0:00:01.74
Пиковый уровень 96.6 %
Качество трека 100.0 %
CRC теста 9B6B903E
CRC копии 9B6B903E
Копирование... OK
Трек 10
Имя файла C:\Sergei\новая папка\10 - Claude Blouin and his Orchestra - Harbour Lights.wav
Длина предзазора 0:00:01.74
Пиковый уровень 66.2 %
Качество трека 99.9 %
CRC теста B71C04B3
CRC копии B71C04B3
Копирование... OK
Трек 11
Имя файла C:\Sergei\новая папка\11 - Vaughn Monroe - My Cup Runneth Over.wav
Длина предзазора 0:00:01.74
Пиковый уровень 97.1 %
Качество трека 99.9 %
CRC теста 3D70974D
CRC копии 3D70974D
Копирование... OK
Трек 12
Имя файла C:\Sergei\новая папка\12 - Anita Harris - The Anniversary Waltz.wav
Длина предзазора 0:00:01.76
Пиковый уровень 82.1 %
Качество трека 100.0 %
CRC теста 46DED45F
CRC копии 46DED45F
Копирование... OK
Трек 13
Имя файла C:\Sergei\новая папка\13 - Rosemary Squires - Among My Souvenirs.wav
Длина предзазора 0:00:01.74
Пиковый уровень 96.9 %
Качество трека 100.0 %
CRC теста FC674D7D
CRC копии FC674D7D
Копирование... OK
Трек 14
Имя файла C:\Sergei\новая папка\14 - The Four Aces - Love Is A Many-Splendored Thing.wav
Длина предзазора 0:00:01.76
Пиковый уровень 97.1 %
Качество трека 99.9 %
CRC теста AF9BDD0F
CRC копии AF9BDD0F
Копирование... OK
Трек 15
Имя файла C:\Sergei\новая папка\15 - Bob Curtis - Dance, Ballerina, Dance.wav
Длина предзазора 0:00:01.74
Пиковый уровень 97.1 %
Качество трека 99.9 %
CRC теста C787BA01
CRC копии C787BA01
Копирование... OK
Трек 16
Имя файла C:\Sergei\новая папка\16 - Graham Bickley - Always In My Heart.wav
Длина предзазора 0:00:01.74
Пиковый уровень 67.6 %
Качество трека 99.9 %
CRC теста 2F3B02FA
CRC копии 2F3B02FA
Копирование... OK
Трек 17
Имя файла C:\Sergei\новая папка\17 - Henry Mancini, Piano, and his Orchestra - Stardust.wav
Длина предзазора 0:00:01.74
Пиковый уровень 96.6 %
Качество трека 100.0 %
CRC теста A5C38114
CRC копии A5C38114
Копирование... OK
Трек 18
Имя файла C:\Sergei\новая папка\18 - Engelbert Humperdinck - I'll Walk Alone.wav
Длина предзазора 0:00:01.74
Пиковый уровень 97.1 %
Качество трека 100.0 %
CRC теста 1CE7CADB
CRC копии 1CE7CADB
Копирование... OK
Трек 19
Имя файла C:\Sergei\новая папка\19 - Ben Cramer - Tulips From Amsterdam.wav
Длина предзазора 0:00:01.76
Пиковый уровень 60.2 %
Качество трека 100.0 %
CRC теста 5EBD60E4
CRC копии 5EBD60E4
Копирование... OK
Трек 20
Имя файла C:\Sergei\новая папка\20 - Mary Carewe - With All My Heart.wav
Длина предзазора 0:00:01.74
Пиковый уровень 97.0 %
Качество трека 100.0 %
CRC теста C11F7742
CRC копии C11F7742
Копирование... OK
Трек 21
Имя файла C:\Sergei\новая папка\21 - Lance Ellington - Fascination.wav
Длина предзазора 0:00:01.74
Пиковый уровень 76.5 %
Качество трека 100.0 %
CRC теста E4DCC080
CRC копии E4DCC080
Копирование... OK
Ошибок не произошло
Конец отчёта
"Non-compilant CUE"
REM GENRE Instrumental
REM DATE 2011
REM DISCID 210F0C15
REM COMMENT "ExactAudioCopy v0.95b3"
PERFORMER "Various"
TITLE "В ритме танца -Незабываемое"
FILE "01 - Captain & Tennille - Unforgettable.wav" WAVE
TRACK 01 AUDIO
TITLE "Unforgettable"
PERFORMER "Captain & Tennille"
INDEX 01 00:00:00
TRACK 02 AUDIO
TITLE "Ramona"
PERFORMER "Graham Bickley"
INDEX 00 04:00:57
FILE "02 - Graham Bickley - Ramona.wav" WAVE
INDEX 01 00:00:00
TRACK 03 AUDIO
TITLE "They Say It's Wonderful"
PERFORMER "Engelbert Humperdinck"
INDEX 00 02:34:74
FILE "03 - Engelbert Humperdinck - They Say It's Wonderful.wav" WAVE
INDEX 01 00:00:00
TRACK 04 AUDIO
TITLE "I Only Have Eyes For You"
PERFORMER "Kenny Rogers"
INDEX 00 03:21:53
FILE "04 - Kenny Rogers - I Only Have Eyes For You.wav" WAVE
INDEX 01 00:00:00
TRACK 05 AUDIO
TITLE "It Had To Be You"
PERFORMER "Helen Forrest"
INDEX 00 04:15:15
FILE "05 - Helen Forrest - It Had To Be You.wav" WAVE
INDEX 01 00:00:00
TRACK 06 AUDIO
TITLE "Everybody Loves Somebody"
PERFORMER "Ben Cramer"
INDEX 00 03:24:07
FILE "06 - Ben Cramer - Everybody Loves Somebody.wav" WAVE
INDEX 01 00:00:00
TRACK 07 AUDIO
TITLE "Two Loves Have I"
PERFORMER "Tommy Blaize"
INDEX 00 02:48:05
FILE "07 - Tommy Blaize - Two Loves Have I.wav" WAVE
INDEX 01 00:00:00
TRACK 08 AUDIO
TITLE "Around The World"
PERFORMER "Mary Carewe"
INDEX 00 02:45:74
FILE "08 - Mary Carewe - Around The World.wav" WAVE
INDEX 01 00:00:00
TRACK 09 AUDIO
TITLE "Blue Moon"
PERFORMER "Tony Bennett"
INDEX 00 03:00:54
FILE "09 - Tony Bennett - Blue Moon.wav" WAVE
INDEX 01 00:00:00
TRACK 10 AUDIO
TITLE "Harbour Lights"
PERFORMER "Claude Blouin and his Orchestra"
INDEX 00 02:12:58
FILE "10 - Claude Blouin and his Orchestra - Harbour Lights.wav" WAVE
INDEX 01 00:00:00
TRACK 11 AUDIO
TITLE "My Cup Runneth Over"
PERFORMER "Vaughn Monroe"
INDEX 00 03:31:56
FILE "11 - Vaughn Monroe - My Cup Runneth Over.wav" WAVE
INDEX 01 00:00:00
TRACK 12 AUDIO
TITLE "The Anniversary Waltz"
PERFORMER "Anita Harris"
INDEX 00 02:26:25
FILE "12 - Anita Harris - The Anniversary Waltz.wav" WAVE
INDEX 01 00:00:00
TRACK 13 AUDIO
TITLE "Among My Souvenirs"
PERFORMER "Rosemary Squires"
INDEX 00 02:41:24
FILE "13 - Rosemary Squires - Among My Souvenirs.wav" WAVE
INDEX 01 00:00:00
TRACK 14 AUDIO
TITLE "Love Is A Many-Splendored Thing"
PERFORMER "The Four Aces"
INDEX 00 02:46:20
FILE "14 - The Four Aces - Love Is A Many-Splendored Thing.wav" WAVE
INDEX 01 00:00:00
TRACK 15 AUDIO
TITLE "Dance, Ballerina, Dance"
PERFORMER "Bob Curtis"
INDEX 00 02:59:42
FILE "15 - Bob Curtis - Dance, Ballerina, Dance.wav" WAVE
INDEX 01 00:00:00
TRACK 16 AUDIO
TITLE "Always In My Heart"
PERFORMER "Graham Bickley"
INDEX 00 03:01:65
FILE "16 - Graham Bickley - Always In My Heart.wav" WAVE
INDEX 01 00:00:00
TRACK 17 AUDIO
TITLE "Stardust"
PERFORMER "Henry Mancini, Piano, and his Orchestra"
INDEX 00 02:32:73
FILE "17 - Henry Mancini, Piano, and his Orchestra - Stardust.wav" WAVE
INDEX 01 00:00:00
TRACK 18 AUDIO
TITLE "I'll Walk Alone"
PERFORMER "Engelbert Humperdinck"
INDEX 00 02:58:62
FILE "18 - Engelbert Humperdinck - I'll Walk Alone.wav" WAVE
INDEX 01 00:00:00
TRACK 19 AUDIO
TITLE "Tulips From Amsterdam"
PERFORMER "Ben Cramer"
INDEX 00 03:39:32
FILE "19 - Ben Cramer - Tulips From Amsterdam.wav" WAVE
INDEX 01 00:00:00
TRACK 20 AUDIO
TITLE "With All My Heart"
PERFORMER "Mary Carewe"
INDEX 00 03:09:04
FILE "20 - Mary Carewe - With All My Heart.wav" WAVE
INDEX 01 00:00:00
TRACK 21 AUDIO
TITLE "Fascination"
PERFORMER "Lance Ellington"
INDEX 00 02:57:12
FILE "21 - Lance Ellington - Fascination.wav" WAVE
INDEX 01 00:00:00
"Лог Audiochecker"
AUDIOCHECKER v2.0 beta (build 457) - by Dester - [email protected]
~~~~~~~~~~~~~~~~~~~~~~~~~~~~~~~~~~
-=== НЕ РЕДАКТИРУЙТЕ ЭТОТ ФАЙЛ! ===-
Путь: ...\Незабываемое
01 -=- 01 - Captain & Tennille - Unforgettable.flac -=- CDDA (100%)
02 -=- 02 - Graham Bickley - Ramona.flac -=- CDDA (100%)
03 -=- 03 - Engelbert Humperdinck - They Say It's Wonderful.flac -=- CDDA (100%)
04 -=- 04 - Kenny Rogers - I Only Have Eyes For You.flac -=- CDDA (100%)
05 -=- 05 - Helen Forrest - It Had To Be You.flac -=- CDDA (100%)
06 -=- 06 - Ben Cramer - Everybody Loves Somebody.flac -=- CDDA (100%)
07 -=- 07 - Tommy Blaize - Two Loves Have I.flac -=- CDDA (100%)
08 -=- 08 - Mary Carewe - Around The World.flac -=- CDDA (100%)
09 -=- 09 - Tony Bennett - Blue Moon.flac -=- CDDA (100%)
10 -=- 10 - Claude Blouin and his Orchestra - Harbour Lights.flac -=- CDDA (100%)
11 -=- 11 - Vaughn Monroe - My Cup Runneth Over.flac -=- CDDA (100%)
12 -=- 12 - Anita Harris - The Anniversary Waltz.flac -=- CDDA (100%)
13 -=- 13 - Rosemary Squires - Among My Souvenirs.flac -=- CDDA (100%)
14 -=- 14 - The Four Aces - Love Is A Many-Splendored Thing.flac -=- CDDA (100%)
15 -=- 15 - Bob Curtis - Dance, Ballerina, Dance.flac -=- CDDA (100%)
16 -=- 16 - Graham Bickley - Always In My Heart.flac -=- CDDA (100%)
17 -=- 17 - Henry Mancini, Piano, and his Orchestra - Stardust.flac -=- CDDA (99%)
18 -=- 18 - Engelbert Humperdinck - I'll Walk Alone.flac -=- CDDA (100%)
19 -=- 19 - Ben Cramer - Tulips From Amsterdam.flac -=- CDDA (100%)
20 -=- 20 - Mary Carewe - With All My Heart.flac -=- CDDA (99%)
21 -=- 21 - Lance Ellington - Fascination.flac -=- CDDA (100%)
Сводка 99,90% CDDA
145674484
Трэклист
01 - Vic Damone - Feelings. (4:56)
02 - Brenda Lee - I'm Sorry. (2:37)
03 - The Platters - Only You. (2:37)
04 - Paul & Paula - Hey Paula. (2:29)
05 - Frankie Avalon - Special Angel. (2:54)
06 - Ben Cramer - Release Me. (3:15)
07 - The Kendalls - Crying Time. (3:04)
08 - Michael Dore - Dear Heart. (2:51)
09 - Graham Bickley - Let Me Try Again. (3:23)
10 - Vic Damone - Games That Lovers Play. (3:07)
11 - Glen Campbell - Since I Fell For You. (2:42)
12 - Timi Yuro - Hurt. (2:22)
13 - Brenda Lee - All Alone Am I. (2:47)
14 - Tommy Blaize - Only Sixteen. (2:09)
15 - Ronnie Carroll - Roses Are Red. (2:34)
16 - Lee Lynch - Stay Awhile. (3:25)
17 - Ben Cramer - Les Bicyclettes de Belsize. (3:07)
18 - Captain & Tennille - Unchained Melody. (3:41)
19 - The Platters - Smoke Gets In Your Eyes. (2:35)
20 - Frankie Avalon - Let It Be Me. (3:43)
21 - Michael Dore & Mary Carewe - True Love. (2:51)
22 - John Baker - Magic Is The Moonlight. (2:20)
23 - The Lettermen - The Way You Look Tonight. (2:25)
”Отчет ЕАС”
Отчёт EAC об извлечении, выполненном 24. марта 2012, 18:23 для диска:
Various / В ритме танца - Только чувства
Дисковод: TSSTcorpCDDVDW SH-222AB Adapter: 0 ID: 0
Режим чтения: Достоверный (C2: нет, Точный поток: да, Отключение кэша: да)
Коррекция смещения при чтении: 6
Способность читать области Lead-in и Lead-out : Нет
Выходной формат: C:\Program Files (x86)\FLAC\flac.exe (Пользовательский кодировщик)
128 kBit/s
Дополнительные параметры: -8 -V -T "ARTIST=%a" -T "TITLE=%t" -T "ALBUM=%g" -T "DATE=%y" -T "TRACKNUMBER=%n" -T "GENRE=%m" -T "COMMENT=EAC FLAC -8" %s
Другие параметры:
Заполнение пропущенных сэмплов тишиной : Да
Удаление блоков с тишиной в начале и конце : Нет
Встроенный Win32-интерфейс для Win NT/2000
Трек 1
Имя файла C:\Sergei\новая папка\01 - Vic Damone - Feelings.wav
Длина предзазора 0:00:02.00
Пиковый уровень 57.4 %
Качество трека 100.0 %
CRC теста 0A0275EE
CRC копии 0A0275EE
Копирование... OK
Трек 2
Имя файла C:\Sergei\новая папка\02 - Brenda Lee - I'm Sorry.wav
Длина предзазора 0:00:01.76
Пиковый уровень 56.9 %
Качество трека 100.0 %
CRC теста 430882FF
CRC копии 430882FF
Копирование... OK
Трек 3
Имя файла C:\Sergei\новая папка\03 - The Platters - Only You.wav
Длина предзазора 0:00:01.74
Пиковый уровень 88.7 %
Качество трека 99.9 %
CRC теста F8D7E54E
CRC копии F8D7E54E
Копирование... OK
Трек 4
Имя файла C:\Sergei\новая папка\04 - Paul & Paula - Hey Paula.wav
Длина предзазора 0:00:01.74
Пиковый уровень 84.0 %
Качество трека 100.0 %
CRC теста FCD38CB8
CRC копии FCD38CB8
Копирование... OK
Трек 5
Имя файла C:\Sergei\новая папка\05 - Frankie Avalon - Special Angel.wav
Длина предзазора 0:00:01.74
Пиковый уровень 71.4 %
Качество трека 100.0 %
CRC теста 023D71B9
CRC копии 023D71B9
Копирование... OK
Трек 6
Имя файла C:\Sergei\новая папка\06 - Ben Cramer - Release Me.wav
Длина предзазора 0:00:01.74
Пиковый уровень 74.4 %
Качество трека 100.0 %
CRC теста 9C145753
CRC копии 9C145753
Копирование... OK
Трек 7
Имя файла C:\Sergei\новая папка\07 - The Kendalls - Crying Time.wav
Длина предзазора 0:00:01.74
Пиковый уровень 76.1 %
Качество трека 100.0 %
CRC теста 8FA38485
CRC копии 8FA38485
Копирование... OK
Трек 8
Имя файла C:\Sergei\новая папка\08 - Michael Dore - Dear Heart.wav
Длина предзазора 0:00:01.76
Пиковый уровень 69.5 %
Качество трека 100.0 %
CRC теста 445DA061
CRC копии 445DA061
Копирование... OK
Трек 9
Имя файла C:\Sergei\новая папка\09 - Graham Bickley - Let Me Try Again.wav
Длина предзазора 0:00:01.21
Пиковый уровень 40.5 %
Качество трека 100.0 %
CRC теста 7F1E289E
CRC копии 7F1E289E
Копирование... OK
Трек 10
Имя файла C:\Sergei\новая папка\10 - Vic Damone - Games That Lovers Play.wav
Длина предзазора 0:00:01.74
Пиковый уровень 65.2 %
Качество трека 100.0 %
CRC теста 54593872
CRC копии 54593872
Копирование... OK
Трек 11
Имя файла C:\Sergei\новая папка\11 - Glen Campbell - Since I Fell For You.wav
Длина предзазора 0:00:01.76
Пиковый уровень 61.0 %
Качество трека 100.0 %
CRC теста F1BC18C5
CRC копии F1BC18C5
Копирование... OK
Трек 12
Имя файла C:\Sergei\новая папка\12 - Timi Yuro - Hurt.wav
Длина предзазора 0:00:01.74
Пиковый уровень 84.4 %
Качество трека 100.0 %
CRC теста B2E1101E
CRC копии B2E1101E
Копирование... OK
Трек 13
Имя файла C:\Sergei\новая папка\13 - Brenda Lee - All Alone Am I.wav
Длина предзазора 0:00:01.74
Пиковый уровень 53.8 %
Качество трека 100.0 %
CRC теста 2AF798C0
CRC копии 2AF798C0
Копирование... OK
Трек 14
Имя файла C:\Sergei\новая папка\14 - Tommy Blaize - Only Sixteen.wav
Длина предзазора 0:00:01.74
Пиковый уровень 70.8 %
Качество трека 100.0 %
CRC теста 6B7FD1ED
CRC копии 6B7FD1ED
Копирование... OK
Трек 15
Имя файла C:\Sergei\новая папка\15 - Ronnie Carroll - Roses Are Red.wav
Длина предзазора 0:00:01.74
Пиковый уровень 89.3 %
Качество трека 99.9 %
CRC теста 5893F258
CRC копии 5893F258
Копирование... OK
Трек 16
Имя файла C:\Sergei\новая папка\16 - Lee Lynch - Stay Awhile.wav
Длина предзазора 0:00:01.74
Пиковый уровень 61.0 %
Качество трека 100.0 %
CRC теста 77688506
CRC копии 77688506
Копирование... OK
Трек 17
Имя файла C:\Sergei\новая папка\17 - Ben Cramer - Les Bicyclettes de Belsize.wav
Длина предзазора 0:00:01.74
Пиковый уровень 73.0 %
Качество трека 100.0 %
CRC теста 25C01764
CRC копии 25C01764
Копирование... OK
Трек 18
Имя файла C:\Sergei\новая папка\18 - Captain & Tennille - Unchained Melody.wav
Длина предзазора 0:00:01.74
Пиковый уровень 74.2 %
Качество трека 100.0 %
CRC теста 5723750F
CRC копии 5723750F
Копирование... OK
Трек 19
Имя файла C:\Sergei\новая папка\19 - The Platters - Smoke Gets In Your Eyes.wav
Длина предзазора 0:00:01.74
Пиковый уровень 77.1 %
Качество трека 99.9 %
CRC теста 8462DAB1
CRC копии 8462DAB1
Копирование... OK
Трек 20
Имя файла C:\Sergei\новая папка\20 - Frankie Avalon - Let It Be Me.wav
Длина предзазора 0:00:01.74
Пиковый уровень 81.9 %
Качество трека 99.9 %
CRC теста 468A6EE5
CRC копии 468A6EE5
Копирование... OK
Трек 21
Имя файла C:\Sergei\новая папка\21 - Michael Dore & Mary Carewe - True Love.wav
Длина предзазора 0:00:01.74
Пиковый уровень 41.5 %
Качество трека 100.0 %
CRC теста 60717807
CRC копии 60717807
Копирование... OK
Трек 22
Имя файла C:\Sergei\новая папка\22 - John Baker - Magic Is The Moonlight.wav
Длина предзазора 0:00:01.74
Пиковый уровень 55.5 %
Качество трека 100.0 %
CRC теста BFE6AB6A
CRC копии BFE6AB6A
Копирование... OK
Трек 23
Имя файла C:\Sergei\новая папка\23 - The Lettermen - The Way You Look Tonight.wav
Длина предзазора 0:00:01.74
Пиковый уровень 72.1 %
Качество трека 100.0 %
CRC теста 4FB8E75D
CRC копии 4FB8E75D
Копирование... OK
Ошибок не произошло
Конец отчёта
"Non-compilant CUE"
REM GENRE Instrumental
REM DATE 2011
REM DISCID 3F0FF417
REM COMMENT "ExactAudioCopy v0.95b3"
PERFORMER "Various"
TITLE "В ритме танца - Только чувства"
FILE "01 - Vic Damone - Feelings.wav" WAVE
TRACK 01 AUDIO
TITLE "Feelings"
PERFORMER "Vic Damone"
INDEX 01 00:00:00
TRACK 02 AUDIO
TITLE "I'm Sorry"
PERFORMER "Brenda Lee"
INDEX 00 04:54:19
FILE "02 - Brenda Lee - I'm Sorry.wav" WAVE
INDEX 01 00:00:00
TRACK 03 AUDIO
TITLE "Only You"
PERFORMER "The Platters"
INDEX 00 02:35:66
FILE "03 - The Platters - Only You.wav" WAVE
INDEX 01 00:00:00
TRACK 04 AUDIO
TITLE "Hey Paula"
PERFORMER "Paul & Paula"
INDEX 00 02:35:23
FILE "04 - Paul & Paula - Hey Paula.wav" WAVE
INDEX 01 00:00:00
TRACK 05 AUDIO
TITLE "Special Angel"
PERFORMER "Frankie Avalon"
INDEX 00 02:27:28
FILE "05 - Frankie Avalon - Special Angel.wav" WAVE
INDEX 01 00:00:00
TRACK 06 AUDIO
TITLE "Release Me"
PERFORMER "Ben Cramer"
INDEX 00 02:52:36
FILE "06 - Ben Cramer - Release Me.wav" WAVE
INDEX 01 00:00:00
TRACK 07 AUDIO
TITLE "Crying Time"
PERFORMER "The Kendalls"
INDEX 00 03:14:01
FILE "07 - The Kendalls - Crying Time.wav" WAVE
INDEX 01 00:00:00
TRACK 08 AUDIO
TITLE "Dear Heart"
PERFORMER "Michael Dore"
INDEX 00 03:02:67
FILE "08 - Michael Dore - Dear Heart.wav" WAVE
INDEX 01 00:00:00
TRACK 09 AUDIO
TITLE "Let Me Try Again"
PERFORMER "Graham Bickley"
INDEX 00 02:50:44
FILE "09 - Graham Bickley - Let Me Try Again.wav" WAVE
INDEX 01 00:00:00
TRACK 10 AUDIO
TITLE "Games That Lovers Play"
PERFORMER "Vic Damone"
INDEX 00 03:21:51
FILE "10 - Vic Damone - Games That Lovers Play.wav" WAVE
INDEX 01 00:00:00
TRACK 11 AUDIO
TITLE "Since I Fell For You"
PERFORMER "Glen Campbell"
INDEX 00 03:05:24
FILE "11 - Glen Campbell - Since I Fell For You.wav" WAVE
INDEX 01 00:00:00
TRACK 12 AUDIO
TITLE "Hurt"
PERFORMER "Timi Yuro"
INDEX 00 02:40:66
FILE "12 - Timi Yuro - Hurt.wav" WAVE
INDEX 01 00:00:00
TRACK 13 AUDIO
TITLE "All Alone Am I"
PERFORMER "Brenda Lee"
INDEX 00 02:20:30
FILE "13 - Brenda Lee - All Alone Am I.wav" WAVE
INDEX 01 00:00:00
TRACK 14 AUDIO
TITLE "Only Sixteen"
PERFORMER "Tommy Blaize"
INDEX 00 02:46:01
FILE "14 - Tommy Blaize - Only Sixteen.wav" WAVE
INDEX 01 00:00:00
TRACK 15 AUDIO
TITLE "Roses Are Red"
PERFORMER "Ronnie Carroll"
INDEX 00 02:07:19
FILE "15 - Ronnie Carroll - Roses Are Red.wav" WAVE
INDEX 01 00:00:00
TRACK 16 AUDIO
TITLE "Stay Awhile"
PERFORMER "Lee Lynch"
INDEX 00 02:32:71
FILE "16 - Lee Lynch - Stay Awhile.wav" WAVE
INDEX 01 00:00:00
TRACK 17 AUDIO
TITLE "Les Bicyclettes de Belsize"
PERFORMER "Ben Cramer"
INDEX 00 03:23:22
FILE "17 - Ben Cramer - Les Bicyclettes de Belsize.wav" WAVE
INDEX 01 00:00:00
TRACK 18 AUDIO
TITLE "Unchained Melody"
PERFORMER "Captain & Tennille"
INDEX 00 03:05:69
FILE "18 - Captain & Tennille - Unchained Melody.wav" WAVE
INDEX 01 00:00:00
TRACK 19 AUDIO
TITLE "Smoke Gets In Your Eyes"
PERFORMER "The Platters"
INDEX 00 03:40:00
FILE "19 - The Platters - Smoke Gets In Your Eyes.wav" WAVE
INDEX 01 00:00:00
TRACK 20 AUDIO
TITLE "Let It Be Me"
PERFORMER "Frankie Avalon"
INDEX 00 02:33:71
FILE "20 - Frankie Avalon - Let It Be Me.wav" WAVE
INDEX 01 00:00:00
TRACK 21 AUDIO
TITLE "True Love"
PERFORMER "Michael Dore & Mary Carewe"
INDEX 00 03:41:54
FILE "21 - Michael Dore & Mary Carewe - True Love.wav" WAVE
INDEX 01 00:00:00
TRACK 22 AUDIO
TITLE "Magic Is The Moonlight"
PERFORMER "John Baker"
INDEX 00 02:50:10
FILE "22 - John Baker - Magic Is The Moonlight.wav" WAVE
INDEX 01 00:00:00
TRACK 23 AUDIO
TITLE "The Way You Look Tonight"
PERFORMER "The Lettermen"
INDEX 00 02:18:42
FILE "23 - The Lettermen - The Way You Look Tonight.wav" WAVE
INDEX 01 00:00:00
"Лог Audiochecker"
AUDIOCHECKER v2.0 beta (build 457) - by Dester - [email protected]
~~~~~~~~~~~~~~~~~~~~~~~~~~~~~~~~~~
-=== НЕ РЕДАКТИРУЙТЕ ЭТОТ ФАЙЛ! ===-
Путь: ...\Только чувства
01 -=- 01 - Vic Damone - Feelings.flac -=- CDDA (100%)
02 -=- 02 - Brenda Lee - I'm Sorry.flac -=- CDDA (99%)
03 -=- 03 - The Platters - Only You.flac -=- CDDA (100%)
04 -=- 04 - Paul & Paula - Hey Paula.flac -=- CDDA (76%)
05 -=- 05 - Frankie Avalon - Special Angel.flac -=- MPEG (95%)
06 -=- 06 - Ben Cramer - Release Me.flac -=- CDDA (100%)
07 -=- 07 - The Kendalls - Crying Time.flac -=- CDDA (94%)
08 -=- 08 - Michael Dore - Dear Heart.flac -=- CDDA (100%)
09 -=- 09 - Graham Bickley - Let Me Try Again.flac -=- CDDA (99%)
10 -=- 10 - Vic Damone - Games That Lovers Play.flac -=- CDDA (100%)
11 -=- 11 - Glen Campbell - Since I Fell For You.flac -=- CDDA (100%)
12 -=- 12 - Timi Yuro - Hurt.flac -=- CDDA (100%)
13 -=- 13 - Brenda Lee - All Alone Am I.flac -=- CDDA (100%)
14 -=- 14 - Tommy Blaize - Only Sixteen.flac -=- CDDA (100%)
15 -=- 15 - Ronnie Carroll - Roses Are Red.flac -=- CDDA (100%)
16 -=- 16 - Lee Lynch - Stay Awhile.flac -=- CDDA (100%)
17 -=- 17 - Ben Cramer - Les Bicyclettes de Belsize.flac -=- CDDA (100%)
18 -=- 18 - Captain & Tennille - Unchained Melody.flac -=- CDDA (100%)
19 -=- 19 - The Platters - Smoke Gets In Your Eyes.flac -=- CDDA (100%)
20 -=- 20 - Frankie Avalon - Let It Be Me.flac -=- CDDA (99%)
21 -=- 21 - Michael Dore & Mary Carewe - True Love.flac -=- CDDA (100%)
22 -=- 22 - John Baker - Magic Is The Moonlight.flac -=- CDDA (100%)
23 -=- 23 - The Lettermen - The Way You Look Tonight.flac -=- CDDA (100%)
Сводка 94,43% CDDA
87707540
Трэклист
1 - Graham Bickley - Could I Have This Dance. (3:22)
02 - John Baker - Have You Ever Really Loved A Woman. (3:37)
03 - Mary Carewe - A Moment Like This. (3:46)
04 - Connie Francis - Love Is Strange. (3:46)
05 - Percy Sledge - When A Man Loves A Woman. (2:54)
06 - The Platters - The Great Pretender. (2:36)
07 - Jane McDonald - You Don't Have To Say You Love Me. (2:48)
08 - Kenny Rogers - Can't Help Falling In Love. (3:20)
09 - Captain & Tennille - Do That To Me One More Time. (4:19)
10 - Demis Roussos - Rain And Tears. (3:26)
11 - Brotherhood of Man - Woman In Love. (2:59)
12 - Cliff Richard - Let Me Be The One. (4:04)
13 - Jane McDonald - One Moment In Time. (4:38)
14 - Tommy Blaize - Un-break My Heart. (3:50)
15 - The Korgis - Everybody's Got To Learn Sometime. (4:11)
16 - Brotherhood of Man - All By Myself. (3:20)
17 - Vic Dana - Red Roses For A Blue Lady. (2:45)
18 - Frankie Avalon - Earth Angel. (2:47)
19 - The Drifters - Save The Last Dance For Me. (2:37)
20 - Ben Cramer - The Last Waltz. (2:59)
”Отчет ЕАС”
Отчёт EAC об извлечении, выполненном 24. марта 2012, 18:58 для диска:
Various / В ритме танца - Следующий танец за мной
Дисковод: TSSTcorpCDDVDW SH-222AB Adapter: 0 ID: 0
Режим чтения: Достоверный (C2: нет, Точный поток: да, Отключение кэша: да)
Коррекция смещения при чтении: 6
Способность читать области Lead-in и Lead-out : Нет
Выходной формат: C:\Program Files (x86)\FLAC\flac.exe (Пользовательский кодировщик)
128 kBit/s
Дополнительные параметры: -8 -V -T "ARTIST=%a" -T "TITLE=%t" -T "ALBUM=%g" -T "DATE=%y" -T "TRACKNUMBER=%n" -T "GENRE=%m" -T "COMMENT=EAC FLAC -8" %s
Другие параметры:
Заполнение пропущенных сэмплов тишиной : Да
Удаление блоков с тишиной в начале и конце : Нет
Встроенный Win32-интерфейс для Win NT/2000
Трек 1
Имя файла C:\Sergei\новая папка\01 - Graham Bickley - Could I Have This Dance.wav
Длина предзазора 0:00:02.00
Пиковый уровень 53.7 %
Качество трека 100.0 %
CRC теста D11770FB
CRC копии D11770FB
Копирование... OK
Трек 2
Имя файла C:\Sergei\новая папка\02 - John Baker - Have You Ever Really Loved A Woman.wav
Длина предзазора 0:00:01.78
Пиковый уровень 65.9 %
Качество трека 99.9 %
CRC теста 11265A3F
CRC копии 11265A3F
Копирование... OK
Трек 3
Имя файла C:\Sergei\новая папка\03 - Mary Carewe - A Moment Like This.wav
Длина предзазора 0:00:01.74
Пиковый уровень 72.5 %
Качество трека 99.9 %
CRC теста 1A73E5A9
CRC копии 1A73E5A9
Копирование... OK
Трек 4
Имя файла C:\Sergei\новая папка\04 - Connie Francis - Love Is Strange.wav
Длина предзазора 0:00:01.74
Пиковый уровень 92.5 %
Качество трека 100.0 %
CRC теста 9485ED4E
CRC копии 9485ED4E
Копирование... OK
Трек 5
Имя файла C:\Sergei\новая папка\05 - Percy Sledge - When A Man Loves A Woman.wav
Длина предзазора 0:00:01.74
Пиковый уровень 97.0 %
Качество трека 99.9 %
CRC теста 7EE71492
CRC копии 7EE71492
Копирование... OK
Трек 6
Имя файла C:\Sergei\новая папка\06 - The Platters - The Great Pretender.wav
Длина предзазора 0:00:01.76
Пиковый уровень 97.0 %
Качество трека 99.9 %
CRC теста 6207D3DB
CRC копии 6207D3DB
Копирование... OK
Трек 7
Имя файла C:\Sergei\новая папка\07 - Jane McDonald - You Don't Have To Say You Love Me.wav
Длина предзазора 0:00:01.74
Пиковый уровень 84.4 %
Качество трека 100.0 %
CRC теста A21118D7
CRC копии A21118D7
Копирование... OK
Трек 8
Имя файла C:\Sergei\новая папка\08 - Kenny Rogers - Can't Help Falling In Love.wav
Длина предзазора 0:00:01.74
Пиковый уровень 82.5 %
Качество трека 100.0 %
CRC теста F67EE702
CRC копии F67EE702
Копирование... OK
Трек 9
Имя файла C:\Sergei\новая папка\09 - Captain & Tennille - Do That To Me One More Time.wav
Длина предзазора 0:00:01.74
Пиковый уровень 75.8 %
Качество трека 100.0 %
CRC теста 7538032D
CRC копии 7538032D
Копирование... OK
Трек 10
Имя файла C:\Sergei\новая папка\10 - Demis Roussos - Rain And Tears.wav
Длина предзазора 0:00:01.76
Пиковый уровень 77.2 %
Качество трека 100.0 %
CRC теста 73E3912A
CRC копии 73E3912A
Копирование... OK
Трек 11
Имя файла C:\Sergei\новая папка\11 - Brotherhood of Man - Woman In Love.wav
Длина предзазора 0:00:01.74
Пиковый уровень 67.3 %
Качество трека 100.0 %
CRC теста DA1322FF
CRC копии DA1322FF
Копирование... OK
Трек 12
Имя файла C:\Sergei\новая папка\12 - Cliff Richard - Let Me Be The One.wav
Длина предзазора 0:00:01.76
Пиковый уровень 54.4 %
Качество трека 100.0 %
CRC теста 2A3AE761
CRC копии 2A3AE761
Копирование... OK
Трек 13
Имя файла C:\Sergei\новая папка\13 - Jane McDonald - One Moment In Time.wav
Длина предзазора 0:00:01.74
Пиковый уровень 83.1 %
Качество трека 100.0 %
CRC теста 8C2A6C6E
CRC копии 8C2A6C6E
Копирование... OK
Трек 14
Имя файла C:\Sergei\новая папка\14 - Tommy Blaize - Un-break My Heart.wav
Длина предзазора 0:00:01.76
Пиковый уровень 81.8 %
Качество трека 100.0 %
CRC теста D1CF43C6
CRC копии D1CF43C6
Копирование... OK
Трек 15
Имя файла C:\Sergei\новая папка\15 - The Korgis - Everybody's Got To Learn Sometime.wav
Длина предзазора 0:00:01.74
Пиковый уровень 54.3 %
Качество трека 100.0 %
CRC теста E74AC0EA
CRC копии E74AC0EA
Копирование... OK
Трек 16
Имя файла C:\Sergei\новая папка\16 - Brotherhood of Man - All By Myself.wav
Длина предзазора 0:00:01.74
Пиковый уровень 75.0 %
Качество трека 100.0 %
CRC теста 49B583DD
CRC копии 49B583DD
Копирование... OK
Трек 17
Имя файла C:\Sergei\новая папка\17 - Vic Dana - Red Roses For A Blue Lady.wav
Длина предзазора 0:00:01.74
Пиковый уровень 87.3 %
Качество трека 100.0 %
CRC теста E4FC1505
CRC копии E4FC1505
Копирование... OK
Трек 18
Имя файла C:\Sergei\новая папка\18 - Frankie Avalon - Earth Angel.wav
Длина предзазора 0:00:01.76
Пиковый уровень 67.7 %
Качество трека 99.9 %
CRC теста 4D18E73A
CRC копии 4D18E73A
Копирование... OK
Трек 19
Имя файла C:\Sergei\новая папка\19 - The Drifters - Save The Last Dance For Me.wav
Длина предзазора 0:00:01.74
Пиковый уровень 82.4 %
Качество трека 100.0 %
CRC теста 9178C389
CRC копии 9178C389
Копирование... OK
Трек 20
Имя файла C:\Sergei\новая папка\20 - Ben Cramer - The Last Waltz.wav
Длина предзазора 0:00:01.74
Пиковый уровень 87.2 %
Качество трека 100.0 %
CRC теста 4D203611
CRC копии 4D203611
Копирование... OK
Ошибок не произошло
Конец отчёта
"Non-compilant CUE"
REM GENRE Instrumental
REM DATE 2011
REM DISCID 180FFF14
REM COMMENT "ExactAudioCopy v0.95b3"
PERFORMER "Various"
TITLE "В ритме танца - Следующий танец за мной"
FILE "01 - Graham Bickley - Could I Have This Dance.wav" WAVE
TRACK 01 AUDIO
TITLE "Could I Have This Dance"
PERFORMER "Graham Bickley"
INDEX 01 00:00:00
TRACK 02 AUDIO
TITLE "Have You Ever Really Loved A Woman"
PERFORMER "John Baker"
INDEX 00 03:21:10
FILE "02 - John Baker - Have You Ever Really Loved A Woman.wav" WAVE
INDEX 01 00:00:00
TRACK 03 AUDIO
TITLE "A Moment Like This"
PERFORMER "Mary Carewe"
INDEX 00 03:36:04
FILE "03 - Mary Carewe - A Moment Like This.wav" WAVE
INDEX 01 00:00:00
TRACK 04 AUDIO
TITLE "Love Is Strange"
PERFORMER "Connie Francis"
INDEX 00 03:44:28
FILE "04 - Connie Francis - Love Is Strange.wav" WAVE
INDEX 01 00:00:00
TRACK 05 AUDIO
TITLE "When A Man Loves A Woman"
PERFORMER "Percy Sledge"
INDEX 00 03:44:31
FILE "05 - Percy Sledge - When A Man Loves A Woman.wav" WAVE
INDEX 01 00:00:00
TRACK 06 AUDIO
TITLE "The Great Pretender"
PERFORMER "The Platters"
INDEX 00 02:53:15
FILE "06 - The Platters - The Great Pretender.wav" WAVE
INDEX 01 00:00:00
TRACK 07 AUDIO
TITLE "You Don't Have To Say You Love Me"
PERFORMER "Jane McDonald"
INDEX 00 02:34:48
FILE "07 - Jane McDonald - You Don't Have To Say You Love Me.wav" WAVE
INDEX 01 00:00:00
TRACK 08 AUDIO
TITLE "Can't Help Falling In Love"
PERFORMER "Kenny Rogers"
INDEX 00 02:46:36
FILE "08 - Kenny Rogers - Can't Help Falling In Love.wav" WAVE
INDEX 01 00:00:00
TRACK 09 AUDIO
TITLE "Do That To Me One More Time"
PERFORMER "Captain & Tennille"
INDEX 00 03:19:04
FILE "09 - Captain & Tennille - Do That To Me One More Time.wav" WAVE
INDEX 01 00:00:00
TRACK 10 AUDIO
TITLE "Rain And Tears"
PERFORMER "Demis Roussos"
INDEX 00 04:18:08
FILE "10 - Demis Roussos - Rain And Tears.wav" WAVE
INDEX 01 00:00:00
TRACK 11 AUDIO
TITLE "Woman In Love"
PERFORMER "Brotherhood of Man"
INDEX 00 03:24:45
FILE "11 - Brotherhood of Man - Woman In Love.wav" WAVE
INDEX 01 00:00:00
TRACK 12 AUDIO
TITLE "Let Me Be The One"
PERFORMER "Cliff Richard"
INDEX 00 02:57:51
FILE "12 - Cliff Richard - Let Me Be The One.wav" WAVE
INDEX 01 00:00:00
TRACK 13 AUDIO
TITLE "One Moment In Time"
PERFORMER "Jane McDonald"
INDEX 00 04:03:01
FILE "13 - Jane McDonald - One Moment In Time.wav" WAVE
INDEX 01 00:00:00
TRACK 14 AUDIO
TITLE "Un-break My Heart"
PERFORMER "Tommy Blaize"
INDEX 00 04:36:23
FILE "14 - Tommy Blaize - Un-break My Heart.wav" WAVE
INDEX 01 00:00:00
TRACK 15 AUDIO
TITLE "Everybody's Got To Learn Sometime"
PERFORMER "The Korgis"
INDEX 00 03:49:08
FILE "15 - The Korgis - Everybody's Got To Learn Sometime.wav" WAVE
INDEX 01 00:00:00
TRACK 16 AUDIO
TITLE "All By Myself"
PERFORMER "Brotherhood of Man"
INDEX 00 04:10:08
FILE "16 - Brotherhood of Man - All By Myself.wav" WAVE
INDEX 01 00:00:00
TRACK 17 AUDIO
TITLE "Red Roses For A Blue Lady"
PERFORMER "Vic Dana"
INDEX 00 03:18:49
FILE "17 - Vic Dana - Red Roses For A Blue Lady.wav" WAVE
INDEX 01 00:00:00
TRACK 18 AUDIO
TITLE "Earth Angel"
PERFORMER "Frankie Avalon"
INDEX 00 02:44:04
FILE "18 - Frankie Avalon - Earth Angel.wav" WAVE
INDEX 01 00:00:00
TRACK 19 AUDIO
TITLE "Save The Last Dance For Me"
PERFORMER "The Drifters"
INDEX 00 02:45:72
FILE "19 - The Drifters - Save The Last Dance For Me.wav" WAVE
INDEX 01 00:00:00
TRACK 20 AUDIO
TITLE "The Last Waltz"
PERFORMER "Ben Cramer"
INDEX 00 02:35:38
FILE "20 - Ben Cramer - The Last Waltz.wav" WAVE
INDEX 01 00:00:00
"Лог Audiochecker"
AUDIOCHECKER v2.0 beta (build 457) - by Dester - [email protected]
~~~~~~~~~~~~~~~~~~~~~~~~~~~~~~~~~~
-=== НЕ РЕДАКТИРУЙТЕ ЭТОТ ФАЙЛ! ===-
Путь: ...\Следующий танец за мной
01 -=- 01 - Graham Bickley - Could I Have This Dance.flac -=- CDDA (100%)
02 -=- 02 - John Baker - Have You Ever Really Loved A Woman.flac -=- CDDA (100%)
03 -=- 03 - Mary Carewe - A Moment Like This.flac -=- CDDA (100%)
04 -=- 04 - Connie Francis - Love Is Strange.flac -=- CDDA (100%)
05 -=- 05 - Percy Sledge - When A Man Loves A Woman.flac -=- CDDA (100%)
06 -=- 06 - The Platters - The Great Pretender.flac -=- CDDA (100%)
07 -=- 07 - Jane McDonald - You Don't Have To Say You Love Me.flac -=- CDDA (100%)
08 -=- 08 - Kenny Rogers - Can't Help Falling In Love.flac -=- CDDA (100%)
09 -=- 09 - Captain & Tennille - Do That To Me One More Time.flac -=- CDDA (100%)
10 -=- 10 - Demis Roussos - Rain And Tears.flac -=- CDDA (100%)
11 -=- 11 - Brotherhood of Man - Woman In Love.flac -=- MPEG (95%)
12 -=- 12 - Cliff Richard - Let Me Be The One.flac -=- CDDA (99%)
13 -=- 13 - Jane McDonald - One Moment In Time.flac -=- CDDA (100%)
14 -=- 14 - Tommy Blaize - Un-break My Heart.flac -=- CDDA (100%)
15 -=- 15 - The Korgis - Everybody's Got To Learn Sometime.flac -=- CDDA (100%)
16 -=- 16 - Brotherhood of Man - All By Myself.flac -=- CDDA (100%)
17 -=- 17 - Vic Dana - Red Roses For A Blue Lady.flac -=- CDDA (100%)
18 -=- 18 - Frankie Avalon - Earth Angel.flac -=- CDDA (99%)
19 -=- 19 - The Drifters - Save The Last Dance For Me.flac -=- CDDA (100%)
20 -=- 20 - Ben Cramer - The Last Waltz.flac -=- CDDA (100%)
Сводка 95,15% CDDA
267469972
Мы помогаем людям, чтобы они, в свою очередь, помогли нам; таким образом, наши услуги сводятся просто к благодеяниям, которые мы загодя оказываем самим себе. (Франсуа де Ларошфуко)
Download / Скачать

Хотите скачать бесплатно? Зарегистрируйтесь на сайте (ссылка на регистрацию). Pirat.ca - самый быстрый торрент трекер в рунете!

Как скачивать  ·   Что такое торрент  ·   Рейтинг и ограничения

Показать сообщения:    
Ответить на тему

Текущее время: Сегодня 21:14

Часовой пояс: GMT + 4



Вы не можете начинать темы
Вы не можете отвечать на сообщения
Вы не можете редактировать свои сообщения
Вы не можете удалять свои сообщения
Вы не можете голосовать в опросах
Вы не можете прикреплять файлы к сообщениям
Вы не можете скачивать файлы

▼ Вниз