Уважаемый Гость!
Вы можете поддержать проект и зарегистрироваться у наших партнеров - онлайн-стратегия MyLands. При регистрации в игре Вы получите код, который сможете активировать после регистрации на pirat.ca и получить 1000 дублонов.

Ваш код:
a573f8e87940149b313a01c1976449cc92aefe50
 
     

(Instrumental) В ритме танца - Счастливы вместе (РД) (3CD), FLAC (tracks+cue) - 2011, lossless

Ответить на тему
 
Автор
Сообщение

Пост 27-Мар-2012 18:15

[Q] 

CHARLI2236

В ритме танца - Счастливы вместе (РД) (3CD)
Год выпуска альбома: 2011
Страна: Россия
Жанр: Instrumental
Лейбл издания: ИД Ридерз Дайджест
Продолжительность: 3:06:02
Формат: FLAC
Битрейт аудио: lossless
Тип рипа: tracks+.cue
Источник (релизер): диск CDDA
Наличие сканов в содержимом раздачи: да
Трэклист
01 - Stanley Sokol and the Polkateers - Happy Days Are Here Again. (2:57)
02 - The Gaslight Novelty Orchestra and Singers - Can Can-Ta-Ra-Ra Boom-De-Re. (2:08)
03 - The Piras - Circus Renz. (2:23)
04 - The Accordeonicas - Dance Little Bird. (2:36)
05 - Peter James and his Orchestra - Letkiss (Jenkka). (2:16)
06 - Arthur Greenslade and his Orchestra - Casatchok (Life Is A Dance). (2:33)
07 - Mariachi Nuevo Jalisco - Mexican Hat Dance (Jarabe Tapatнo). (2:35)
08 - Steve Kendall, his Accordion and Orchestra - Canadian Barn Dance- Inveresk House-Castle In The Air. (3:15)
09 - The Piras - A La Espagnola. (1:51)
10 - Tony Palermo and his Orchestra - Sicilian Tarantella. (2:24)
11 - Jan Timmers and his Orchestra - The Faithful Hussar (Der treue Husar). (3:04)
12 - Ken Thorne and his Orchestra - Meet Me In St. Louis. (2:32)
13 - Jacques Ferchit, his Accordion and Orchestra - Cancan Parisien. (2:28)
14 - Stella Moray - Oom-Pah-Pah. (2:38)
15 - Reg Owen and his Orchestra - The Village Band. (3:26)
16 - Ken Barrie - Wonderful Copenhagen. (2:27)
17 - Georg Pommer and his Orchestra - Tarantella Musica. (2:56)
18 - Luiz Rodriguez and his Orchestra - Tipitipitipso. (2:43)
19 - Tommy Blaize - Cocoanut Woman. (2:38)
20 - Honorй Bienvenu and his Orchestra - C'est bon pour le moral. (3:50)
21 - Anita Harris - The Clapping Song. (2:47)
22 - The Champs - Tequila. (2:13)
23 - Andrй Brassseur, his Organ and Orchestra - Rocking Goose. (1:58)
24 - Sha Na Na - Witch Doctor. (2:22)
”Отчет ЕАС”
Отчёт EAC об извлечении, выполненном 25. марта 2012, 0:29 для диска:
Various / В ритме танца - Счастье есть
Дисковод: TSSTcorpCDDVDW SH-222AB Adapter: 0 ID: 0
Режим чтения: Достоверный (C2: нет, Точный поток: да, Отключение кэша: да)
Коррекция смещения при чтении: 6
Способность читать области Lead-in и Lead-out : Нет
Выходной формат: C:\Program Files (x86)\FLAC\flac.exe (Пользовательский кодировщик)
128 kBit/s
Дополнительные параметры: -8 -V -T "ARTIST=%a" -T "TITLE=%t" -T "ALBUM=%g" -T "DATE=%y" -T "TRACKNUMBER=%n" -T "GENRE=%m" -T "COMMENT=EAC FLAC -8" %s
Другие параметры:
Заполнение пропущенных сэмплов тишиной : Да
Удаление блоков с тишиной в начале и конце : Нет
Встроенный Win32-интерфейс для Win NT/2000
Трек 1
Имя файла C:\Sergei\новая папка\01 - Stanley Sokol and the Polkateers - Happy Days Are Here Again.wav
Длина предзазора 0:00:02.00
Пиковый уровень 99.5 %
Качество трека 100.0 %
CRC теста 2078E5C6
CRC копии 2078E5C6
Копирование... OK
Трек 2
Имя файла C:\Sergei\новая папка\02 - The Gaslight Novelty Orchestra and Singers - Can Can-Ta-Ra-Ra Boom-De-Re.wav
Длина предзазора 0:00:01.80
Пиковый уровень 99.5 %
Качество трека 100.0 %
CRC теста 99173113
CRC копии 99173113
Копирование... OK
Трек 3
Имя файла C:\Sergei\новая папка\03 - The Piras - Circus Renz.wav
Длина предзазора 0:00:01.80
Пиковый уровень 99.2 %
Качество трека 100.0 %
CRC теста C244DCB5
CRC копии C244DCB5
Копирование... OK
Трек 4
Имя файла C:\Sergei\новая папка\04 - The Accordeonicas - Dance Little Bird.wav
Длина предзазора 0:00:01.80
Пиковый уровень 91.8 %
Качество трека 100.0 %
CRC теста 58F6CD37
CRC копии 58F6CD37
Копирование... OK
Трек 5
Имя файла C:\Sergei\новая папка\05 - Peter James and his Orchestra - Letkiss (Jenkka).wav
Длина предзазора 0:00:01.80
Пиковый уровень 99.5 %
Качество трека 100.0 %
CRC теста 7ECCBF28
CRC копии 7ECCBF28
Копирование... OK
Трек 6
Имя файла C:\Sergei\новая папка\06 - Arthur Greenslade and his Orchestra - Casatchok (Life Is A Dance).wav
Длина предзазора 0:00:01.80
Пиковый уровень 99.5 %
Качество трека 100.0 %
CRC теста D0E09EF3
CRC копии D0E09EF3
Копирование... OK
Трек 7
Имя файла C:\Sergei\новая папка\07 - Mariachi Nuevo Jalisco - Mexican Hat Dance (Jarabe Tapatнo).wav
Длина предзазора 0:00:01.80
Пиковый уровень 77.3 %
Качество трека 99.9 %
CRC теста D031468C
CRC копии D031468C
Копирование... OK
Трек 8
Имя файла C:\Sergei\новая папка\08 - Steve Kendall, his Accordion and Orchestra - Canadian Barn Dance- Inveresk House-Castle In The Air.wav
Длина предзазора 0:00:01.80
Пиковый уровень 99.1 %
Качество трека 100.0 %
CRC теста 795404F5
CRC копии 795404F5
Копирование... OK
Трек 9
Имя файла C:\Sergei\новая папка\09 - The Piras - A La Espagnola.wav
Длина предзазора 0:00:01.80
Пиковый уровень 91.6 %
Качество трека 100.0 %
CRC теста 803E108A
CRC копии 803E108A
Копирование... OK
Трек 10
Имя файла C:\Sergei\новая папка\10 - Tony Palermo and his Orchestra - Sicilian Tarantella.wav
Длина предзазора 0:00:01.80
Пиковый уровень 99.5 %
Качество трека 100.0 %
CRC теста BA47D5A7
CRC копии BA47D5A7
Копирование... OK
Трек 11
Имя файла C:\Sergei\новая папка\11 - Jan Timmers and his Orchestra - The Faithful Hussar (Der treue Husar).wav
Длина предзазора 0:00:01.80
Пиковый уровень 85.8 %
Качество трека 100.0 %
CRC теста ED709828
CRC копии ED709828
Копирование... OK
Трек 12
Имя файла C:\Sergei\новая папка\12 - Ken Thorne and his Orchestra - Meet Me In St. Louis.wav
Длина предзазора 0:00:01.80
Пиковый уровень 99.5 %
Качество трека 100.0 %
CRC теста BA25C3A6
CRC копии BA25C3A6
Копирование... OK
Трек 13
Имя файла C:\Sergei\новая папка\13 - Jacques Ferchit, his Accordion and Orchestra - Cancan Parisien.wav
Длина предзазора 0:00:01.80
Пиковый уровень 99.5 %
Качество трека 100.0 %
CRC теста 3DF3E997
CRC копии 3DF3E997
Копирование... OK
Трек 14
Имя файла C:\Sergei\новая папка\14 - Stella Moray - Oom-Pah-Pah.wav
Длина предзазора 0:00:01.80
Пиковый уровень 99.5 %
Качество трека 100.0 %
CRC теста BFC668E0
CRC копии BFC668E0
Копирование... OK
Трек 15
Имя файла C:\Sergei\новая папка\15 - Reg Owen and his Orchestra - The Village Band.wav
Длина предзазора 0:00:01.80
Пиковый уровень 99.5 %
Качество трека 100.0 %
CRC теста 58A1C4A6
CRC копии 58A1C4A6
Копирование... OK
Трек 16
Имя файла C:\Sergei\новая папка\16 - Ken Barrie - Wonderful Copenhagen.wav
Длина предзазора 0:00:01.80
Пиковый уровень 99.5 %
Качество трека 100.0 %
CRC теста FFE03A47
CRC копии FFE03A47
Копирование... OK
Трек 17
Имя файла C:\Sergei\новая папка\17 - Georg Pommer and his Orchestra - Tarantella Musica.wav
Длина предзазора 0:00:01.80
Пиковый уровень 99.5 %
Качество трека 99.9 %
CRC теста 72BB214A
CRC копии 72BB214A
Копирование... OK
Трек 18
Имя файла C:\Sergei\новая папка\18 - Luiz Rodriguez and his Orchestra - Tipitipitipso.wav
Длина предзазора 0:00:01.80
Пиковый уровень 68.1 %
Качество трека 100.0 %
CRC теста 2DA97186
CRC копии 2DA97186
Копирование... OK
Трек 19
Имя файла C:\Sergei\новая папка\19 - Tommy Blaize - Cocoanut Woman.wav
Длина предзазора 0:00:01.80
Пиковый уровень 76.2 %
Качество трека 99.9 %
CRC теста 9F7DE7B7
CRC копии 9F7DE7B7
Копирование... OK
Трек 20
Имя файла C:\Sergei\новая папка\20 - Honorй Bienvenu and his Orchestra - C'est bon pour le moral.wav
Длина предзазора 0:00:01.80
Пиковый уровень 98.7 %
Качество трека 100.0 %
CRC теста 13E63DA7
CRC копии 13E63DA7
Копирование... OK
Трек 21
Имя файла C:\Sergei\новая папка\21 - Anita Harris - The Clapping Song.wav
Длина предзазора 0:00:01.80
Пиковый уровень 83.2 %
Качество трека 100.0 %
CRC теста 0146A2F5
CRC копии 0146A2F5
Копирование... OK
Трек 22
Имя файла C:\Sergei\новая папка\22 - The Champs - Tequila.wav
Длина предзазора 0:00:01.80
Пиковый уровень 99.4 %
Качество трека 99.9 %
CRC теста 1C17504B
CRC копии 1C17504B
Копирование... OK
Трек 23
Имя файла C:\Sergei\новая папка\23 - Andrй Brassseur, his Organ and Orchestra - Rocking Goose.wav
Длина предзазора 0:00:01.80
Пиковый уровень 99.2 %
Качество трека 100.0 %
CRC теста E30120F7
CRC копии E30120F7
Копирование... OK
Трек 24
Имя файла C:\Sergei\новая папка\24 - Sha Na Na - Witch Doctor.wav
Длина предзазора 0:00:01.80
Пиковый уровень 93.7 %
Качество трека 100.0 %
CRC теста 5EED4107
CRC копии 5EED4107
Копирование... OK
Ошибок не произошло
Конец отчёта
"Non-compilant CUE"
REM GENRE Instrumental
REM DATE 2011
REM DISCID 410ED118
REM COMMENT "ExactAudioCopy v0.95b3"
PERFORMER "Various"
TITLE "В ритме танца - Счастье есть"
FILE "01 - Stanley Sokol and the Polkateers - Happy Days Are Here Again.wav" WAVE
TRACK 01 AUDIO
TITLE "Happy Days Are Here Again"
PERFORMER "Stanley Sokol and the Polkateers"
INDEX 01 00:00:00
TRACK 02 AUDIO
TITLE "Can Can\Ta-Ra-Ra Boom-De-Re"
PERFORMER "The Gaslight Novelty Orchestra and Singers"
INDEX 00 02:55:68
FILE "02 - The Gaslight Novelty Orchestra and Singers - Can Can-Ta-Ra-Ra Boom-De-Re.wav" WAVE
INDEX 01 00:00:00
TRACK 03 AUDIO
TITLE "Circus Renz"
PERFORMER "The Piras"
INDEX 00 02:06:48
FILE "03 - The Piras - Circus Renz.wav" WAVE
INDEX 01 00:00:00
TRACK 04 AUDIO
TITLE "Dance Little Bird"
PERFORMER "The Accordeonicas"
INDEX 00 02:21:39
FILE "04 - The Accordeonicas - Dance Little Bird.wav" WAVE
INDEX 01 00:00:00
TRACK 05 AUDIO
TITLE "Letkiss (Jenkka)"
PERFORMER "Peter James and his Orchestra"
INDEX 00 02:35:04
FILE "05 - Peter James and his Orchestra - Letkiss (Jenkka).wav" WAVE
INDEX 01 00:00:00
TRACK 06 AUDIO
TITLE "Casatchok (Life Is A Dance)"
PERFORMER "Arthur Greenslade and his Orchestra"
INDEX 00 02:15:05
FILE "06 - Arthur Greenslade and his Orchestra - Casatchok (Life Is A Dance).wav" WAVE
INDEX 01 00:00:00
TRACK 07 AUDIO
TITLE "Mexican Hat Dance (Jarabe Tapatнo)"
PERFORMER "Mariachi Nuevo Jalisco"
INDEX 00 02:31:57
FILE "07 - Mariachi Nuevo Jalisco - Mexican Hat Dance (Jarabe Tapatнo).wav" WAVE
INDEX 01 00:00:00
TRACK 08 AUDIO
TITLE "Canadian Barn Dance: Inveresk House\Castle In The Air"
PERFORMER "Steve Kendall, his Accordion and Orchestra"
INDEX 00 02:33:18
FILE "08 - Steve Kendall, his Accordion and Orchestra - Canadian Barn Dance- Inveresk House-Castle In The Air.wav" WAVE
INDEX 01 00:00:00
TRACK 09 AUDIO
TITLE "A La Espagnola"
PERFORMER "The Piras"
INDEX 00 03:13:69
FILE "09 - The Piras - A La Espagnola.wav" WAVE
INDEX 01 00:00:00
TRACK 10 AUDIO
TITLE "Sicilian Tarantella"
PERFORMER "Tony Palermo and his Orchestra"
INDEX 00 01:49:21
FILE "10 - Tony Palermo and his Orchestra - Sicilian Tarantella.wav" WAVE
INDEX 01 00:00:00
TRACK 11 AUDIO
TITLE "The Faithful Hussar (Der treue Husar)"
PERFORMER "Jan Timmers and his Orchestra"
INDEX 00 02:23:13
FILE "11 - Jan Timmers and his Orchestra - The Faithful Hussar (Der treue Husar).wav" WAVE
INDEX 01 00:00:00
TRACK 12 AUDIO
TITLE "Meet Me In St. Louis"
PERFORMER "Ken Thorne and his Orchestra"
INDEX 00 03:03:00
FILE "12 - Ken Thorne and his Orchestra - Meet Me In St. Louis.wav" WAVE
INDEX 01 00:00:00
TRACK 13 AUDIO
TITLE "Cancan Parisien"
PERFORMER "Jacques Ferchit, his Accordion and Orchestra"
INDEX 00 02:31:12
FILE "13 - Jacques Ferchit, his Accordion and Orchestra - Cancan Parisien.wav" WAVE
INDEX 01 00:00:00
TRACK 14 AUDIO
TITLE "Oom-Pah-Pah"
PERFORMER "Stella Moray"
INDEX 00 02:26:54
FILE "14 - Stella Moray - Oom-Pah-Pah.wav" WAVE
INDEX 01 00:00:00
TRACK 15 AUDIO
TITLE "The Village Band"
PERFORMER "Reg Owen and his Orchestra"
INDEX 00 02:36:65
FILE "15 - Reg Owen and his Orchestra - The Village Band.wav" WAVE
INDEX 01 00:00:00
TRACK 16 AUDIO
TITLE "Wonderful Copenhagen"
PERFORMER "Ken Barrie"
INDEX 00 03:24:46
FILE "16 - Ken Barrie - Wonderful Copenhagen.wav" WAVE
INDEX 01 00:00:00
TRACK 17 AUDIO
TITLE "Tarantella Musica"
PERFORMER "Georg Pommer and his Orchestra"
INDEX 00 02:25:52
FILE "17 - Georg Pommer and his Orchestra - Tarantella Musica.wav" WAVE
INDEX 01 00:00:00
TRACK 18 AUDIO
TITLE "Tipitipitipso"
PERFORMER "Luiz Rodriguez and his Orchestra"
INDEX 00 02:54:64
FILE "18 - Luiz Rodriguez and his Orchestra - Tipitipitipso.wav" WAVE
INDEX 01 00:00:00
TRACK 19 AUDIO
TITLE "Cocoanut Woman"
PERFORMER "Tommy Blaize"
INDEX 00 02:42:09
FILE "19 - Tommy Blaize - Cocoanut Woman.wav" WAVE
INDEX 01 00:00:00
TRACK 20 AUDIO
TITLE "C'est bon pour le moral"
PERFORMER "Honorй Bienvenu and his Orchestra"
INDEX 00 02:36:42
FILE "20 - Honorй Bienvenu and his Orchestra - C'est bon pour le moral.wav" WAVE
INDEX 01 00:00:00
TRACK 21 AUDIO
TITLE "The Clapping Song"
PERFORMER "Anita Harris"
INDEX 00 03:48:34
FILE "21 - Anita Harris - The Clapping Song.wav" WAVE
INDEX 01 00:00:00
TRACK 22 AUDIO
TITLE "Tequila"
PERFORMER "The Champs"
INDEX 00 02:45:48
FILE "22 - The Champs - Tequila.wav" WAVE
INDEX 01 00:00:00
TRACK 23 AUDIO
TITLE "Rocking Goose"
PERFORMER "Andrй Brassseur, his Organ and Orchestra"
INDEX 00 02:12:01
FILE "23 - Andrй Brassseur, his Organ and Orchestra - Rocking Goose.wav" WAVE
INDEX 01 00:00:00
TRACK 24 AUDIO
TITLE "Witch Doctor"
PERFORMER "Sha Na Na"
INDEX 00 01:56:36
FILE "24 - Sha Na Na - Witch Doctor.wav" WAVE
INDEX 01 00:00:00
"Лог Audiochecker"
AUDIOCHECKER v2.0 beta (build 457) - by Dester - [email protected]
~~~~~~~~~~~~~~~~~~~~~~~~~~~~~~~~~~
-=== НЕ РЕДАКТИРУЙТЕ ЭТОТ ФАЙЛ! ===-
Путь: ...\Счастье есть
01 -=- 01 - Stanley Sokol and the Polkateers - Happy Days Are Here Again.flac -=- CDDA (99%)
02 -=- 02 - The Gaslight Novelty Orchestra and Singers - Can Can-Ta-Ra-Ra Boom-De-Re.flac -=- CDDA (100%)
03 -=- 03 - The Piras - Circus Renz.flac -=- CDDA (100%)
04 -=- 04 - The Accordeonicas - Dance Little Bird.flac -=- CDDA (100%)
05 -=- 05 - Peter James and his Orchestra - Letkiss (Jenkka).flac -=- CDDA (100%)
06 -=- 06 - Arthur Greenslade and his Orchestra - Casatchok (Life Is A Dance).flac -=- CDDA (100%)
07 -=- 07 - Mariachi Nuevo Jalisco - Mexican Hat Dance (Jarabe Tapatнo).flac -=- CDDA (100%)
08 -=- 08 - Steve Kendall, his Accordion and Orchestra - Canadian Barn Dance- Inveresk House-Castle In The Air.flac -=- CDDA (100%)
09 -=- 09 - The Piras - A La Espagnola.flac -=- CDDA (100%)
10 -=- 10 - Tony Palermo and his Orchestra - Sicilian Tarantella.flac -=- CDDA (100%)
11 -=- 11 - Jan Timmers and his Orchestra - The Faithful Hussar (Der treue Husar).flac -=- CDDA (85%)
12 -=- 12 - Ken Thorne and his Orchestra - Meet Me In St. Louis.flac -=- CDDA (99%)
13 -=- 13 - Jacques Ferchit, his Accordion and Orchestra - Cancan Parisien.flac -=- MPEG (73%)
14 -=- 14 - Stella Moray - Oom-Pah-Pah.flac -=- CDDA (99%)
15 -=- 15 - Reg Owen and his Orchestra - The Village Band.flac -=- CDDA (99%)
16 -=- 16 - Ken Barrie - Wonderful Copenhagen.flac -=- CDDA (100%)
17 -=- 17 - Georg Pommer and his Orchestra - Tarantella Musica.flac -=- CDDA (99%)
18 -=- 18 - Luiz Rodriguez and his Orchestra - Tipitipitipso.flac -=- CDDA (100%)
19 -=- 19 - Tommy Blaize - Cocoanut Woman.flac -=- CDDA (100%)
20 -=- 20 - Honorй Bienvenu and his Orchestra - C'est bon pour le moral.flac -=- CDDA (100%)
21 -=- 21 - Anita Harris - The Clapping Song.flac -=- CDDA (100%)
22 -=- 22 - The Champs - Tequila.flac -=- CDDA (100%)
23 -=- 23 - Andrй Brassseur, his Organ and Orchestra - Rocking Goose.flac -=- CDDA (99%)
24 -=- 24 - Sha Na Na - Witch Doctor.flac -=- CDDA (100%)
Сводка 96,08% CDDA
111166148
Трэклист
01 - Bob Wilson and his Varsity Rhythm Boys - The Charleston. (2:25)
02 - The Clare Sisters with Bob Mandell and his Wolverines - Tiger Rag. (2:29)
03 - Robert Mandell and his Orchestra - Boogie Woogie. (2:38)
04 - Harry James and his Orchestra - Opus One. (2:20)
05 - Claude Blouin and his Orchestra - Flying Home. (2:56)
06 - Bob Crosby and his Orchestra - Thoroughly Modern Millie. (2:35)
07 - Rosemary Clooney - We're In The Money. (2:49)
08 - Jimmy Dorsey and his Orchestra-The Arthur Malvin Singers - A June Night (And You). (2:10)
09 - Claude Blouin and his Orchestra - I'm Beginning To See The Light. (3:08)
10 - Bob Crosby and his Orchestra, featuring The Bobcats - Ballin' The Jack. (2:58)
11 - Claude Blouin and his Orchestra - Don't Be That Way. (2:52)
12 - Harry James and his Orchestra - Back Beat Boogie. (2:34)
13 - Bob Crosby and his Orchestra - Mame. (3:03)
14 - Kenny Ball and his Jazzmen - Margie. (2:45)
15 - Bob Wilson and his Varsity Rhythm Boys - Broadway Rag. (2:45)
16 - Oakey Melville - Yes Sir, That's My Baby. (2:23)
17 - The Pasadena Roof Orchestra - You're The Cream In My Coffee. (2:55)
18 - Bob Wilson and his Varsity Rhythm Boys - Way Down Yonder In New Orleans. (2:10)
19 - Kenny Ball and Bob Wallis - Beale Street Blues. (2:00)
20 - The Pasadena Roof Orchestra & Singers - Varsity Drag. (3:04)
21 - The Blue Bells - The Sheik Of Araby. (2:32)
22 - Tommy Blaize - I Wan'na Be Like You. (2:56)
”Отчет ЕАС”
Отчёт EAC об извлечении, выполненном 25. марта 2012, 1:22 для диска:
Various / В ритме танца - Тет-а-тет
Дисковод: TSSTcorpCDDVDW SH-222AB Adapter: 0 ID: 0
Режим чтения: Достоверный (C2: нет, Точный поток: да, Отключение кэша: да)
Коррекция смещения при чтении: 6
Способность читать области Lead-in и Lead-out : Нет
Выходной формат: C:\Program Files (x86)\FLAC\flac.exe (Пользовательский кодировщик)
128 kBit/s
Дополнительные параметры: -8 -V -T "ARTIST=%a" -T "TITLE=%t" -T "ALBUM=%g" -T "DATE=%y" -T "TRACKNUMBER=%n" -T "GENRE=%m" -T "COMMENT=EAC FLAC -8" %s
Другие параметры:
Заполнение пропущенных сэмплов тишиной : Да
Удаление блоков с тишиной в начале и конце : Нет
Встроенный Win32-интерфейс для Win NT/2000
Трек 1
Имя файла C:\Sergei\новая папка\01 - Bob Wilson and his Varsity Rhythm Boys - The Charleston.wav
Длина предзазора 0:00:02.00
Пиковый уровень 99.5 %
Качество трека 100.0 %
CRC теста 4D1BD455
CRC копии 4D1BD455
Копирование... OK
Трек 2
Имя файла C:\Sergei\новая папка\02 - The Clare Sisters with Bob Mandell and his Wolverines - Tiger Rag.wav
Длина предзазора 0:00:01.80
Пиковый уровень 91.7 %
Качество трека 100.0 %
CRC теста B9B5BC75
CRC копии B9B5BC75
Копирование... OK
Трек 3
Имя файла C:\Sergei\новая папка\03 - Robert Mandell and his Orchestra - Boogie Woogie.wav
Длина предзазора 0:00:01.80
Пиковый уровень 99.5 %
Качество трека 99.9 %
CRC теста EF3C7252
CRC копии EF3C7252
Копирование... OK
Трек 4
Имя файла C:\Sergei\новая папка\04 - Harry James and his Orchestra - Opus One.wav
Длина предзазора 0:00:01.80
Пиковый уровень 84.1 %
Качество трека 100.0 %
CRC теста 7B3899E6
CRC копии 7B3899E6
Копирование... OK
Трек 5
Имя файла C:\Sergei\новая папка\05 - Claude Blouin and his Orchestra - Flying Home.wav
Длина предзазора 0:00:01.80
Пиковый уровень 99.2 %
Качество трека 99.9 %
CRC теста E054EC5B
CRC копии E054EC5B
Копирование... OK
Трек 6
Имя файла C:\Sergei\новая папка\06 - Bob Crosby and his Orchestra - Thoroughly Modern Millie.wav
Длина предзазора 0:00:01.80
Пиковый уровень 94.7 %
Качество трека 99.9 %
CRC теста 965B5A52
CRC копии 965B5A52
Копирование... OK
Трек 7
Имя файла C:\Sergei\новая папка\07 - Rosemary Clooney - We're In The Money.wav
Длина предзазора 0:00:01.80
Пиковый уровень 98.7 %
Качество трека 100.0 %
CRC теста 7B1844EE
CRC копии 7B1844EE
Копирование... OK
Трек 8
Имя файла C:\Sergei\новая папка\08 - Jimmy Dorsey and his Orchestra-The Arthur Malvin Singers - A June Night (And You).wav
Длина предзазора 0:00:01.80
Пиковый уровень 88.1 %
Качество трека 100.0 %
CRC теста 849A95D7
CRC копии 849A95D7
Копирование... OK
Трек 9
Имя файла C:\Sergei\новая папка\09 - Claude Blouin and his Orchestra - I'm Beginning To See The Light.wav
Длина предзазора 0:00:01.80
Пиковый уровень 98.9 %
Качество трека 100.0 %
CRC теста 62B2EEFB
CRC копии 62B2EEFB
Копирование... OK
Трек 10
Имя файла C:\Sergei\новая папка\10 - Bob Crosby and his Orchestra, featuring The Bobcats - Ballin' The Jack.wav
Длина предзазора 0:00:01.80
Пиковый уровень 92.0 %
Качество трека 100.0 %
CRC теста 98CB2A94
CRC копии 98CB2A94
Копирование... OK
Трек 11
Имя файла C:\Sergei\новая папка\11 - Claude Blouin and his Orchestra - Don't Be That Way.wav
Длина предзазора 0:00:01.80
Пиковый уровень 99.0 %
Качество трека 100.0 %
CRC теста 94968EC5
CRC копии 94968EC5
Копирование... OK
Трек 12
Имя файла C:\Sergei\новая папка\12 - Harry James and his Orchestra - Back Beat Boogie.wav
Длина предзазора 0:00:01.80
Пиковый уровень 99.0 %
Качество трека 100.0 %
CRC теста 261DC327
CRC копии 261DC327
Копирование... OK
Трек 13
Имя файла C:\Sergei\новая папка\13 - Bob Crosby and his Orchestra - Mame.wav
Длина предзазора 0:00:01.80
Пиковый уровень 99.4 %
Качество трека 100.0 %
CRC теста B80F6C3E
CRC копии B80F6C3E
Копирование... OK
Трек 14
Имя файла C:\Sergei\новая папка\14 - Kenny Ball and his Jazzmen - Margie.wav
Длина предзазора 0:00:01.80
Пиковый уровень 99.4 %
Качество трека 100.0 %
CRC теста CCB048BC
CRC копии CCB048BC
Копирование... OK
Трек 15
Имя файла C:\Sergei\новая папка\15 - Bob Wilson and his Varsity Rhythm Boys - Broadway Rag.wav
Длина предзазора 0:00:01.80
Пиковый уровень 98.7 %
Качество трека 100.0 %
CRC теста 9AD882E0
CRC копии 9AD882E0
Копирование... OK
Трек 16
Имя файла C:\Sergei\новая папка\16 - Oakey Melville - Yes Sir, That's My Baby.wav
Длина предзазора 0:00:01.80
Пиковый уровень 93.8 %
Качество трека 100.0 %
CRC теста E28F1080
CRC копии E28F1080
Копирование... OK
Трек 17
Имя файла C:\Sergei\новая папка\17 - The Pasadena Roof Orchestra - You're The Cream In My Coffee.wav
Длина предзазора 0:00:01.80
Пиковый уровень 90.1 %
Качество трека 100.0 %
CRC теста A014A62B
CRC копии A014A62B
Копирование... OK
Трек 18
Имя файла C:\Sergei\новая папка\18 - Bob Wilson and his Varsity Rhythm Boys - Way Down Yonder In New Orleans.wav
Длина предзазора 0:00:01.80
Пиковый уровень 99.5 %
Качество трека 100.0 %
CRC теста 4566DB24
CRC копии 4566DB24
Копирование... OK
Трек 19
Имя файла C:\Sergei\новая папка\19 - Kenny Ball and Bob Wallis - Beale Street Blues.wav
Длина предзазора 0:00:01.80
Пиковый уровень 99.5 %
Качество трека 100.0 %
CRC теста 650C81A4
CRC копии 650C81A4
Копирование... OK
Трек 20
Имя файла C:\Sergei\новая папка\20 - The Pasadena Roof Orchestra & Singers - Varsity Drag.wav
Длина предзазора 0:00:01.80
Пиковый уровень 99.4 %
Качество трека 99.9 %
CRC теста 7B2BE6CB
CRC копии 7B2BE6CB
Копирование... OK
Трек 21
Имя файла C:\Sergei\новая папка\21 - The Blue Bells - The Sheik Of Araby.wav
Длина предзазора 0:00:01.80
Пиковый уровень 71.8 %
Качество трека 100.0 %
CRC теста 4CCFCBBA
CRC копии 4CCFCBBA
Копирование... OK
Трек 22
Имя файла C:\Sergei\новая папка\22 - Tommy Blaize - I Wan'na Be Like You.wav
Длина предзазора 0:00:01.80
Пиковый уровень 79.1 %
Качество трека 100.0 %
CRC теста 97F5C153
CRC копии 97F5C153
Копирование... OK
Ошибок не произошло
Конец отчёта
"Non-compilant CUE"
REM GENRE Instrumental
REM DATE 2011
REM DISCID 5A0DBF16
REM COMMENT "ExactAudioCopy v0.95b3"
PERFORMER "Various"
TITLE "В ритме танца - Тет-а-тет"
FILE "01 - Bob Wilson and his Varsity Rhythm Boys - The Charleston.wav" WAVE
TRACK 01 AUDIO
TITLE "The Charleston"
PERFORMER "Bob Wilson and his Varsity Rhythm Boys"
INDEX 01 00:00:00
TRACK 02 AUDIO
TITLE "Tiger Rag"
PERFORMER "The Clare Sisters with Bob Mandell and his Wolverines"
INDEX 00 02:24:02
FILE "02 - The Clare Sisters with Bob Mandell and his Wolverines - Tiger Rag.wav" WAVE
INDEX 01 00:00:00
TRACK 03 AUDIO
TITLE "Boogie Woogie"
PERFORMER "Robert Mandell and his Orchestra"
INDEX 00 02:27:56
FILE "03 - Robert Mandell and his Orchestra - Boogie Woogie.wav" WAVE
INDEX 01 00:00:00
TRACK 04 AUDIO
TITLE "Opus One"
PERFORMER "Harry James and his Orchestra"
INDEX 00 02:36:67
FILE "04 - Harry James and his Orchestra - Opus One.wav" WAVE
INDEX 01 00:00:00
TRACK 05 AUDIO
TITLE "Flying Home"
PERFORMER "Claude Blouin and his Orchestra"
INDEX 00 02:18:32
FILE "05 - Claude Blouin and his Orchestra - Flying Home.wav" WAVE
INDEX 01 00:00:00
TRACK 06 AUDIO
TITLE "Thoroughly Modern Millie"
PERFORMER "Bob Crosby and his Orchestra"
INDEX 00 02:54:63
FILE "06 - Bob Crosby and his Orchestra - Thoroughly Modern Millie.wav" WAVE
INDEX 01 00:00:00
TRACK 07 AUDIO
TITLE "We're In The Money "
PERFORMER "Rosemary Clooney"
INDEX 00 02:33:67
FILE "07 - Rosemary Clooney - We're In The Money.wav" WAVE
INDEX 01 00:00:00
TRACK 08 AUDIO
TITLE "A June Night (And You)"
PERFORMER "Jimmy Dorsey and his Orchestra\The Arthur Malvin Singers"
INDEX 00 02:47:58
FILE "08 - Jimmy Dorsey and his Orchestra-The Arthur Malvin Singers - A June Night (And You).wav" WAVE
INDEX 01 00:00:00
TRACK 09 AUDIO
TITLE "I'm Beginning To See The Light"
PERFORMER "Claude Blouin and his Orchestra"
INDEX 00 02:08:42
FILE "09 - Claude Blouin and his Orchestra - I'm Beginning To See The Light.wav" WAVE
INDEX 01 00:00:00
TRACK 10 AUDIO
TITLE "Ballin' The Jack"
PERFORMER "Bob Crosby and his Orchestra, featuring The Bobcats"
INDEX 00 03:07:03
FILE "10 - Bob Crosby and his Orchestra, featuring The Bobcats - Ballin' The Jack.wav" WAVE
INDEX 01 00:00:00
TRACK 11 AUDIO
TITLE "Don't Be That Way"
PERFORMER "Claude Blouin and his Orchestra"
INDEX 00 02:56:72
FILE "11 - Claude Blouin and his Orchestra - Don't Be That Way.wav" WAVE
INDEX 01 00:00:00
TRACK 12 AUDIO
TITLE "Back Beat Boogie"
PERFORMER "Harry James and his Orchestra"
INDEX 00 02:51:01
FILE "12 - Harry James and his Orchestra - Back Beat Boogie.wav" WAVE
INDEX 01 00:00:00
TRACK 13 AUDIO
TITLE "Mame"
PERFORMER "Bob Crosby and his Orchestra"
INDEX 00 02:32:35
FILE "13 - Bob Crosby and his Orchestra - Mame.wav" WAVE
INDEX 01 00:00:00
TRACK 14 AUDIO
TITLE "Margie"
PERFORMER "Kenny Ball and his Jazzmen"
INDEX 00 03:01:27
FILE "14 - Kenny Ball and his Jazzmen - Margie.wav" WAVE
INDEX 01 00:00:00
TRACK 15 AUDIO
TITLE "Broadway Rag"
PERFORMER "Bob Wilson and his Varsity Rhythm Boys"
INDEX 00 02:44:03
FILE "15 - Bob Wilson and his Varsity Rhythm Boys - Broadway Rag.wav" WAVE
INDEX 01 00:00:00
TRACK 16 AUDIO
TITLE "Yes Sir, That's My Baby"
PERFORMER "Oakey Melville"
INDEX 00 02:43:52
FILE "16 - Oakey Melville - Yes Sir, That's My Baby.wav" WAVE
INDEX 01 00:00:00
TRACK 17 AUDIO
TITLE "You're The Cream In My Coffee"
PERFORMER "The Pasadena Roof Orchestra"
INDEX 00 02:21:59
FILE "17 - The Pasadena Roof Orchestra - You're The Cream In My Coffee.wav" WAVE
INDEX 01 00:00:00
TRACK 18 AUDIO
TITLE "Way Down Yonder In New Orleans"
PERFORMER "Bob Wilson and his Varsity Rhythm Boys"
INDEX 00 02:54:03
FILE "18 - Bob Wilson and his Varsity Rhythm Boys - Way Down Yonder In New Orleans.wav" WAVE
INDEX 01 00:00:00
TRACK 19 AUDIO
TITLE "Beale Street Blues"
PERFORMER "Kenny Ball and Bob Wallis"
INDEX 00 02:08:61
FILE "19 - Kenny Ball and Bob Wallis - Beale Street Blues.wav" WAVE
INDEX 01 00:00:00
TRACK 20 AUDIO
TITLE "Varsity Drag"
PERFORMER "The Pasadena Roof Orchestra & Singers"
INDEX 00 01:58:42
FILE "20 - The Pasadena Roof Orchestra & Singers - Varsity Drag.wav" WAVE
INDEX 01 00:00:00
TRACK 21 AUDIO
TITLE "The Sheik Of Araby"
PERFORMER "The Blue Bells"
INDEX 00 03:02:59
FILE "21 - The Blue Bells - The Sheik Of Araby.wav" WAVE
INDEX 01 00:00:00
TRACK 22 AUDIO
TITLE "I Wan'na Be Like You"
PERFORMER "Tommy Blaize"
INDEX 00 02:30:66
FILE "22 - Tommy Blaize - I Wan'na Be Like You.wav" WAVE
INDEX 01 00:00:00
"Лог Audiochecker"
AUDIOCHECKER v2.0 beta (build 457) - by Dester - [email protected]
~~~~~~~~~~~~~~~~~~~~~~~~~~~~~~~~~~
-=== НЕ РЕДАКТИРУЙТЕ ЭТОТ ФАЙЛ! ===-
Путь: ...\Тет-а-тет
01 -=- 01 - Bob Wilson and his Varsity Rhythm Boys - The Charleston.flac -=- CDDA (100%)
02 -=- 02 - The Clare Sisters with Bob Mandell and his Wolverines - Tiger Rag.flac -=- CDDA (100%)
03 -=- 03 - Robert Mandell and his Orchestra - Boogie Woogie.flac -=- CDDA (99%)
04 -=- 04 - Harry James and his Orchestra - Opus One.flac -=- CDDA (100%)
05 -=- 05 - Claude Blouin and his Orchestra - Flying Home.flac -=- CDDA (100%)
06 -=- 06 - Bob Crosby and his Orchestra - Thoroughly Modern Millie.flac -=- CDDA (100%)
07 -=- 07 - Rosemary Clooney - We're In The Money.flac -=- CDDA (100%)
08 -=- 08 - Jimmy Dorsey and his Orchestra-The Arthur Malvin Singers - A June Night (And You).flac -=- CDDA (100%)
09 -=- 09 - Claude Blouin and his Orchestra - I'm Beginning To See The Light.flac -=- CDDA (99%)
10 -=- 10 - Bob Crosby and his Orchestra, featuring The Bobcats - Ballin' The Jack.flac -=- CDDA (100%)
11 -=- 11 - Claude Blouin and his Orchestra - Don't Be That Way.flac -=- CDDA (100%)
12 -=- 12 - Harry James and his Orchestra - Back Beat Boogie.flac -=- CDDA (100%)
13 -=- 13 - Bob Crosby and his Orchestra - Mame.flac -=- CDDA (100%)
14 -=- 14 - Kenny Ball and his Jazzmen - Margie.flac -=- CDDA (100%)
15 -=- 15 - Bob Wilson and his Varsity Rhythm Boys - Broadway Rag.flac -=- CDDA (100%)
16 -=- 16 - Oakey Melville - Yes Sir, That's My Baby.flac -=- CDDA (100%)
17 -=- 17 - The Pasadena Roof Orchestra - You're The Cream In My Coffee.flac -=- CDDA (100%)
18 -=- 18 - Bob Wilson and his Varsity Rhythm Boys - Way Down Yonder In New Orleans.flac -=- CDDA (100%)
19 -=- 19 - Kenny Ball and Bob Wallis - Beale Street Blues.flac -=- CDDA (100%)
20 -=- 20 - The Pasadena Roof Orchestra & Singers - Varsity Drag.flac -=- CDDA (100%)
21 -=- 21 - The Blue Bells - The Sheik Of Araby.flac -=- CDDA (100%)
22 -=- 22 - Tommy Blaize - I Wan'na Be Like You.flac -=- MPEG (95%)
Сводка 95,59% CDDA
167839412
Трэклист
01 - Jose da Silva - Samba de uma nota sу (One Note Samba). (2:37)
02 - Barbara Mendes - O que serб, que serб. (3:03)
03 - Hugo Montenegro and his Orchestra - Summer Samba. (2:21)
04 - Maucha Adnet, with Charlie Byrd, Guitar, and Orchestra - Sу danзo samba. (4:17)
05 - Paulinho Loureiro - Taj Mahal. (3:57)
06 - Franco Bracardi - Brigitte Bardot. (3:42)
07 - Tropical Sound - Brasilia Carnaval. (3:00)
08 - Sisina Lugares - Y Viva Espaсa. (3:17)
09 - The Karl Schmidt Dance Band - Arena del toro. (2:01)
10 - Ambros Seelos and his Orchestra - Los Morenos. (3:17)
11 - Hill Bowen and his Orchestra - Rico Vacilуn. (2:23)
12 - Havana Mambo - Cuban mambo. (3:01)
13 - Ricardito Riveira - Bonito y sabroso. (2:49)
14 - Luiz Rodriguez and his Orchestra - Maria (Un, dos, tres Maria). (3:17)
15 - Ritmo de Cuba - La plegaria del son. (4:25)
16 - Jorjгo Barreto - Festa para um rei negro. (3:29)
17 - Rafael Sil - Zй Marmita. (2:41)
18 - Jorjгo Barreto - Tumba Le Le. (3:48)
19 - Marcelo Rezende - Mulata Ye Ye Ye. (3:13)
20 - Jairo Pereira - Fio Maravilha. (3:23)
”Отчет ЕАС”
Отчёт EAC об извлечении, выполненном 25. марта 2012, 9:25 для диска:
Various / В ритме танца - Солнечные дни
Дисковод: TSSTcorpCDDVDW SH-222AB Adapter: 0 ID: 0
Режим чтения: Достоверный (C2: нет, Точный поток: да, Отключение кэша: да)
Коррекция смещения при чтении: 6
Способность читать области Lead-in и Lead-out : Нет
Выходной формат: C:\Program Files (x86)\FLAC\flac.exe (Пользовательский кодировщик)
128 kBit/s
Дополнительные параметры: -8 -V -T "ARTIST=%a" -T "TITLE=%t" -T "ALBUM=%g" -T "DATE=%y" -T "TRACKNUMBER=%n" -T "GENRE=%m" -T "COMMENT=EAC FLAC -8" %s
Другие параметры:
Заполнение пропущенных сэмплов тишиной : Да
Удаление блоков с тишиной в начале и конце : Нет
Встроенный Win32-интерфейс для Win NT/2000
Трек 1
Имя файла C:\Sergei\новая папка\01 - Jose da Silva - Samba de uma nota sу (One Note Samba).wav
Длина предзазора 0:00:02.00
Пиковый уровень 99.0 %
Качество трека 100.0 %
CRC теста 5D1B3756
CRC копии 5D1B3756
Копирование... OK
Трек 2
Имя файла C:\Sergei\новая папка\02 - Barbara Mendes - O que serб, que serб.wav
Длина предзазора 0:00:01.80
Пиковый уровень 60.0 %
Качество трека 99.9 %
CRC теста FD7CE8A6
CRC копии FD7CE8A6
Копирование... OK
Трек 3
Имя файла C:\Sergei\новая папка\03 - Hugo Montenegro and his Orchestra - Summer Samba.wav
Длина предзазора 0:00:01.80
Пиковый уровень 99.1 %
Качество трека 100.0 %
CRC теста A760AB1C
CRC копии A760AB1C
Копирование... OK
Трек 4
Имя файла C:\Sergei\новая папка\04 - Maucha Adnet, with Charlie Byrd, Guitar, and Orchestra - Sу danзo samba.wav
Длина предзазора 0:00:01.80
Пиковый уровень 56.9 %
Качество трека 100.0 %
CRC теста A372B4D3
CRC копии A372B4D3
Копирование... OK
Трек 5
Имя файла C:\Sergei\новая папка\05 - Paulinho Loureiro - Taj Mahal.wav
Длина предзазора 0:00:01.80
Пиковый уровень 99.5 %
Качество трека 100.0 %
CRC теста 6C134D59
CRC копии 6C134D59
Копирование... OK
Трек 6
Имя файла C:\Sergei\новая папка\06 - Franco Bracardi - Brigitte Bardot.wav
Длина предзазора 0:00:01.80
Пиковый уровень 99.1 %
Качество трека 100.0 %
CRC теста 65DE04A8
CRC копии 65DE04A8
Копирование... OK
Трек 7
Имя файла C:\Sergei\новая папка\07 - Tropical Sound - Brasilia Carnaval.wav
Длина предзазора 0:00:01.80
Пиковый уровень 99.2 %
Качество трека 100.0 %
CRC теста 58616C38
CRC копии 58616C38
Копирование... OK
Трек 8
Имя файла C:\Sergei\новая папка\08 - Sisina Lugares - Y Viva Espaсa.wav
Длина предзазора 0:00:01.80
Пиковый уровень 96.2 %
Качество трека 100.0 %
CRC теста 89125BE5
CRC копии 89125BE5
Копирование... OK
Трек 9
Имя файла C:\Sergei\новая папка\09 - The Karl Schmidt Dance Band - Arena del toro.wav
Длина предзазора 0:00:01.80
Пиковый уровень 99.4 %
Качество трека 100.0 %
CRC теста BEEC9F19
CRC копии BEEC9F19
Копирование... OK
Трек 10
Имя файла C:\Sergei\новая папка\10 - Ambros Seelos and his Orchestra - Los Morenos.wav
Длина предзазора 0:00:01.80
Пиковый уровень 91.8 %
Качество трека 100.0 %
CRC теста 4F72181A
CRC копии 4F72181A
Копирование... OK
Трек 11
Имя файла C:\Sergei\новая папка\11 - Hill Bowen and his Orchestra - Rico Vacilуn.wav
Длина предзазора 0:00:01.80
Пиковый уровень 81.5 %
Качество трека 99.9 %
CRC теста 367860BE
CRC копии 367860BE
Копирование... OK
Трек 12
Имя файла C:\Sergei\новая папка\12 - Havana Mambo - Cuban mambo.wav
Длина предзазора 0:00:01.80
Пиковый уровень 99.2 %
Качество трека 100.0 %
CRC теста 69C8E725
CRC копии 69C8E725
Копирование... OK
Трек 13
Имя файла C:\Sergei\новая папка\13 - Ricardito Riveira - Bonito y sabroso.wav
Длина предзазора 0:00:01.80
Пиковый уровень 99.5 %
Качество трека 100.0 %
CRC теста 4F676B80
CRC копии 4F676B80
Копирование... OK
Трек 14
Имя файла C:\Sergei\новая папка\14 - Luiz Rodriguez and his Orchestra - Maria (Un, dos, tres Maria).wav
Длина предзазора 0:00:01.80
Пиковый уровень 88.0 %
Качество трека 99.9 %
CRC теста 332C3CEE
CRC копии 332C3CEE
Копирование... OK
Трек 15
Имя файла C:\Sergei\новая папка\15 - Ritmo de Cuba - La plegaria del son.wav
Длина предзазора 0:00:01.80
Пиковый уровень 99.5 %
Качество трека 100.0 %
CRC теста 7F377E85
CRC копии 7F377E85
Копирование... OK
Трек 16
Имя файла C:\Sergei\новая папка\16 - Jorjгo Barreto - Festa para um rei negro.wav
Длина предзазора 0:00:01.80
Пиковый уровень 94.5 %
Качество трека 100.0 %
CRC теста 5E154CD1
CRC копии 5E154CD1
Копирование... OK
Трек 17
Имя файла C:\Sergei\новая папка\17 - Rafael Sil - Zй Marmita.wav
Длина предзазора 0:00:01.80
Пиковый уровень 87.7 %
Качество трека 100.0 %
CRC теста FB435EDB
CRC копии FB435EDB
Копирование... OK
Трек 18
Имя файла C:\Sergei\новая папка\18 - Jorjгo Barreto - Tumba Le Le.wav
Длина предзазора 0:00:01.80
Пиковый уровень 91.8 %
Качество трека 100.0 %
CRC теста BF33FF5B
CRC копии BF33FF5B
Копирование... OK
Трек 19
Имя файла C:\Sergei\новая папка\19 - Marcelo Rezende - Mulata Ye Ye Ye.wav
Длина предзазора 0:00:01.80
Пиковый уровень 98.9 %
Качество трека 100.0 %
CRC теста 3B5E6F46
CRC копии 3B5E6F46
Копирование... OK
Трек 20
Имя файла C:\Sergei\новая папка\20 - Jairo Pereira - Fio Maravilha.wav
Длина предзазора 0:00:01.80
Пиковый уровень 98.7 %
Качество трека 100.0 %
CRC теста 8E090162
CRC копии 8E090162
Копирование... OK
Ошибок не произошло
Конец отчёта
"Non-compilant CUE"
REM GENRE Instrumental
REM DATE 2011
REM DISCID 200F0A14
REM COMMENT "ExactAudioCopy v0.95b3"
PERFORMER "Various"
TITLE "В ритме танца - Солнечные дни"
FILE "01 - Jose da Silva - Samba de uma nota sу (One Note Samba).wav" WAVE
TRACK 01 AUDIO
TITLE "Samba de uma nota sу (One Note Samba)"
PERFORMER "Jose da Silva"
INDEX 01 00:00:00
TRACK 02 AUDIO
TITLE "O que serб, que serб"
PERFORMER "Barbara Mendes"
INDEX 00 02:35:36
FILE "02 - Barbara Mendes - O que serб, que serб.wav" WAVE
INDEX 01 00:00:00
TRACK 03 AUDIO
TITLE "Summer Samba"
PERFORMER "Hugo Montenegro and his Orchestra"
INDEX 00 03:01:62
FILE "03 - Hugo Montenegro and his Orchestra - Summer Samba.wav" WAVE
INDEX 01 00:00:00
TRACK 04 AUDIO
TITLE "Sу danзo samba"
PERFORMER "Maucha Adnet, with Charlie Byrd, Guitar, and Orchestra"
INDEX 00 02:20:02
FILE "04 - Maucha Adnet, with Charlie Byrd, Guitar, and Orchestra - Sу danзo samba.wav" WAVE
INDEX 01 00:00:00
TRACK 05 AUDIO
TITLE "Taj Mahal"
PERFORMER "Paulinho Loureiro"
INDEX 00 04:15:18
FILE "05 - Paulinho Loureiro - Taj Mahal.wav" WAVE
INDEX 01 00:00:00
TRACK 06 AUDIO
TITLE "Brigitte Bardot"
PERFORMER "Franco Bracardi"
INDEX 00 03:56:00
FILE "06 - Franco Bracardi - Brigitte Bardot.wav" WAVE
INDEX 01 00:00:00
TRACK 07 AUDIO
TITLE "Brasilia Carnaval"
PERFORMER "Tropical Sound"
INDEX 00 03:40:20
FILE "07 - Tropical Sound - Brasilia Carnaval.wav" WAVE
INDEX 01 00:00:00
TRACK 08 AUDIO
TITLE "Y Viva Espaсa"
PERFORMER "Sisina Lugares"
INDEX 00 02:58:30
FILE "08 - Sisina Lugares - Y Viva Espaсa.wav" WAVE
INDEX 01 00:00:00
TRACK 09 AUDIO
TITLE "Arena del toro"
PERFORMER "The Karl Schmidt Dance Band"
INDEX 00 03:15:67
FILE "09 - The Karl Schmidt Dance Band - Arena del toro.wav" WAVE
INDEX 01 00:00:00
TRACK 10 AUDIO
TITLE "Los Morenos"
PERFORMER "Ambros Seelos and his Orchestra"
INDEX 00 01:59:49
FILE "10 - Ambros Seelos and his Orchestra - Los Morenos.wav" WAVE
INDEX 01 00:00:00
TRACK 11 AUDIO
TITLE "Rico Vacilуn"
PERFORMER "Hill Bowen and his Orchestra"
INDEX 00 03:15:73
FILE "11 - Hill Bowen and his Orchestra - Rico Vacilуn.wav" WAVE
INDEX 01 00:00:00
TRACK 12 AUDIO
TITLE "Cuban mambo"
PERFORMER "Havana Mambo"
INDEX 00 02:21:46
FILE "12 - Havana Mambo - Cuban mambo.wav" WAVE
INDEX 01 00:00:00
TRACK 13 AUDIO
TITLE "Bonito y sabroso"
PERFORMER "Ricardito Riveira"
INDEX 00 02:59:43
FILE "13 - Ricardito Riveira - Bonito y sabroso.wav" WAVE
INDEX 01 00:00:00
TRACK 14 AUDIO
TITLE "Maria (Un, dos, tres Maria)"
PERFORMER "Luiz Rodriguez and his Orchestra"
INDEX 00 02:47:55
FILE "14 - Luiz Rodriguez and his Orchestra - Maria (Un, dos, tres Maria).wav" WAVE
INDEX 01 00:00:00
TRACK 15 AUDIO
TITLE "La plegaria del son"
PERFORMER "Ritmo de Cuba"
INDEX 00 03:15:56
FILE "15 - Ritmo de Cuba - La plegaria del son.wav" WAVE
INDEX 01 00:00:00
TRACK 16 AUDIO
TITLE "Festa para um rei negro"
PERFORMER "Jorjгo Barreto"
INDEX 00 04:23:48
FILE "16 - Jorjгo Barreto - Festa para um rei negro.wav" WAVE
INDEX 01 00:00:00
TRACK 17 AUDIO
TITLE "Zй Marmita"
PERFORMER "Rafael Sil"
INDEX 00 03:27:45
FILE "17 - Rafael Sil - Zй Marmita.wav" WAVE
INDEX 01 00:00:00
TRACK 18 AUDIO
TITLE "Tumba Le Le"
PERFORMER "Jorjгo Barreto"
INDEX 00 02:39:30
FILE "18 - Jorjгo Barreto - Tumba Le Le.wav" WAVE
INDEX 01 00:00:00
TRACK 19 AUDIO
TITLE "Mulata Ye Ye Ye"
PERFORMER "Marcelo Rezende"
INDEX 00 03:46:33
FILE "19 - Marcelo Rezende - Mulata Ye Ye Ye.wav" WAVE
INDEX 01 00:00:00
TRACK 20 AUDIO
TITLE "Fio Maravilha"
PERFORMER "Jairo Pereira"
INDEX 00 03:12:03
FILE "20 - Jairo Pereira - Fio Maravilha.wav" WAVE
INDEX 01 00:00:00
"Лог Audiochecker"
AUDIOCHECKER v2.0 beta (build 457) - by Dester - [email protected]
~~~~~~~~~~~~~~~~~~~~~~~~~~~~~~~~~~
-=== НЕ РЕДАКТИРУЙТЕ ЭТОТ ФАЙЛ! ===-
Путь: ...\Солнечные дни
01 -=- 01 - Jose da Silva - Samba de uma nota sу (One Note Samba).flac -=- CDDA (100%)
02 -=- 02 - Barbara Mendes - O que serб, que serб.flac -=- CDDA (99%)
03 -=- 03 - Hugo Montenegro and his Orchestra - Summer Samba.flac -=- CDDA (100%)
04 -=- 04 - Maucha Adnet, with Charlie Byrd, Guitar, and Orchestra - Sу danзo samba.flac -=- CDDA (100%)
05 -=- 05 - Paulinho Loureiro - Taj Mahal.flac -=- CDDA (100%)
06 -=- 06 - Franco Bracardi - Brigitte Bardot.flac -=- CDDA (100%)
07 -=- 07 - Tropical Sound - Brasilia Carnaval.flac -=- CDDA (100%)
08 -=- 08 - Sisina Lugares - Y Viva Espaсa.flac -=- CDDA (100%)
09 -=- 09 - The Karl Schmidt Dance Band - Arena del toro.flac -=- MPEG (95%)
10 -=- 10 - Ambros Seelos and his Orchestra - Los Morenos.flac -=- CDDA (100%)
11 -=- 11 - Hill Bowen and his Orchestra - Rico Vacilуn.flac -=- CDDA (100%)
12 -=- 12 - Havana Mambo - Cuban mambo.flac -=- CDDA (100%)
13 -=- 13 - Ricardito Riveira - Bonito y sabroso.flac -=- CDDA (100%)
14 -=- 14 - Luiz Rodriguez and his Orchestra - Maria (Un, dos, tres Maria).flac -=- CDDA (100%)
15 -=- 15 - Ritmo de Cuba - La plegaria del son.flac -=- CDDA (100%)
16 -=- 16 - Jorjгo Barreto - Festa para um rei negro.flac -=- CDDA (100%)
17 -=- 17 - Rafael Sil - Zй Marmita.flac -=- CDDA (100%)
18 -=- 18 - Jorjгo Barreto - Tumba Le Le.flac -=- CDDA (100%)
19 -=- 19 - Marcelo Rezende - Mulata Ye Ye Ye.flac -=- CDDA (100%)
20 -=- 20 - Jairo Pereira - Fio Maravilha.flac -=- CDDA (100%)
Сводка 95,20% CDDA
51509156
Мы помогаем людям, чтобы они, в свою очередь, помогли нам; таким образом, наши услуги сводятся просто к благодеяниям, которые мы загодя оказываем самим себе. (Франсуа де Ларошфуко)
Download / Скачать

Хотите скачать бесплатно? Зарегистрируйтесь на сайте (ссылка на регистрацию). Pirat.ca - самый быстрый торрент трекер в рунете!

Как скачивать  ·   Что такое торрент  ·   Рейтинг и ограничения

Показать сообщения:    
Ответить на тему

Текущее время: Сегодня 05:40

Часовой пояс: GMT + 4



Вы не можете начинать темы
Вы не можете отвечать на сообщения
Вы не можете редактировать свои сообщения
Вы не можете удалять свои сообщения
Вы не можете голосовать в опросах
Вы не можете прикреплять файлы к сообщениям
Вы не можете скачивать файлы

▼ Вниз