Уважаемый Гость!
Вы можете поддержать проект и зарегистрироваться у наших партнеров - онлайн-стратегия MyLands. При регистрации в игре Вы получите код, который сможете активировать после регистрации на pirat.ca и получить 1000 дублонов.

Ваш код:
6e74277781110e9b49c3c0dd24e1bed54391613e
 
     

(PopMusic) Morten Harket - Wild Seed - 2000 [APE, image+.cue, lossless]

Ответить на тему
 
Автор
Сообщение

Пост 22-Янв-2013 11:31

[Q] 

persia07

Морской Волк

-Morten Harket / Wild Seed-У кого есть альбом 1995г - сразу обратит внимание, что тут другая раздача- Год издания: 2000
Страна: Norwav
Жанр: PopMusic
Продолжительность: 01:16:49-Лейбл издания: NeoRecords
Страна-выпуска диска: Ukraine
Формат: APE
Битрейт аудио: lossless
Тип рипа: image+.cue
Наличие сканов в содержимом раздачи: да
http://www.youtube.com/watch?v=sSR3otOZ3W8[/flash]-
01. A Kind of a Christmas Card [0:04:09.14]
02. Spanish Steps [0:04:10.17]
03. Half In Love, Half In Hate [0:04:48.63]
04. Brodsky Tune [0:04:26.41]
05. Wild Seed [0:04:51.50]
06. Los Angeles [0:04:29.70]
07. East Timor [0:04:14.60]
08. Lay Me Down Tonight [0:02:20.71]
09. Tell Me What You See [0:04:52.63]
10. Stay [0:03:31.63]
11. Lord [0:03:48.34]
12. Ready to Go Home [0:04:34.07]
13. Where You Are [duets with Silje] [bonus] [0:04:17.07]
14. It Was You [bonus] [0:03:20.27]
15. Velvet [bonus] [0:04:21.54]
16. Summer Moved On [bonus] [0:04:38.48]
17. Thought Then It Was You [bonus] [0:03:51.33]
18. Summer Moved On [remix] [bonus] [0:06:00.23]
Exact Audio Copy V0.99 prebeta 4 from 23. January 2008
Отчёт EAC об извлечении, выполненном 4. октября 2009, 1:06
Morten Harket / Wild Seed
Дисковод: PLEXTOR CD-R PX-W5224A Adapter: 1 ID: 1
Режим чтения : Достоверность
Использование точного потока : Да
Отключение кэша аудио : Да
Использование указателей C2 : Нет
Коррекция смещения при чтении : 30
Способность читать области Lead-in и Lead-out : Да
Заполнение пропущенных сэмплов тишиной : Да
Удаление блоков с тишиной в начале и конце : Нет
При вычислениях CRC использовались нулевые сэмплы : Да
Интерфейс : Установленный внешний ASPI-интерфейс
Выходной формат : Monkey's Audio Lossless Encoder v3.99 DLL
Формат сэмплов : High Lossless Compression
TOC извлечённого CD
Трек | Старт | Длительность | Начальный сектор | Конечный сектор
---------------------------------------------------------------------
1 | 0:00.00 | 4:09.14 | 0 | 18688
2 | 4:09.14 | 4:10.17 | 18689 | 37455
3 | 8:19.31 | 4:48.63 | 37456 | 59118
4 | 13:08.19 | 4:26.41 | 59119 | 79109
5 | 17:34.60 | 4:51.50 | 79110 | 100984
6 | 22:26.35 | 4:29.70 | 100985 | 121229
7 | 26:56.30 | 4:14.60 | 121230 | 140339
8 | 31:11.15 | 2:20.71 | 140340 | 150910
9 | 33:32.11 | 4:52.63 | 150911 | 172873
10 | 38:24.74 | 3:31.63 | 172874 | 188761
11 | 41:56.62 | 3:48.34 | 188762 | 205895
12 | 45:45.21 | 4:34.07 | 205896 | 226452
13 | 50:19.28 | 4:17.07 | 226453 | 245734
14 | 54:36.35 | 3:20.27 | 245735 | 260761
15 | 57:56.62 | 4:21.54 | 260762 | 280390
16 | 62:18.41 | 4:38.48 | 280391 | 301288
17 | 66:57.14 | 3:51.33 | 301289 | 318646
18 | 70:48.47 | 6:00.23 | 318647 | 345669
Характеристики диапазона извлечения и сообщения об ошибках
Выбранный диапазон
Имя файла D:\Releases\MortenHarket_2000_WildSeed\MortenHarket_2000_WildSeed.ape
Пиковый уровень 100.0 %
Качество диапазона 100.0 %
CRC теста 09DAEC7C
CRC копии 09DAEC7C
Копирование... OK
Ошибок не произошло
Конец отчёта
REM DISCID EC120012
REM COMMENT "ExactAudioCopy v0.99pb4"
PERFORMER "Morten Harket"
TITLE "Wild Seed"
FILE "MortenHarket_2000_WildSeed.ape" WAVE
TRACK 01 AUDIO
TITLE "A Kind of a Christmas Card"
PERFORMER "Morten Harket"
INDEX 01 00:00:00
TRACK 02 AUDIO
TITLE "Spanish Steps"
PERFORMER "Morten Harket"
INDEX 01 04:09:14
TRACK 03 AUDIO
TITLE "Half In Love, Half In Hate"
PERFORMER "Morten Harket"
INDEX 01 08:19:31
TRACK 04 AUDIO
TITLE "Brodsky Tune"
PERFORMER "Morten Harket"
INDEX 01 13:08:19
TRACK 05 AUDIO
TITLE "Wild Seed"
PERFORMER "Morten Harket"
INDEX 01 17:34:60
TRACK 06 AUDIO
TITLE "Los Angeles"
PERFORMER "Morten Harket"
INDEX 01 22:26:35
TRACK 07 AUDIO
TITLE "East Timor"
PERFORMER "Morten Harket"
INDEX 01 26:56:30
TRACK 08 AUDIO
TITLE "Lay Me Down Tonight"
PERFORMER "Morten Harket"
INDEX 01 31:11:15
TRACK 09 AUDIO
TITLE "Tell Me What You See"
PERFORMER "Morten Harket"
INDEX 01 33:32:11
TRACK 10 AUDIO
TITLE "Stay"
PERFORMER "Morten Harket"
INDEX 01 38:24:74
TRACK 11 AUDIO
TITLE "Lord"
PERFORMER "Morten Harket"
INDEX 01 41:56:62
TRACK 12 AUDIO
TITLE "Ready to Go Home"
PERFORMER "Morten Harket"
INDEX 01 45:45:21
TRACK 13 AUDIO
TITLE "Where You Are [duets with Silje] [bonus]"
PERFORMER "Morten Harket"
INDEX 01 50:19:28
TRACK 14 AUDIO
TITLE "It Was You [bonus]"
PERFORMER "Morten Harket"
INDEX 01 54:36:35
TRACK 15 AUDIO
TITLE "Velvet [bonus]"
PERFORMER "Morten Harket"
INDEX 01 57:56:62
TRACK 16 AUDIO
TITLE "Summer Moved On [bonus]"
PERFORMER "Morten Harket"
INDEX 01 62:18:41
TRACK 17 AUDIO
TITLE "Thought Then It Was You [bonus]"
PERFORMER "Morten Harket"
INDEX 01 66:57:14
TRACK 18 AUDIO
TITLE "Summer Moved On [remix] [bonus]"
PERFORMER "Morten Harket"
INDEX 01 70:48:47
Download / Скачать

Хотите скачать бесплатно? Зарегистрируйтесь на сайте (ссылка на регистрацию). Pirat.ca - самый быстрый торрент трекер в рунете!

Как скачивать  ·   Что такое торрент  ·   Рейтинг и ограничения

Показать сообщения:    
Ответить на тему

Текущее время: Сегодня 13:41

Часовой пояс: GMT + 4



Вы не можете начинать темы
Вы не можете отвечать на сообщения
Вы не можете редактировать свои сообщения
Вы не можете удалять свои сообщения
Вы не можете голосовать в опросах
Вы не можете прикреплять файлы к сообщениям
Вы не можете скачивать файлы

▼ Вниз