Уважаемый Гость!
Вы можете поддержать проект и зарегистрироваться у наших партнеров - онлайн-стратегия MyLands. При регистрации в игре Вы получите код, который сможете активировать после регистрации на pirat.ca и получить 1000 дублонов.

Ваш код:
6e74277781110e9b49c3c0dd24e1bed54391613e
 
     

(Pop) АББА Золотая коллекция (РД) - 2010 (2 CD) [FLAC, tracks+cue, lossless]

Ответить на тему
 
Автор
Сообщение

Пост 29-Янв-2013 00:20

[Q] 

CHARLI2236

АББА Золотая коллекция (РД) - 2010 (2CD)
Год выпуска альбома: 2010
Страна: Россия
Жанр: Pop
Лейбл издания: Ридерз Дайджест
Продолжительность: 2:38:02
Формат: FLAC
Битрейт аудио: lossless
Тип рипа: tracks+.cue
Источник (релизер): диск CDDA
Наличие сканов в содержимом раздачи: да
Трэклист
01 - Summer Night City. (3:36)
02 - Angel Eyes. (4:22)
03 - The Day Before You Came. (5:51)
04 - Eagle. (4:24)
05 - I Do, I Do, I Do, I Do, I Do. (3:17)
06 - So Long. (3:10)
07 - Honey, Honey. (2:58)
08 - The Visitors. (5:46)
09 - Our Last Summer. (4:21)
10 - On And On And On. (3:44)
11 - Ring Ring. (3:06)
12 - I Wonder (Departure). (4:33)
13 - Lovelight. (3:49)
14 - Head Over Heels. (3:50)
15 - When I Kissed The Teacher. (3:02)
16 - I Am The City. (4:02)
17 - Cassandra. (4:54)
18 - Under Attack. (3:49)
19 - When All Is Said And Done. (3:18)
20 - The Way Old Friends Do. (2:54)
”Отчет ЕАС”
Отчёт EAC об извлечении, выполненном 23. января 2013, 15:36 для диска:
ABBA / АББА Золотая коллекция (CD1) More ABBA Gold (РД)
Дисковод: _NEC DVD_RW ND-4550A Adapter: 0 ID: 1
Режим чтения: Достоверный (C2: нет, Точный поток: да, Отключение кэша: да)
Коррекция смещения при чтении: 48
Способность читать области Lead-in и Lead-out : Нет
Выходной формат: C:\Program Files\FLAC\flac.exe (Пользовательский кодировщик)
128 kBit/s
Дополнительные параметры: -8 -V -T "ARTIST=%a" -T "TITLE=%t" -T "ALBUM=%g" -T "DATE=%y" -T "TRACKNUMBER=%n" -T "GENRE=%m" -T "COMMENT=EAC FLAC -8" %s
Другие параметры:
Заполнение пропущенных сэмплов тишиной : Да
Удаление блоков с тишиной в начале и конце : Нет
Встроенный Win32-интерфейс для Win NT/2000
Трек 1
Имя файла C:\Sergei\новая папка\01 - Summer Night City.wav
Длина предзазора 0:00:02.00
Пиковый уровень 94.1 %
Качество трека 100.0 %
CRC теста 8628165D
CRC копии 8628165D
Копирование... OK
Трек 2
Имя файла C:\Sergei\новая папка\02 - Angel Eyes.wav
Длина предзазора 0:00:03.40
Пиковый уровень 94.3 %
Качество трека 100.0 %
CRC теста 4A99C227
CRC копии 4A99C227
Копирование... OK
Трек 3
Имя файла C:\Sergei\новая папка\03 - The Day Before You Came.wav
Длина предзазора 0:00:02.40
Пиковый уровень 95.2 %
Качество трека 100.0 %
CRC теста D6DCABE6
CRC копии D6DCABE6
Копирование... OK
Трек 4
Имя файла C:\Sergei\новая папка\04 - Eagle.wav
Длина предзазора 0:00:01.45
Пиковый уровень 95.2 %
Качество трека 99.9 %
CRC теста B167757B
CRC копии B167757B
Копирование... OK
Трек 5
Имя файла C:\Sergei\новая папка\05 - I Do, I Do, I Do, I Do, I Do.wav
Длина предзазора 0:00:01.24
Пиковый уровень 94.1 %
Качество трека 100.0 %
CRC теста 30CEBF68
CRC копии 30CEBF68
Копирование... OK
Трек 6
Имя файла C:\Sergei\новая папка\06 - So Long.wav
Длина предзазора 0:00:01.73
Пиковый уровень 95.2 %
Качество трека 100.0 %
CRC теста FE181E81
CRC копии FE181E81
Копирование... OK
Трек 7
Имя файла C:\Sergei\новая папка\07 - Honey, Honey.wav
Длина предзазора 0:00:05.21
Пиковый уровень 95.2 %
Качество трека 100.0 %
CRC теста B7A514C2
CRC копии B7A514C2
Копирование... OK
Трек 8
Имя файла C:\Sergei\новая папка\08 - The Visitors.wav
Длина предзазора 0:00:03.12
Пиковый уровень 95.2 %
Качество трека 100.0 %
CRC теста 980BB4AF
CRC копии 980BB4AF
Копирование... OK
Трек 9
Имя файла C:\Sergei\новая папка\09 - Our Last Summer.wav
Длина предзазора 0:00:01.84
Пиковый уровень 95.2 %
Качество трека 99.9 %
CRC теста 460D1D2F
CRC копии 460D1D2F
Копирование... OK
Трек 10
Имя файла C:\Sergei\новая папка\10 - On And On And On.wav
Длина предзазора 0:00:01.78
Пиковый уровень 95.2 %
Качество трека 100.0 %
CRC теста D64C2EE3
CRC копии D64C2EE3
Копирование... OK
Трек 11
Имя файла C:\Sergei\новая папка\11 - Ring Ring.wav
Длина предзазора 0:00:03.78
Пиковый уровень 96.1 %
Качество трека 100.0 %
CRC теста 56028325
CRC копии 56028325
Копирование... OK
Трек 12
Имя файла C:\Sergei\новая папка\12 - I Wonder (Departure).wav
Длина предзазора 0:00:01.73
Пиковый уровень 94.1 %
Качество трека 100.0 %
CRC теста F332AB57
CRC копии F332AB57
Копирование... OK
Трек 13
Имя файла C:\Sergei\новая папка\13 - Lovelight.wav
Длина предзазора 0:00:02.33
Пиковый уровень 95.2 %
Качество трека 99.9 %
CRC теста 7493D09F
CRC копии 7493D09F
Копирование... OK
Трек 14
Имя файла C:\Sergei\новая папка\14 - Head Over Heels.wav
Длина предзазора 0:00:02.57
Пиковый уровень 96.0 %
Качество трека 100.0 %
CRC теста 3D5BE24C
CRC копии 3D5BE24C
Копирование... OK
Трек 15
Имя файла C:\Sergei\новая папка\15 - When I Kissed The Teacher.wav
Длина предзазора 0:00:04.22
Пиковый уровень 96.1 %
Качество трека 100.0 %
CRC теста 4A0DDF17
CRC копии 4A0DDF17
Копирование... OK
Трек 16
Имя файла C:\Sergei\новая папка\16 - I Am The City.wav
Длина предзазора 0:00:01.53
Пиковый уровень 95.2 %
Качество трека 100.0 %
CRC теста F4E27FAF
CRC копии F4E27FAF
Копирование... OK
Трек 17
Имя файла C:\Sergei\новая папка\17 - Cassandra.wav
Длина предзазора 0:00:01.69
Пиковый уровень 96.2 %
Качество трека 100.0 %
CRC теста E1815522
CRC копии E1815522
Копирование... OK
Трек 18
Имя файла C:\Sergei\новая папка\18 - Under Attack.wav
Длина предзазора 0:00:02.04
Пиковый уровень 95.4 %
Качество трека 99.9 %
CRC теста A5339B99
CRC копии A5339B99
Копирование... OK
Трек 19
Имя файла C:\Sergei\новая папка\19 - When All Is Said And Done.wav
Длина предзазора 0:00:03.37
Пиковый уровень 95.2 %
Качество трека 100.0 %
CRC теста D1E472E3
CRC копии D1E472E3
Копирование... OK
Трек 20
Имя файла C:\Sergei\новая папка\20 - The Way Old Friends Do.wav
Длина предзазора 0:00:01.92
Пиковый уровень 96.8 %
Качество трека 100.0 %
CRC теста 08F94B4A
CRC копии 08F94B4A
Копирование... OK
Ошибок не произошло
Конец отчёта
"Non-compilant CUE"
REM GENRE Pop
REM DATE 2008
REM DISCID 2C127F14
REM COMMENT "ExactAudioCopy v0.95b3"
PERFORMER "ABBA"
TITLE "АББА Золотая коллекция (CD1) More ABBA Gold (РД)"
FILE "01 - Summer Night City.wav" WAVE
TRACK 01 AUDIO
TITLE "Summer Night City"
PERFORMER "ABBA"
INDEX 01 00:00:00
TRACK 02 AUDIO
TITLE "Angel Eyes"
PERFORMER "ABBA"
INDEX 00 03:33:10
FILE "02 - Angel Eyes.wav" WAVE
INDEX 01 00:00:00
TRACK 03 AUDIO
TITLE "The Day Before You Came"
PERFORMER "ABBA"
INDEX 00 04:20:38
FILE "03 - The Day Before You Came.wav" WAVE
INDEX 01 00:00:00
TRACK 04 AUDIO
TITLE "Eagle"
PERFORMER "ABBA"
INDEX 00 05:49:53
FILE "04 - Eagle.wav" WAVE
INDEX 01 00:00:00
TRACK 05 AUDIO
TITLE "I Do, I Do, I Do, I Do, I Do"
PERFORMER "ABBA"
INDEX 00 04:23:31
FILE "05 - I Do, I Do, I Do, I Do, I Do.wav" WAVE
INDEX 01 00:00:00
TRACK 06 AUDIO
TITLE "So Long"
PERFORMER "ABBA"
INDEX 00 03:15:40
FILE "06 - So Long.wav" WAVE
INDEX 01 00:00:00
TRACK 07 AUDIO
TITLE "Honey, Honey"
PERFORMER "ABBA"
INDEX 00 03:05:44
FILE "07 - Honey, Honey.wav" WAVE
INDEX 01 00:00:00
TRACK 08 AUDIO
TITLE "The Visitors"
PERFORMER "ABBA"
INDEX 00 02:55:11
FILE "08 - The Visitors.wav" WAVE
INDEX 01 00:00:00
TRACK 09 AUDIO
TITLE "Our Last Summer"
PERFORMER "ABBA"
INDEX 00 05:45:02
FILE "09 - Our Last Summer.wav" WAVE
INDEX 01 00:00:00
TRACK 10 AUDIO
TITLE "On And On And On"
PERFORMER "ABBA"
INDEX 00 04:19:16
FILE "10 - On And On And On.wav" WAVE
INDEX 01 00:00:00
TRACK 11 AUDIO
TITLE "Ring Ring"
PERFORMER "ABBA"
INDEX 00 03:40:56
FILE "11 - Ring Ring.wav" WAVE
INDEX 01 00:00:00
TRACK 12 AUDIO
TITLE "I Wonder (Departure)"
PERFORMER "ABBA"
INDEX 00 03:04:30
FILE "12 - I Wonder (Departure).wav" WAVE
INDEX 01 00:00:00
TRACK 13 AUDIO
TITLE "Lovelight"
PERFORMER "ABBA"
INDEX 00 04:31:12
FILE "13 - Lovelight.wav" WAVE
INDEX 01 00:00:00
TRACK 14 AUDIO
TITLE "Head Over Heels"
PERFORMER "ABBA"
INDEX 00 03:46:40
FILE "14 - Head Over Heels.wav" WAVE
INDEX 01 00:00:00
TRACK 15 AUDIO
TITLE "When I Kissed The Teacher"
PERFORMER "ABBA"
INDEX 00 03:46:55
FILE "15 - When I Kissed The Teacher.wav" WAVE
INDEX 01 00:00:00
TRACK 16 AUDIO
TITLE "I Am The City"
PERFORMER "ABBA"
INDEX 00 03:01:15
FILE "16 - I Am The City.wav" WAVE
INDEX 01 00:00:00
TRACK 17 AUDIO
TITLE "Cassandra"
PERFORMER "ABBA"
INDEX 00 04:01:15
FILE "17 - Cassandra.wav" WAVE
INDEX 01 00:00:00
TRACK 18 AUDIO
TITLE "Under Attack"
PERFORMER "ABBA"
INDEX 00 04:52:02
FILE "18 - Under Attack.wav" WAVE
INDEX 01 00:00:00
TRACK 19 AUDIO
TITLE "When All Is Said And Done"
PERFORMER "ABBA"
INDEX 00 03:46:30
FILE "19 - When All Is Said And Done.wav" WAVE
INDEX 01 00:00:00
TRACK 20 AUDIO
TITLE "The Way Old Friends Do"
PERFORMER "ABBA"
INDEX 00 03:16:38
FILE "20 - The Way Old Friends Do.wav" WAVE
INDEX 01 00:00:00
"Лог Audiochecker"
AUDIOCHECKER v2.0 beta (build 457) - by Dester - [email protected]
~~~~~~~~~~~~~~~~~~~~~~~~~~~~~~~~~~
-=== НЕ РЕДАКТИРУЙТЕ ЭТОТ ФАЙЛ! ===-
Путь: ...\CD1 - More ABBA hits
01 -=- 01 - Summer Night City.flac -=- CDDA (100%)
02 -=- 02 - Angel Eyes.flac -=- CDDA (99%)
03 -=- 03 - The Day Before You Came.flac -=- CDDA (85%)
04 -=- 04 - Eagle.flac -=- CDDA (100%)
05 -=- 05 - I Do, I Do, I Do, I Do, I Do.flac -=- CDDA (99%)
06 -=- 06 - So Long.flac -=- CDDA (100%)
07 -=- 07 - Honey, Honey.flac -=- CDDA (100%)
08 -=- 08 - The Visitors.flac -=- CDDA (99%)
09 -=- 09 - Our Last Summer.flac -=- CDDA (100%)
10 -=- 10 - On And On And On.flac -=- CDDA (100%)
11 -=- 11 - Ring Ring.flac -=- CDDA (100%)
12 -=- 12 - I Wonder (Departure).flac -=- CDDA (76%)
13 -=- 13 - Lovelight.flac -=- CDDA (100%)
14 -=- 14 - Head Over Heels.flac -=- CDDA (100%)
15 -=- 15 - When I Kissed The Teacher.flac -=- CDDA (100%)
16 -=- 16 - I Am The City.flac -=- CDDA (100%)
17 -=- 17 - Cassandra.flac -=- CDDA (100%)
18 -=- 18 - Under Attack.flac -=- CDDA (100%)
19 -=- 19 - When All Is Said And Done.flac -=- CDDA (99%)
20 -=- 20 - The Way Old Friends Do.flac -=- CDDA (100%)
Сводка 97,85% CDDA
212898452
Трэклист
01 - Dancing Queen. (3:53)
02 - Knowing Me, Knowing You. (4:03)
03 - Take A Chance On Me. (4:08)
04 - Mamma Mia. (3:32)
05 - Lay All Your Love On Me. (4:34)
06 - Super Trouper. (4:13)
07 - I Have A Dream. (4:45)
08 - The Winner Takes It All. (4:57)
09 - Money, Money, Money. (3:08)
10 - SOS. (3:23)
11 - Chiquitita. (5:27)
12 - Fernando. (4:14)
13 - Voulez-Vous. (5:08)
14 - Gimme! Gimme! Gimme! (A Man After Midnight). (4:51)
15 - Does Your Mother Know. (3:15)
16 - One Of Us. (3:56)
17 - The Name Of The Game. (4:54)
18 - Thank You For The Music. (3:50)
19 - Waterloo. (2:45)
”Отчет ЕАС”
Отчёт EAC об извлечении, выполненном 23. января 2013, 18:24 для диска:
ABBA / АББА Золотая коллекция (CD2) Greatest Hits (РД)
Дисковод: _NEC DVD_RW ND-4550A Adapter: 0 ID: 1
Режим чтения: Достоверный (C2: нет, Точный поток: да, Отключение кэша: да)
Коррекция смещения при чтении: 48
Способность читать области Lead-in и Lead-out : Нет
Выходной формат: C:\Program Files\FLAC\flac.exe (Пользовательский кодировщик)
128 kBit/s
Дополнительные параметры: -8 -V -T "ARTIST=%a" -T "TITLE=%t" -T "ALBUM=%g" -T "DATE=%y" -T "TRACKNUMBER=%n" -T "GENRE=%m" -T "COMMENT=EAC FLAC -8" %s
Другие параметры:
Заполнение пропущенных сэмплов тишиной : Да
Удаление блоков с тишиной в начале и конце : Нет
Встроенный Win32-интерфейс для Win NT/2000
Трек 1
Имя файла C:\Sergei\новая папка\01 - Dancing Queen.wav
Длина предзазора 0:00:02.00
Пиковый уровень 97.7 %
Качество трека 99.9 %
CRC теста EB8B18D2
CRC копии EB8B18D2
Копирование... OK
Трек 2
Имя файла C:\Sergei\новая папка\02 - Knowing Me, Knowing You.wav
Длина предзазора 0:00:02.00
Пиковый уровень 97.7 %
Качество трека 99.9 %
CRC теста 782BFEBC
CRC копии 782BFEBC
Копирование... OK
Трек 3
Имя файла C:\Sergei\новая папка\03 - Take A Chance On Me.wav
Длина предзазора 0:00:02.00
Пиковый уровень 98.1 %
Качество трека 100.0 %
CRC теста 3FC54026
CRC копии 3FC54026
Копирование... OK
Трек 4
Имя файла C:\Sergei\новая папка\04 - Mamma Mia.wav
Длина предзазора 0:00:02.00
Пиковый уровень 97.7 %
Качество трека 100.0 %
CRC теста 94741B33
CRC копии 94741B33
Копирование... OK
Трек 5
Имя файла C:\Sergei\новая папка\05 - Lay All Your Love On Me.wav
Длина предзазора 0:00:02.00
Пиковый уровень 97.7 %
Качество трека 100.0 %
CRC теста 13D73E93
CRC копии 13D73E93
Копирование... OK
Трек 6
Имя файла C:\Sergei\новая папка\06 - Super Trouper.wav
Длина предзазора 0:00:02.00
Пиковый уровень 97.7 %
Качество трека 100.0 %
CRC теста 30672701
CRC копии 30672701
Копирование... OK
Трек 7
Имя файла C:\Sergei\новая папка\07 - I Have A Dream.wav
Длина предзазора 0:00:02.00
Пиковый уровень 97.7 %
Качество трека 100.0 %
CRC теста 96268591
CRC копии 96268591
Копирование... OK
Трек 8
Имя файла C:\Sergei\новая папка\08 - The Winner Takes It All.wav
Длина предзазора 0:00:02.00
Пиковый уровень 97.7 %
Качество трека 100.0 %
CRC теста 5E02CFAD
CRC копии 5E02CFAD
Копирование... OK
Трек 9
Имя файла C:\Sergei\новая папка\09 - Money, Money, Money.wav
Длина предзазора 0:00:02.00
Пиковый уровень 97.7 %
Качество трека 100.0 %
CRC теста 99BB49DD
CRC копии 99BB49DD
Копирование... OK
Трек 10
Имя файла C:\Sergei\новая папка\10 - SOS.wav
Длина предзазора 0:00:02.00
Пиковый уровень 96.6 %
Качество трека 100.0 %
CRC теста 4F0A5231
CRC копии 4F0A5231
Копирование... OK
Трек 11
Имя файла C:\Sergei\новая папка\11 - Chiquitita.wav
Длина предзазора 0:00:02.00
Пиковый уровень 96.6 %
Качество трека 100.0 %
CRC теста A0B50ACC
CRC копии A0B50ACC
Копирование... OK
Трек 12
Имя файла C:\Sergei\новая папка\12 - Fernando.wav
Длина предзазора 0:00:02.00
Пиковый уровень 97.7 %
Качество трека 100.0 %
CRC теста C94DEEC7
CRC копии C94DEEC7
Копирование... OK
Трек 13
Имя файла C:\Sergei\новая папка\13 - Voulez-Vous.wav
Длина предзазора 0:00:02.00
Пиковый уровень 96.6 %
Качество трека 99.9 %
CRC теста AF785C00
CRC копии AF785C00
Копирование... OK
Трек 14
Имя файла C:\Sergei\новая папка\14 - Gimme! Gimme! Gimme! (A Man After Midnight).wav
Длина предзазора 0:00:02.00
Пиковый уровень 96.6 %
Качество трека 100.0 %
CRC теста E2704FC1
CRC копии E2704FC1
Копирование... OK
Трек 15
Имя файла C:\Sergei\новая папка\15 - Does Your Mother Know.wav
Длина предзазора 0:00:02.00
Пиковый уровень 96.6 %
Качество трека 99.9 %
CRC теста C4695225
CRC копии C4695225
Копирование... OK
Трек 16
Имя файла C:\Sergei\новая папка\16 - One Of Us.wav
Длина предзазора 0:00:02.00
Пиковый уровень 97.8 %
Качество трека 100.0 %
CRC теста CBAB5982
CRC копии CBAB5982
Копирование... OK
Трек 17
Имя файла C:\Sergei\новая папка\17 - The Name Of The Game.wav
Длина предзазора 0:00:02.00
Пиковый уровень 97.7 %
Качество трека 100.0 %
CRC теста EEFD9000
CRC копии EEFD9000
Копирование... OK
Трек 18
Имя файла C:\Sergei\новая папка\18 - Thank You For The Music.wav
Длина предзазора 0:00:02.00
Пиковый уровень 97.7 %
Качество трека 100.0 %
CRC теста 8D91B7EE
CRC копии 8D91B7EE
Копирование... OK
Трек 19
Имя файла C:\Sergei\новая папка\19 - Waterloo.wav
Длина предзазора 0:00:02.00
Пиковый уровень 97.7 %
Качество трека 100.0 %
CRC теста 7764A912
CRC копии 7764A912
Копирование... OK
Ошибок не произошло
Конец отчёта
"Non-compilant CUE"
REM GENRE Pop
REM DATE 2010
REM DISCID 05128B13
REM COMMENT "ExactAudioCopy v0.95b3"
PERFORMER "ABBA"
TITLE "АББА Золотая коллекция (CD2) Greatest Hits (РД)"
FILE "01 - Dancing Queen.wav" WAVE
TRACK 01 AUDIO
TITLE "Dancing Queen"
PERFORMER "ABBA"
INDEX 01 00:00:00
TRACK 02 AUDIO
TITLE "Knowing Me, Knowing You"
PERFORMER "ABBA"
INDEX 00 03:51:07
FILE "02 - Knowing Me, Knowing You.wav" WAVE
INDEX 01 00:00:00
TRACK 03 AUDIO
TITLE "Take A Chance On Me"
PERFORMER "ABBA"
INDEX 00 04:01:61
FILE "03 - Take A Chance On Me.wav" WAVE
INDEX 01 00:00:00
TRACK 04 AUDIO
TITLE "Mamma Mia"
PERFORMER "ABBA"
INDEX 00 04:06:61
FILE "04 - Mamma Mia.wav" WAVE
INDEX 01 00:00:00
TRACK 05 AUDIO
TITLE "Lay All Your Love On Me"
PERFORMER "ABBA"
INDEX 00 03:30:72
FILE "05 - Lay All Your Love On Me.wav" WAVE
INDEX 01 00:00:00
TRACK 06 AUDIO
TITLE "Super Trouper"
PERFORMER "ABBA"
INDEX 00 04:32:38
FILE "06 - Super Trouper.wav" WAVE
INDEX 01 00:00:00
TRACK 07 AUDIO
TITLE "I Have A Dream"
PERFORMER "ABBA"
INDEX 00 04:11:59
FILE "07 - I Have A Dream.wav" WAVE
INDEX 01 00:00:00
TRACK 08 AUDIO
TITLE "The Winner Takes It All"
PERFORMER "ABBA"
INDEX 00 04:43:40
FILE "08 - The Winner Takes It All.wav" WAVE
INDEX 01 00:00:00
TRACK 09 AUDIO
TITLE "Money, Money, Money"
PERFORMER "ABBA"
INDEX 00 04:55:21
FILE "09 - Money, Money, Money.wav" WAVE
INDEX 01 00:00:00
TRACK 10 AUDIO
TITLE "SOS"
PERFORMER "ABBA"
INDEX 00 03:06:59
FILE "10 - SOS.wav" WAVE
INDEX 01 00:00:00
TRACK 11 AUDIO
TITLE "Chiquitita"
PERFORMER "ABBA"
INDEX 00 03:21:27
FILE "11 - Chiquitita.wav" WAVE
INDEX 01 00:00:00
TRACK 12 AUDIO
TITLE "Fernando"
PERFORMER "ABBA"
INDEX 00 05:25:68
FILE "12 - Fernando.wav" WAVE
INDEX 01 00:00:00
TRACK 13 AUDIO
TITLE "Voulez-Vous"
PERFORMER "ABBA"
INDEX 00 04:12:57
FILE "13 - Voulez-Vous.wav" WAVE
INDEX 01 00:00:00
TRACK 14 AUDIO
TITLE "Gimme! Gimme! Gimme! (A Man After Midnight)"
PERFORMER "ABBA"
INDEX 00 05:06:59
FILE "14 - Gimme! Gimme! Gimme! (A Man After Midnight).wav" WAVE
INDEX 01 00:00:00
TRACK 15 AUDIO
TITLE "Does Your Mother Know"
PERFORMER "ABBA"
INDEX 00 04:49:12
FILE "15 - Does Your Mother Know.wav" WAVE
INDEX 01 00:00:00
TRACK 16 AUDIO
TITLE "One Of Us"
PERFORMER "ABBA"
INDEX 00 03:13:42
FILE "16 - One Of Us.wav" WAVE
INDEX 01 00:00:00
TRACK 17 AUDIO
TITLE "The Name Of The Game"
PERFORMER "ABBA"
INDEX 00 03:54:43
FILE "17 - The Name Of The Game.wav" WAVE
INDEX 01 00:00:00
TRACK 18 AUDIO
TITLE "Thank You For The Music"
PERFORMER "ABBA"
INDEX 00 04:52:34
FILE "18 - Thank You For The Music.wav" WAVE
INDEX 01 00:00:00
TRACK 19 AUDIO
TITLE "Waterloo"
PERFORMER "ABBA"
INDEX 00 03:48:46
FILE "19 - Waterloo.wav" WAVE
INDEX 01 00:00:00
"Лог Audiochecker"
AUDIOCHECKER v2.0 beta (build 457) - by Dester - [email protected]
~~~~~~~~~~~~~~~~~~~~~~~~~~~~~~~~~~
-=== НЕ РЕДАКТИРУЙТЕ ЭТОТ ФАЙЛ! ===-
Путь: ...\CD2 - ABBA GOLD Greatest hits
01 -=- 01 - Dancing Queen.flac -=- CDDA (100%)
02 -=- 02 - Knowing Me, Knowing You.flac -=- CDDA (100%)
03 -=- 03 - Take A Chance On Me.flac -=- CDDA (99%)
04 -=- 04 - Mamma Mia.flac -=- CDDA (100%)
05 -=- 05 - Lay All Your Love On Me.flac -=- CDDA (100%)
06 -=- 06 - Super Trouper.flac -=- CDDA (100%)
07 -=- 07 - I Have A Dream.flac -=- CDDA (100%)
08 -=- 08 - The Winner Takes It All.flac -=- CDDA (100%)
09 -=- 09 - Money, Money, Money.flac -=- CDDA (100%)
10 -=- 10 - SOS.flac -=- CDDA (100%)
11 -=- 11 - Chiquitita.flac -=- CDDA (100%)
12 -=- 12 - Fernando.flac -=- CDDA (99%)
13 -=- 13 - Voulez-Vous.flac -=- CDDA (100%)
14 -=- 14 - Gimme! Gimme! Gimme! (A Man After Midnight).flac -=- CDDA (100%)
15 -=- 15 - Does Your Mother Know.flac -=- CDDA (100%)
16 -=- 16 - One Of Us.flac -=- CDDA (100%)
17 -=- 17 - The Name Of The Game.flac -=- CDDA (100%)
18 -=- 18 - Thank You For The Music.flac -=- CDDA (100%)
19 -=- 19 - Waterloo.flac -=- CDDA (100%)
Сводка 99,89% CDDA
112759732
Мы помогаем людям, чтобы они, в свою очередь, помогли нам; таким образом, наши услуги сводятся просто к благодеяниям, которые мы загодя оказываем самим себе. (Франсуа де Ларошфуко)
Download / Скачать

Хотите скачать бесплатно? Зарегистрируйтесь на сайте (ссылка на регистрацию). Pirat.ca - самый быстрый торрент трекер в рунете!

Как скачивать  ·   Что такое торрент  ·   Рейтинг и ограничения

Показать сообщения:    
Ответить на тему

Текущее время: Сегодня 13:41

Часовой пояс: GMT + 4



Вы не можете начинать темы
Вы не можете отвечать на сообщения
Вы не можете редактировать свои сообщения
Вы не можете удалять свои сообщения
Вы не можете голосовать в опросах
Вы не можете прикреплять файлы к сообщениям
Вы не можете скачивать файлы

▼ Вниз