Уважаемый Гость!
Вы можете поддержать проект и зарегистрироваться у наших партнеров - онлайн-стратегия MyLands. При регистрации в игре Вы получите код, который сможете активировать после регистрации на pirat.ca и получить 1000 дублонов.

Ваш код:
6e74277781110e9b49c3c0dd24e1bed54391613e
 
     

(Avantgarde-Pop) Army of Lovers - Studio Discography (1991-1994), 4 issues, FLAC (tracks+.cue) lossless

Ответить на тему
 
Автор
Сообщение

Пост 04-Фев-2013 17:26

[Q] 

Kote Makaradze

ARMY OF LOVERSstudio discography (1991-1994) -Жанр: Avantgarde-Pop / Страна: Sweden / Производство: USA/EU / Аудио кодек: FLAC / Тип рипа: tracks+.cue / Битрейт аудио: lossless / Сканы: 600 dpi .png-
ARMY OF LOVERS- Дата выпуска: 1991
Издание: USA, Giant/Reprise, 9 24425-2
Продолжительность: 57:30-01. Birds Of Prey 1:10
02. Ride The Bullet 3:45
03. Supernatural 3:58
04. Viva La Vogue 3:32
05. Shoot That Laserbeam 4:22
06. Love Me Like A Loaded Gun 4:57
07. Baby's Bot A Neutron Bomb 3:23
08. Love Revolution 3:57
09. Scorpio Rising 4:32
10. Mondo Trasho 4:23
11. Dog 4:04
12. My Army Of Lovers 3:27
13. Hey Mr DJ 3:45
14. I Am The Amazon 4:13
15. Planet Coma 3AM 3:54
-
X Lossless Decoder version 20121222 (142.2)
XLD extraction logfile from 2012-12-26 21:21:43 +0300
Army of Lovers / Army of Lovers (9 24425-2)
Used drive : HL-DT-ST DVDRAM GE20NU11 (revision CN01)
Media type : Pressed CD
Ripper mode : XLD Secure Ripper
Disable audio cache : OK for the drive with a cache less than 1375KiB
Make use of C2 pointers : NO
Read offset correction : 667
Max retry count : 20
Gap status : Analyzed, Appended
TOC of the extracted CD
Track | Start | Length | Start sector | End sector
---------------------------------------------------------
1 | 00:00:32 | 01:10:28 | 32 | 5309
2 | 01:10:60 | 03:45:72 | 5310 | 22256
3 | 04:56:57 | 03:58:10 | 22257 | 40116
4 | 08:54:67 | 03:32:60 | 40117 | 56076
5 | 12:27:52 | 04:22:33 | 56077 | 75759
6 | 16:50:10 | 04:57:52 | 75760 | 98086
7 | 21:47:62 | 03:23:10 | 98087 | 113321
8 | 25:10:72 | 03:57:40 | 113322 | 131136
9 | 29:08:37 | 04:32:45 | 131137 | 151581
10 | 33:41:07 | 04:23:70 | 151582 | 171376
11 | 38:05:02 | 04:04:30 | 171377 | 189706
12 | 42:09:32 | 03:27:15 | 189707 | 205246
13 | 45:36:47 | 03:45:55 | 205247 | 222176
14 | 49:22:27 | 04:13:23 | 222177 | 241174
15 | 53:35:50 | 03:54:65 | 241175 | 258789
AccurateRip Summary (DiscID: 001e3eca-015e5a13-c20d7a0f)
Track 01 : OK (v1, confidence 4/4)
Track 02 : OK (v1, confidence 4/4)
Track 03 : OK (v1, confidence 4/4)
Track 04 : OK (v1, confidence 4/4)
Track 05 : OK (v1, confidence 4/4)
Track 06 : OK (v1, confidence 4/4)
Track 07 : OK (v1, confidence 4/4)
Track 08 : OK (v1, confidence 4/4)
Track 09 : OK (v1, confidence 4/4)
Track 10 : OK (v1, confidence 4/4)
Track 11 : OK (v1, confidence 4/4)
Track 12 : OK (v1, confidence 4/4)
Track 13 : OK (v1, confidence 4/4)
Track 14 : OK (v1, confidence 4/4)
Track 15 : OK (v1, confidence 3/3)
->All tracks accurately ripped.
All Tracks
Album gain : -2.88 dB
Peak : 1.000000
Statistics
Read error : 0
Jitter error (maybe fixed) : 0
Retry sector count : 0
Damaged sector count : 0
Track 01
Filename : /OdW/Army of Lovers (1991) Army of Lovers (9 24425-2)/01. Birds of Prey.flac
Pre-gap length : 00:02:32
Track gain : -0.72 dB
Peak : 0.712860
CRC32 hash (test run) : B18CD92B
CRC32 hash : B18CD92B
CRC32 hash (skip zero) : 6F8D1CC6
AccurateRip v1 signature : 95712E93
AccurateRip v2 signature : 11398218
->Accurately ripped (v1, confidence 4/4)
Statistics
Read error : 0
Jitter error (maybe fixed) : 0
Retry sector count : 0
Damaged sector count : 0
Track 02
Filename : /OdW/Army of Lovers (1991) Army of Lovers (9 24425-2)/02. Ride the Bullet.flac
Track gain : -4.33 dB
Peak : 0.999268
CRC32 hash (test run) : 33486BCF
CRC32 hash : 33486BCF
CRC32 hash (skip zero) : 12155A03
AccurateRip v1 signature : B34A08AD
AccurateRip v2 signature : F80F943F
->Accurately ripped (v1, confidence 4/4)
Statistics
Read error : 0
Jitter error (maybe fixed) : 0
Retry sector count : 0
Damaged sector count : 0
Track 03
Filename : /OdW/Army of Lovers (1991) Army of Lovers (9 24425-2)/03. Supernatural.flac
Pre-gap length : 00:02:65
Track gain : -5.71 dB
Peak : 0.997742
CRC32 hash (test run) : 5A921199
CRC32 hash : 5A921199
CRC32 hash (skip zero) : 43FB7BA2
AccurateRip v1 signature : 58308D77
AccurateRip v2 signature : 8FBEDED9
->Accurately ripped (v1, confidence 4/4)
Statistics
Read error : 0
Jitter error (maybe fixed) : 0
Retry sector count : 0
Damaged sector count : 0
Track 04
Filename : /OdW/Army of Lovers (1991) Army of Lovers (9 24425-2)/04. Viva La Vogue.flac
Pre-gap length : 00:02:32
Track gain : -1.68 dB
Peak : 0.999329
CRC32 hash (test run) : BB0EE279
CRC32 hash : BB0EE279
CRC32 hash (skip zero) : FCA4BFB0
AccurateRip v1 signature : 5DD9FED4
AccurateRip v2 signature : 276E3433
->Accurately ripped (v1, confidence 4/4)
Statistics
Read error : 0
Jitter error (maybe fixed) : 0
Retry sector count : 0
Damaged sector count : 0
Track 05
Filename : /OdW/Army of Lovers (1991) Army of Lovers (9 24425-2)/05. Shoot That Laserbeam.flac
Track gain : -0.22 dB
Peak : 0.996368
CRC32 hash (test run) : 82955F46
CRC32 hash : 82955F46
CRC32 hash (skip zero) : 6A5E2986
AccurateRip v1 signature : 07F44606
AccurateRip v2 signature : FB5BD5D6
->Accurately ripped (v1, confidence 4/4)
Statistics
Read error : 0
Jitter error (maybe fixed) : 0
Retry sector count : 0
Damaged sector count : 0
Track 06
Filename : /OdW/Army of Lovers (1991) Army of Lovers (9 24425-2)/06. Love Me Like A Loaded Gun.flac
Track gain : -0.06 dB
Peak : 0.903564
CRC32 hash (test run) : 507E3B2A
CRC32 hash : 507E3B2A
CRC32 hash (skip zero) : 8A7ACBA1
AccurateRip v1 signature : 802DB60A
AccurateRip v2 signature : 3904421B
->Accurately ripped (v1, confidence 4/4)
Statistics
Read error : 0
Jitter error (maybe fixed) : 0
Retry sector count : 0
Damaged sector count : 0
Track 07
Filename : /OdW/Army of Lovers (1991) Army of Lovers (9 24425-2)/07. Baby's Got a Neutron Bomb.flac
Track gain : -1.48 dB
Peak : 0.997559
CRC32 hash (test run) : D1CFCA07
CRC32 hash : D1CFCA07
CRC32 hash (skip zero) : 404A0432
AccurateRip v1 signature : EBC61DFD
AccurateRip v2 signature : A77E188D
->Accurately ripped (v1, confidence 4/4)
Statistics
Read error : 0
Jitter error (maybe fixed) : 0
Retry sector count : 0
Damaged sector count : 0
Track 08
Filename : /OdW/Army of Lovers (1991) Army of Lovers (9 24425-2)/08. Love Revolution.flac
Track gain : -3.30 dB
Peak : 0.998047
CRC32 hash (test run) : AA702B67
CRC32 hash : AA702B67
CRC32 hash (skip zero) : 52799C74
AccurateRip v1 signature : 48D8D0E1
AccurateRip v2 signature : EFD404B7
->Accurately ripped (v1, confidence 4/4)
Statistics
Read error : 0
Jitter error (maybe fixed) : 0
Retry sector count : 0
Damaged sector count : 0
Track 09
Filename : /OdW/Army of Lovers (1991) Army of Lovers (9 24425-2)/09. Scorpio Rising.flac
Pre-gap length : 00:00:10
Track gain : -0.26 dB
Peak : 0.999268
CRC32 hash (test run) : 93DF90F0
CRC32 hash : 93DF90F0
CRC32 hash (skip zero) : 725E3A09
AccurateRip v1 signature : E7C8A092
AccurateRip v2 signature : C5714483
->Accurately ripped (v1, confidence 4/4)
Statistics
Read error : 0
Jitter error (maybe fixed) : 0
Retry sector count : 0
Damaged sector count : 0
Track 10
Filename : /OdW/Army of Lovers (1991) Army of Lovers (9 24425-2)/10. Mondo Trasho.flac
Pre-gap length : 00:00:12
Track gain : 0.08 dB
Peak : 0.875305
CRC32 hash (test run) : A39D8FD2
CRC32 hash : A39D8FD2
CRC32 hash (skip zero) : 19F753E9
AccurateRip v1 signature : 8D6111A0
AccurateRip v2 signature : D9BBEBD2
->Accurately ripped (v1, confidence 4/4)
Statistics
Read error : 0
Jitter error (maybe fixed) : 0
Retry sector count : 0
Damaged sector count : 0
Track 11
Filename : /OdW/Army of Lovers (1991) Army of Lovers (9 24425-2)/11. Dog.flac
Track gain : 0.30 dB
Peak : 0.818848
CRC32 hash (test run) : 2A55517C
CRC32 hash : 2A55517C
CRC32 hash (skip zero) : 517A6F05
AccurateRip v1 signature : 25A1C9B8
AccurateRip v2 signature : 37F76A33
->Accurately ripped (v1, confidence 4/4)
Statistics
Read error : 0
Jitter error (maybe fixed) : 0
Retry sector count : 0
Damaged sector count : 0
Track 12
Filename : /OdW/Army of Lovers (1991) Army of Lovers (9 24425-2)/12. My Army of Lovers.flac
Pre-gap length : 00:02:27
Track gain : 0.10 dB
Peak : 0.840790
CRC32 hash (test run) : 4379DF43
CRC32 hash : 4379DF43
CRC32 hash (skip zero) : FC67E2F3
AccurateRip v1 signature : D8C3FDD7
AccurateRip v2 signature : 42AFE290
->Accurately ripped (v1, confidence 4/4)
Statistics
Read error : 0
Jitter error (maybe fixed) : 0
Retry sector count : 0
Damaged sector count : 0
Track 13
Filename : /OdW/Army of Lovers (1991) Army of Lovers (9 24425-2)/13. Hey Mr DJ.flac
Track gain : -2.20 dB
Peak : 0.936859
CRC32 hash (test run) : 971C9338
CRC32 hash : 971C9338
CRC32 hash (skip zero) : 7D7A7F24
AccurateRip v1 signature : F43D7691
AccurateRip v2 signature : EABC94E0
->Accurately ripped (v1, confidence 4/4)
Statistics
Read error : 0
Jitter error (maybe fixed) : 0
Retry sector count : 0
Damaged sector count : 0
Track 14
Filename : /OdW/Army of Lovers (1991) Army of Lovers (9 24425-2)/14. I am the Amazon.flac
Track gain : -1.66 dB
Peak : 1.000000
CRC32 hash (test run) : A2BFDBCB
CRC32 hash : A2BFDBCB
CRC32 hash (skip zero) : 39E6D258
AccurateRip v1 signature : 05A129F6
AccurateRip v2 signature : 6077E988
->Accurately ripped (v1, confidence 4/4)
Statistics
Read error : 0
Jitter error (maybe fixed) : 0
Retry sector count : 0
Damaged sector count : 0
Track 15
Filename : /OdW/Army of Lovers (1991) Army of Lovers (9 24425-2)/15. Planet Coma 3AM.flac
Track gain : -0.49 dB
Peak : 0.794678
CRC32 hash (test run) : 081D29E8
CRC32 hash : 081D29E8
CRC32 hash (skip zero) : D11BA76C
AccurateRip v1 signature : E45FD42D
AccurateRip v2 signature : D4D9B9F5
->Accurately ripped (v1, confidence 3/3)
Statistics
Read error : 0
Jitter error (maybe fixed) : 0
Retry sector count : 0
Damaged sector count : 0
No errors occurred
End of status report
-----BEGIN XLD SIGNATURE-----
GsPKtdzVQO.oYyI2Ia.b9H0198.lVgCoWbZ6oQapnNzQu7In5ZklXdIFIwGPpOzgfC2ZDtGtfJKY9PTpm.DSn9YDsksWyjeTMXsdB4y
-----END XLD SIGNATURE-----
TITLE "Army of Lovers (9 24425-2)"
PERFORMER "Army of Lovers"
CATALOG 0075992442527
REM GENRE "Pop"
REM DATE "1991"
REM DISCNUMBER 1
REM TOTALDISCS 1
REM DISCID C20D7A0F
REM REPLAYGAIN_ALBUM_GAIN -2.88 dB
REM REPLAYGAIN_ALBUM_PEAK 1.000000
FILE "01. Birds of Prey.flac" WAVE
TRACK 01 AUDIO
TITLE "Birds of Prey"
PERFORMER "Army of Lovers"
SONGWRITER "HELLMAN"
REM REPLAYGAIN_TRACK_GAIN -0.72 dB
REM REPLAYGAIN_TRACK_PEAK 0.712860
INDEX 00 00:00:00
INDEX 01 00:00:32
FILE "02. Ride the Bullet.flac" WAVE
TRACK 02 AUDIO
TITLE "Ride the Bullet"
PERFORMER "Army of Lovers"
REM REPLAYGAIN_TRACK_GAIN -4.33 dB
REM REPLAYGAIN_TRACK_PEAK 0.999268
INDEX 01 00:00:00
TRACK 03 AUDIO
TITLE "Supernatural"
PERFORMER "Army of Lovers"
REM REPLAYGAIN_TRACK_GAIN -5.71 dB
REM REPLAYGAIN_TRACK_PEAK 0.997742
INDEX 00 03:43:07
FILE "03. Supernatural.flac" WAVE
INDEX 01 00:00:00
TRACK 04 AUDIO
TITLE "Viva La Vogue"
PERFORMER "Army of Lovers"
REM REPLAYGAIN_TRACK_GAIN -1.68 dB
REM REPLAYGAIN_TRACK_PEAK 0.999329
INDEX 00 03:55:53
FILE "04. Viva La Vogue.flac" WAVE
INDEX 01 00:00:00
FILE "05. Shoot That Laserbeam.flac" WAVE
TRACK 05 AUDIO
TITLE "Shoot That Laserbeam"
PERFORMER "Army of Lovers"
REM REPLAYGAIN_TRACK_GAIN -0.22 dB
REM REPLAYGAIN_TRACK_PEAK 0.996368
INDEX 01 00:00:00
FILE "06. Love Me Like A Loaded Gun.flac" WAVE
TRACK 06 AUDIO
TITLE "Love Me Like A Loaded Gun"
PERFORMER "Army of Lovers"
REM REPLAYGAIN_TRACK_GAIN -0.06 dB
REM REPLAYGAIN_TRACK_PEAK 0.903564
INDEX 01 00:00:00
FILE "07. Baby's Got a Neutron Bomb.flac" WAVE
TRACK 07 AUDIO
TITLE "Baby's Got a Neutron Bomb"
PERFORMER "Army of Lovers"
REM REPLAYGAIN_TRACK_GAIN -1.48 dB
REM REPLAYGAIN_TRACK_PEAK 0.997559
INDEX 01 00:00:00
FILE "08. Love Revolution.flac" WAVE
TRACK 08 AUDIO
TITLE "Love Revolution"
PERFORMER "Army of Lovers"
REM REPLAYGAIN_TRACK_GAIN -3.30 dB
REM REPLAYGAIN_TRACK_PEAK 0.998047
INDEX 01 00:00:00
TRACK 09 AUDIO
TITLE "Scorpio Rising"
PERFORMER "Army of Lovers"
REM REPLAYGAIN_TRACK_GAIN -0.26 dB
REM REPLAYGAIN_TRACK_PEAK 0.999268
INDEX 00 03:57:30
FILE "09. Scorpio Rising.flac" WAVE
INDEX 01 00:00:00
TRACK 10 AUDIO
TITLE "Mondo Trasho"
PERFORMER "Army of Lovers"
REM REPLAYGAIN_TRACK_GAIN 0.08 dB
REM REPLAYGAIN_TRACK_PEAK 0.875305
INDEX 00 04:32:33
FILE "10. Mondo Trasho.flac" WAVE
INDEX 01 00:00:00
FILE "11. Dog.flac" WAVE
TRACK 11 AUDIO
TITLE "Dog"
PERFORMER "Army of Lovers"
REM REPLAYGAIN_TRACK_GAIN 0.30 dB
REM REPLAYGAIN_TRACK_PEAK 0.818848
INDEX 01 00:00:00
TRACK 12 AUDIO
TITLE "My Army of Lovers"
PERFORMER "Army of Lovers"
SONGWRITER "Ola Haansson/Alexander Bard/Peo Thynn"
REM REPLAYGAIN_TRACK_GAIN 0.10 dB
REM REPLAYGAIN_TRACK_PEAK 0.840790
INDEX 00 04:02:03
FILE "12. My Army of Lovers.flac" WAVE
INDEX 01 00:00:00
FILE "13. Hey Mr DJ.flac" WAVE
TRACK 13 AUDIO
TITLE "Hey Mr DJ"
PERFORMER "Army of Lovers"
REM REPLAYGAIN_TRACK_GAIN -2.20 dB
REM REPLAYGAIN_TRACK_PEAK 0.936859
INDEX 01 00:00:00
FILE "14. I am the Amazon.flac" WAVE
TRACK 14 AUDIO
TITLE "I am the Amazon"
PERFORMER "Army of Lovers"
REM REPLAYGAIN_TRACK_GAIN -1.66 dB
REM REPLAYGAIN_TRACK_PEAK 1.000000
INDEX 01 00:00:00
FILE "15. Planet Coma 3AM.flac" WAVE
TRACK 15 AUDIO
TITLE "Planet Coma 3AM"
PERFORMER "Army of Lovers"
REM REPLAYGAIN_TRACK_GAIN -0.49 dB
REM REPLAYGAIN_TRACK_PEAK 0.794678
INDEX 01 00:00:00
[CUETools log; Date: 27.12.2012 19:04:19; Version: 2.1.4]
Pregap length 00:00:32.
[CTDB TOCID: 2cgYbJXbmwOVCe99D2TpUFNGbyI-] found.
Track | CTDB Status
1 | (2/2) Accurately ripped
2 | (2/2) Accurately ripped
3 | (2/2) Accurately ripped
4 | (2/2) Accurately ripped
5 | (2/2) Accurately ripped
6 | (2/2) Accurately ripped
7 | (2/2) Accurately ripped
8 | (2/2) Accurately ripped
9 | (2/2) Accurately ripped
10 | (2/2) Accurately ripped
11 | (2/2) Accurately ripped
12 | (2/2) Accurately ripped
13 | (2/2) Accurately ripped
14 | (2/2) Accurately ripped
15 | (2/2) Accurately ripped
[AccurateRip ID: 001e3eca-015e5a13-c20d7a0f] found.
Track [ CRC | V2 ] Status
01 [95712e93|11398218] (4+0/4) Accurately ripped
02 [b34a08ad|f80f943f] (4+0/4) Accurately ripped
03 [58308d77|8fbeded9] (4+0/4) Accurately ripped
04 [5dd9fed4|276e3433] (4+0/4) Accurately ripped
05 [07f44606|fb5bd5d6] (4+0/4) Accurately ripped
06 [802db60a|3904421b] (4+0/4) Accurately ripped
07 [ebc61dfd|a77e188d] (4+0/4) Accurately ripped
08 [48d8d0e1|efd404b7] (4+0/4) Accurately ripped
09 [e7c8a092|c5714483] (4+0/4) Accurately ripped
10 [8d6111a0|d9bbebd2] (4+0/4) Accurately ripped
11 [25a1c9b8|37f76a33] (4+0/4) Accurately ripped
12 [d8c3fdd7|42afe290] (4+0/4) Accurately ripped
13 [f43d7691|eabc94e0] (4+0/4) Accurately ripped
14 [05a129f6|6077e988] (4+0/4) Accurately ripped
15 [e45fd42d|d4d9b9f5] (3+0/3) Accurately ripped
Track Peak [ CRC32 ] [W/O NULL]
-- 100,0 [E0C8BCFD] [AF71E51B]
01 71,2 [B18CD92B] [6F8D1CC6]
02 99,9 [33486BCF] [12155A03]
03 99,7 [5A921199] [43FB7BA2]
04 99,9 [BB0EE279] [FCA4BFB0]
05 99,6 [82955F46] [6A5E2986]
06 90,3 [507E3B2A] [8A7ACBA1]
07 99,7 [D1CFCA07] [404A0432]
08 99,8 [AA702B67] [52799C74]
09 99,9 [93DF90F0] [725E3A09]
10 87,5 [A39D8FD2] [19F753E9]
11 81,8 [2A55517C] [517A6F05]
12 84,0 [4379DF43] [FC67E2F3]
13 93,6 [971C9338] [7D7A7F24]
14 100,0 [A2BFDBCB] [39E6D258]
15 79,4 [081D29E8] [D11BA76C]
-
MASSIVE LUXURY OVERDOSE- Дата выпуска: 1992
Издание: USA, Giant/Reprise, 9 24448-2
Продолжительность: 45:26-01. Dynasty Of Planet Chromada 3:58
02. Crucified 3:34
03. Candyman Messiah 3:10
04. Obsession 3:42
05. We Stand United 3:42
06. Say Goodbye To Babylon 4:35
07. The Particle Song 3:29
08. Someone Somewhere 3:16
09. I Cross The Rubicon 4:04
10. Flying High 3:42
11. Walking With A Zombie 4:10
12. Judgment Day 3:57
-
X Lossless Decoder version 20121222 (142.2)
XLD extraction logfile from 2012-12-26 22:26:35 +0300
Army of Lovers / Massive Luxury Overdose (9 24448-2)
Used drive : HL-DT-ST DVDRAM GE20NU11 (revision CN01)
Media type : Pressed CD
Ripper mode : XLD Secure Ripper
Disable audio cache : OK for the drive with a cache less than 1375KiB
Make use of C2 pointers : NO
Read offset correction : 667
Max retry count : 20
Gap status : Analyzed, Appended
TOC of the extracted CD
Track | Start | Length | Start sector | End sector
---------------------------------------------------------
1 | 00:00:32 | 03:58:33 | 32 | 17914
2 | 03:58:65 | 03:34:27 | 17915 | 33991
3 | 07:33:17 | 03:10:18 | 33992 | 48259
4 | 10:43:35 | 03:42:22 | 48260 | 64931
5 | 14:25:57 | 03:42:50 | 64932 | 81631
6 | 18:08:32 | 04:35:35 | 81632 | 102291
7 | 22:43:67 | 03:29:38 | 102292 | 118004
8 | 26:13:30 | 03:16:60 | 118005 | 132764
9 | 29:30:15 | 04:04:62 | 132765 | 151126
10 | 33:35:02 | 03:42:58 | 151127 | 167834
11 | 37:17:60 | 04:10:70 | 167835 | 186654
12 | 41:28:55 | 03:57:57 | 186655 | 204486
AccurateRip Summary (DiscID: 0013fce9-00bb02c9-9f0aa60c)
Track 01 : OK (v1, confidence 14/14)
Track 02 : OK (v1, confidence 15/15)
Track 03 : OK (v1, confidence 15/15)
Track 04 : OK (v1, confidence 15/15)
Track 05 : OK (v1, confidence 15/15)
Track 06 : OK (v1, confidence 15/15)
Track 07 : OK (v1, confidence 15/15)
Track 08 : OK (v1, confidence 15/15)
Track 09 : OK (v1, confidence 15/15)
Track 10 : OK (v1, confidence 15/15)
Track 11 : OK (v1, confidence 14/14)
Track 12 : OK (v1, confidence 13/13)
->All tracks accurately ripped.
All Tracks
Album gain : -3.23 dB
Peak : 1.000000
Statistics
Read error : 0
Jitter error (maybe fixed) : 0
Retry sector count : 0
Damaged sector count : 0
Track 01
Filename : /OdW/Army of Lovers (1992) Massive Luxury Overdose (9 24448-2)/01. Dynasty of Planet Chromada.flac
Pre-gap length : 00:02:32
Track gain : -3.27 dB
Peak : 0.972900
CRC32 hash (test run) : C86B9992
CRC32 hash : C86B9992
CRC32 hash (skip zero) : E41504A0
AccurateRip v1 signature : 7775084C
AccurateRip v2 signature : 9B18F53A
->Accurately ripped (v1, confidence 14/14)
Statistics
Read error : 0
Jitter error (maybe fixed) : 0
Retry sector count : 0
Damaged sector count : 0
Track 02
Filename : /OdW/Army of Lovers (1992) Massive Luxury Overdose (9 24448-2)/02. Crucified.flac
Pre-gap length : 00:01:33
Track gain : -2.24 dB
Peak : 0.786377
CRC32 hash (test run) : C5CF39E9
CRC32 hash : C5CF39E9
CRC32 hash (skip zero) : 94D15E72
AccurateRip v1 signature : BBA92F41
AccurateRip v2 signature : 6EA101E2
->Accurately ripped (v1, confidence 15/15)
Statistics
Read error : 0
Jitter error (maybe fixed) : 0
Retry sector count : 0
Damaged sector count : 0
Track 03
Filename : /OdW/Army of Lovers (1992) Massive Luxury Overdose (9 24448-2)/03. Candyman Messiah.flac
Pre-gap length : 00:01:12
Track gain : -2.36 dB
Peak : 0.848541
CRC32 hash (test run) : FC78BF86
CRC32 hash : FC78BF86
CRC32 hash (skip zero) : 5281A3F1
AccurateRip v1 signature : 3ED91ACB
AccurateRip v2 signature : 8107F8D6
->Accurately ripped (v1, confidence 15/15)
Statistics
Read error : 0
Jitter error (maybe fixed) : 0
Retry sector count : 0
Damaged sector count : 0
Track 04
Filename : /OdW/Army of Lovers (1992) Massive Luxury Overdose (9 24448-2)/04. Obsession.flac
Pre-gap length : 00:01:00
Track gain : -1.20 dB
Peak : 0.859802
CRC32 hash (test run) : 77D40A06
CRC32 hash : 77D40A06
CRC32 hash (skip zero) : EC16181F
AccurateRip v1 signature : 5AE46A37
AccurateRip v2 signature : 6D18259F
->Accurately ripped (v1, confidence 15/15)
Statistics
Read error : 0
Jitter error (maybe fixed) : 0
Retry sector count : 0
Damaged sector count : 0
Track 05
Filename : /OdW/Army of Lovers (1992) Massive Luxury Overdose (9 24448-2)/05. We Stand United.flac
Pre-gap length : 00:00:72
Track gain : -2.89 dB
Peak : 0.972900
CRC32 hash (test run) : D6456D72
CRC32 hash : D6456D72
CRC32 hash (skip zero) : 12F6667B
AccurateRip v1 signature : 4E7BBEA7
AccurateRip v2 signature : F4AFADAC
->Accurately ripped (v1, confidence 15/15)
Statistics
Read error : 0
Jitter error (maybe fixed) : 0
Retry sector count : 0
Damaged sector count : 0
Track 06
Filename : /OdW/Army of Lovers (1992) Massive Luxury Overdose (9 24448-2)/06. Say Goodbye to Babylon.flac
Pre-gap length : 00:01:00
Track gain : -4.04 dB
Peak : 0.999969
CRC32 hash (test run) : DEFF722A
CRC32 hash : DEFF722A
CRC32 hash (skip zero) : 2CDA1128
AccurateRip v1 signature : 1475E5FF
AccurateRip v2 signature : 2949A846
->Accurately ripped (v1, confidence 15/15)
Statistics
Read error : 0
Jitter error (maybe fixed) : 0
Retry sector count : 0
Damaged sector count : 0
Track 07
Filename : /OdW/Army of Lovers (1992) Massive Luxury Overdose (9 24448-2)/07. The Particle Song.flac
Pre-gap length : 00:00:67
Track gain : -4.52 dB
Peak : 1.000000
CRC32 hash (test run) : 9DFD71B0
CRC32 hash : 9DFD71B0
CRC32 hash (skip zero) : 7B391699
AccurateRip v1 signature : F60AFFD2
AccurateRip v2 signature : 311D6A07
->Accurately ripped (v1, confidence 15/15)
Statistics
Read error : 0
Jitter error (maybe fixed) : 0
Retry sector count : 0
Damaged sector count : 0
Track 08
Filename : /OdW/Army of Lovers (1992) Massive Luxury Overdose (9 24448-2)/08. Someone Somewhere.flac
Pre-gap length : 00:01:03
Track gain : -1.91 dB
Peak : 0.901367
CRC32 hash (test run) : 0C92FB28
CRC32 hash : 0C92FB28
CRC32 hash (skip zero) : 60670DD3
AccurateRip v1 signature : ABC0A732
AccurateRip v2 signature : B41B53CA
->Accurately ripped (v1, confidence 15/15)
Statistics
Read error : 0
Jitter error (maybe fixed) : 0
Retry sector count : 0
Damaged sector count : 0
Track 09
Filename : /OdW/Army of Lovers (1992) Massive Luxury Overdose (9 24448-2)/09. I Cross the Rubicon.flac
Pre-gap length : 00:00:43
Track gain : -3.05 dB
Peak : 0.926849
CRC32 hash (test run) : 8AAC829E
CRC32 hash : 8AAC829E
CRC32 hash (skip zero) : 30FDC6AC
AccurateRip v1 signature : 5F186631
AccurateRip v2 signature : 3CCE717A
->Accurately ripped (v1, confidence 15/15)
Statistics
Read error : 0
Jitter error (maybe fixed) : 0
Retry sector count : 0
Damaged sector count : 0
Track 10
Filename : /OdW/Army of Lovers (1992) Massive Luxury Overdose (9 24448-2)/10. Flying High.flac
Pre-gap length : 00:01:12
Track gain : -2.80 dB
Peak : 0.972900
CRC32 hash (test run) : D5597049
CRC32 hash : D5597049
CRC32 hash (skip zero) : 1A989C06
AccurateRip v1 signature : 6E022F65
AccurateRip v2 signature : E76A8930
->Accurately ripped (v1, confidence 15/15)
Statistics
Read error : 0
Jitter error (maybe fixed) : 0
Retry sector count : 0
Damaged sector count : 0
Track 11
Filename : /OdW/Army of Lovers (1992) Massive Luxury Overdose (9 24448-2)/11. Walking with a Zombie.flac
Pre-gap length : 00:00:40
Track gain : -3.33 dB
Peak : 0.929199
CRC32 hash (test run) : B0692A98
CRC32 hash : B0692A98
CRC32 hash (skip zero) : 42963282
AccurateRip v1 signature : 2ED1E7B3
AccurateRip v2 signature : 00E7F65A
->Accurately ripped (v1, confidence 14/14)
Statistics
Read error : 0
Jitter error (maybe fixed) : 0
Retry sector count : 0
Damaged sector count : 0
Track 12
Filename : /OdW/Army of Lovers (1992) Massive Luxury Overdose (9 24448-2)/12. Judgement Day.flac
Pre-gap length : 00:00:73
Track gain : -3.47 dB
Peak : 1.000000
CRC32 hash (test run) : 1D7A6C1A
CRC32 hash : 1D7A6C1A
CRC32 hash (skip zero) : B72223E0
AccurateRip v1 signature : 33704A3A
AccurateRip v2 signature : 7C07CF6E
->Accurately ripped (v1, confidence 13/13)
Statistics
Read error : 0
Jitter error (maybe fixed) : 0
Retry sector count : 0
Damaged sector count : 0
No errors occurred
End of status report
-----BEGIN XLD SIGNATURE-----
vZKKe22xU1YgDYuovzZkJl8kkADXXyR50x81s2lJjpUc1wBdJlc71RW99d8_QEvJulzrgiKfzixUuTpi9NrKpPX98v9re8zIBmeMm4m
-----END XLD SIGNATURE-----
TITLE "Massive Luxury Overdose (9 24448-2)"
PERFORMER "Army of Lovers"
CATALOG 0075992444828
REM GENRE "Pop"
REM DATE "1992"
REM DISCNUMBER 1
REM TOTALDISCS 1
REM DISCID 9F0AA60C
REM REPLAYGAIN_ALBUM_GAIN -3.23 dB
REM REPLAYGAIN_ALBUM_PEAK 1.000000
FILE "01. Dynasty of Planet Chromada.flac" WAVE
TRACK 01 AUDIO
TITLE "Dynasty of Planet Chromada"
REM REPLAYGAIN_TRACK_GAIN -3.27 dB
REM REPLAYGAIN_TRACK_PEAK 0.972900
INDEX 00 00:00:00
INDEX 01 00:00:32
TRACK 02 AUDIO
TITLE "Crucified"
REM REPLAYGAIN_TRACK_GAIN -2.24 dB
REM REPLAYGAIN_TRACK_PEAK 0.786377
INDEX 00 03:57:32
FILE "02. Crucified.flac" WAVE
INDEX 01 00:00:00
TRACK 03 AUDIO
TITLE "Candyman Messiah"
REM REPLAYGAIN_TRACK_GAIN -2.36 dB
REM REPLAYGAIN_TRACK_PEAK 0.848541
INDEX 00 03:33:15
FILE "03. Candyman Messiah.flac" WAVE
INDEX 01 00:00:00
TRACK 04 AUDIO
TITLE "Obsession"
REM REPLAYGAIN_TRACK_GAIN -1.20 dB
REM REPLAYGAIN_TRACK_PEAK 0.859802
INDEX 00 03:09:18
FILE "04. Obsession.flac" WAVE
INDEX 01 00:00:00
TRACK 05 AUDIO
TITLE "We Stand United"
REM REPLAYGAIN_TRACK_GAIN -2.89 dB
REM REPLAYGAIN_TRACK_PEAK 0.972900
INDEX 00 03:41:25
FILE "05. We Stand United.flac" WAVE
INDEX 01 00:00:00
TRACK 06 AUDIO
TITLE "Say Goodbye to Babylon"
REM REPLAYGAIN_TRACK_GAIN -4.04 dB
REM REPLAYGAIN_TRACK_PEAK 0.999969
INDEX 00 03:41:50
FILE "06. Say Goodbye to Babylon.flac" WAVE
INDEX 01 00:00:00
TRACK 07 AUDIO
TITLE "The Particle Song"
REM REPLAYGAIN_TRACK_GAIN -4.52 dB
REM REPLAYGAIN_TRACK_PEAK 1.000000
INDEX 00 04:34:43
FILE "07. The Particle Song.flac" WAVE
INDEX 01 00:00:00
TRACK 08 AUDIO
TITLE "Someone Somewhere"
REM REPLAYGAIN_TRACK_GAIN -1.91 dB
REM REPLAYGAIN_TRACK_PEAK 0.901367
INDEX 00 03:28:35
FILE "08. Someone Somewhere.flac" WAVE
INDEX 01 00:00:00
TRACK 09 AUDIO
TITLE "I Cross the Rubicon"
REM REPLAYGAIN_TRACK_GAIN -3.05 dB
REM REPLAYGAIN_TRACK_PEAK 0.926849
INDEX 00 03:16:17
FILE "09. I Cross the Rubicon.flac" WAVE
INDEX 01 00:00:00
TRACK 10 AUDIO
TITLE "Flying High"
REM REPLAYGAIN_TRACK_GAIN -2.80 dB
REM REPLAYGAIN_TRACK_PEAK 0.972900
INDEX 00 04:03:50
FILE "10. Flying High.flac" WAVE
INDEX 01 00:00:00
TRACK 11 AUDIO
TITLE "Walking with a Zombie"
REM REPLAYGAIN_TRACK_GAIN -3.33 dB
REM REPLAYGAIN_TRACK_PEAK 0.929199
INDEX 00 03:42:18
FILE "11. Walking with a Zombie.flac" WAVE
INDEX 01 00:00:00
TRACK 12 AUDIO
TITLE "Judgement Day"
REM REPLAYGAIN_TRACK_GAIN -3.47 dB
REM REPLAYGAIN_TRACK_PEAK 1.000000
INDEX 00 04:09:72
FILE "12. Judgement Day.flac" WAVE
INDEX 01 00:00:00
[CUETools log; Date: 27.12.2012 19:09:28; Version: 2.1.4]
Pregap length 00:00:32.
[CTDB TOCID: y0ZBtKol5VHT.YC4Sggln3nzo7A-] found.
Track | CTDB Status
1 | (1/1) Accurately ripped
2 | (1/1) Accurately ripped
3 | (1/1) Accurately ripped
4 | (1/1) Accurately ripped
5 | (1/1) Accurately ripped
6 | (1/1) Accurately ripped
7 | (1/1) Accurately ripped
8 | (1/1) Accurately ripped
9 | (1/1) Accurately ripped
10 | (1/1) Accurately ripped
11 | (1/1) Accurately ripped
12 | (1/1) Accurately ripped
[AccurateRip ID: 0013fce9-00bb02c9-9f0aa60c] found.
Track [ CRC | V2 ] Status
01 [7775084c|9b18f53a] (14+00/14) Accurately ripped
02 [bba92f41|6ea101e2] (15+00/15) Accurately ripped
03 [3ed91acb|8107f8d6] (15+00/15) Accurately ripped
04 [5ae46a37|6d18259f] (15+00/15) Accurately ripped
05 [4e7bbea7|f4afadac] (15+00/15) Accurately ripped
06 [1475e5ff|2949a846] (15+00/15) Accurately ripped
07 [f60affd2|311d6a07] (15+00/15) Accurately ripped
08 [abc0a732|b41b53ca] (15+00/15) Accurately ripped
09 [5f186631|3cce717a] (15+00/15) Accurately ripped
10 [6e022f65|e76a8930] (15+00/15) Accurately ripped
11 [2ed1e7b3|00e7f65a] (14+00/14) Accurately ripped
12 [33704a3a|7c07cf6e] (13+00/13) Accurately ripped
Track Peak [ CRC32 ] [W/O NULL]
-- 100,0 [ACD7AD90] [943379BF]
01 97,2 [C86B9992] [E41504A0]
02 78,6 [C5CF39E9] [94D15E72]
03 84,8 [FC78BF86] [5281A3F1]
04 85,9 [77D40A06] [EC16181F]
05 97,2 [D6456D72] [12F6667B]
06 100,0 [DEFF722A] [2CDA1128]
07 100,0 [9DFD71B0] [7B391699]
08 90,1 [0C92FB28] [60670DD3]
09 92,6 [8AAC829E] [30FDC6AC]
10 97,2 [D5597049] [1A989C06]
11 92,9 [B0692A98] [42963282]
12 100,0 [1D7A6C1A] [B72223E0]
-
The Gods of Earth and Heaven- Дата выпуска: 1993
Издание: Germany, Stockholm, 519 133-2
Продолжительность: 46:34-01. Chihuahuas On Parade 0:41
02. We Are The Universe 3:41
03. La Plage De Saint-Tropez 3:32
04. I Am 3:54
05. Le Portrait De Jean-Pierre 0:44
06. Israelism 3:20
07. The Grand Fatigue 3:32
08. Carry My Urn To Ukraine 4:04
09. Sebastien 3:33
10. La Storia Di O 0:45
11. Blood In The Chapel 3:16
12. The Ballad Of Marie Curie 3:48
13. Heterosexuality 4:10
14. Sons Of Lucy 3:02
15. Also Sprach Alexander 0:35
16. The Day The Gods Help Us All 3:45
-
X Lossless Decoder version 20121222 (142.2)
XLD extraction logfile from 2012-12-26 23:08:17 +0300
Army Of Lovers / The Gods Of Earth And Heaven (519 133-2)
Used drive : HL-DT-ST DVDRAM GE20NU11 (revision CN01)
Media type : Pressed CD
Ripper mode : XLD Secure Ripper
Disable audio cache : OK for the drive with a cache less than 1375KiB
Make use of C2 pointers : NO
Read offset correction : 667
Max retry count : 20
Gap status : Analyzed, Appended
TOC of the extracted CD
Track | Start | Length | Start sector | End sector
---------------------------------------------------------
1 | 00:00:00 | 00:41:12 | 0 | 3086
2 | 00:41:12 | 03:41:23 | 3087 | 19684
3 | 04:22:35 | 03:31:55 | 19685 | 35564
4 | 07:54:15 | 03:55:07 | 35565 | 53196
5 | 11:49:22 | 00:44:10 | 53197 | 56506
6 | 12:33:32 | 03:22:03 | 56507 | 71659
7 | 15:55:35 | 03:33:07 | 71660 | 87641
8 | 19:28:42 | 04:04:40 | 87642 | 105981
9 | 23:33:07 | 03:35:38 | 105982 | 122144
10 | 27:08:45 | 00:45:10 | 122145 | 125529
11 | 27:53:55 | 03:17:12 | 125530 | 140316
12 | 31:10:67 | 03:49:58 | 140317 | 157549
13 | 35:00:50 | 04:09:67 | 157550 | 176291
14 | 39:10:42 | 03:02:68 | 176292 | 190009
15 | 42:13:35 | 00:35:62 | 190010 | 192696
16 | 42:49:22 | 03:45:33 | 192697 | 209604
AccurateRip Summary (DiscID: 001aaa0f-01448634-c70aea10)
Track 01 : OK (v1+v2, confidence 36/36)
Track 02 : OK (v1+v2, confidence 36/36)
Track 03 : OK (v1+v2, confidence 36/36)
Track 04 : OK (v1+v2, confidence 36/36)
Track 05 : OK (v1+v2, confidence 36/36)
Track 06 : OK (v1+v2, confidence 36/36)
Track 07 : OK (v1+v2, confidence 36/36)
Track 08 : OK (v1+v2, confidence 36/36)
Track 09 : OK (v1+v2, confidence 36/36)
Track 10 : OK (v1+v2, confidence 36/36)
Track 11 : OK (v1+v2, confidence 36/36)
Track 12 : OK (v1+v2, confidence 34/34)
Track 13 : OK (v1+v2, confidence 35/35)
Track 14 : OK (v1+v2, confidence 35/35)
Track 15 : OK (v1+v2, confidence 35/35)
Track 16 : OK (v1+v2, confidence 35/35)
->All tracks accurately ripped.
All Tracks
Album gain : -7.07 dB
Peak : 1.000000
Statistics
Read error : 0
Jitter error (maybe fixed) : 0
Retry sector count : 0
Damaged sector count : 0
Track 01
Filename : /OdW/Army of Lovers (1993) The Gods Of Earth And Heaven (519 133-2)/01. Chihuahuas On Parade.flac
Pre-gap length : 00:02:00
Track gain : -0.21 dB
Peak : 0.926392
CRC32 hash (test run) : 36429FBA
CRC32 hash : 36429FBA
CRC32 hash (skip zero) : 4CCE2043
AccurateRip v1 signature : 81976EB4
AccurateRip v2 signature : 3B20310C
->Accurately ripped (v1+v2, confidence 31+5/36)
Statistics
Read error : 0
Jitter error (maybe fixed) : 0
Retry sector count : 0
Damaged sector count : 0
Track 02
Filename : /OdW/Army of Lovers (1993) The Gods Of Earth And Heaven (519 133-2)/02. We Are The Universe.flac
Track gain : -6.49 dB
Peak : 1.000000
CRC32 hash (test run) : F8E17D61
CRC32 hash : F8E17D61
CRC32 hash (skip zero) : 93D25187
AccurateRip v1 signature : 81AE2BE8
AccurateRip v2 signature : 4EB6A6EA
->Accurately ripped (v1+v2, confidence 31+5/36)
Statistics
Read error : 0
Jitter error (maybe fixed) : 0
Retry sector count : 0
Damaged sector count : 0
Track 03
Filename : /OdW/Army of Lovers (1993) The Gods Of Earth And Heaven (519 133-2)/03. La Plage De Saint Tropez.flac
Track gain : -6.85 dB
Peak : 1.000000
CRC32 hash (test run) : AE2E9D86
CRC32 hash : AE2E9D86
CRC32 hash (skip zero) : 597A96E9
AccurateRip v1 signature : BC2AB452
AccurateRip v2 signature : A3800214
->Accurately ripped (v1+v2, confidence 31+5/36)
Statistics
Read error : 0
Jitter error (maybe fixed) : 0
Retry sector count : 0
Damaged sector count : 0
Track 04
Filename : /OdW/Army of Lovers (1993) The Gods Of Earth And Heaven (519 133-2)/04. I Am.flac
Track gain : -5.68 dB
Peak : 1.000000
CRC32 hash (test run) : C0101752
CRC32 hash : C0101752
CRC32 hash (skip zero) : D2D929B7
AccurateRip v1 signature : 671D86A3
AccurateRip v2 signature : 055FB8AE
->Accurately ripped (v1+v2, confidence 31+5/36)
Statistics
Read error : 0
Jitter error (maybe fixed) : 0
Retry sector count : 0
Damaged sector count : 0
Track 05
Filename : /OdW/Army of Lovers (1993) The Gods Of Earth And Heaven (519 133-2)/05. Le Portrait De Jean-Pierre.flac
Track gain : -0.24 dB
Peak : 0.709564
CRC32 hash (test run) : 866DE838
CRC32 hash : 866DE838
CRC32 hash (skip zero) : 6859109F
AccurateRip v1 signature : E868F148
AccurateRip v2 signature : 11648BBB
->Accurately ripped (v1+v2, confidence 31+5/36)
Statistics
Read error : 0
Jitter error (maybe fixed) : 0
Retry sector count : 0
Damaged sector count : 0
Track 06
Filename : /OdW/Army of Lovers (1993) The Gods Of Earth And Heaven (519 133-2)/06. Israelism.flac
Track gain : -8.13 dB
Peak : 1.000000
CRC32 hash (test run) : 7B849A45
CRC32 hash : 7B849A45
CRC32 hash (skip zero) : 32D70AC9
AccurateRip v1 signature : E5CB81CA
AccurateRip v2 signature : 71B0BFF3
->Accurately ripped (v1+v2, confidence 31+5/36)
Statistics
Read error : 0
Jitter error (maybe fixed) : 0
Retry sector count : 0
Damaged sector count : 0
Track 07
Filename : /OdW/Army of Lovers (1993) The Gods Of Earth And Heaven (519 133-2)/07. The Grand Fatigue.flac
Track gain : -5.47 dB
Peak : 1.000000
CRC32 hash (test run) : E5CE52CC
CRC32 hash : E5CE52CC
CRC32 hash (skip zero) : 67797A32
AccurateRip v1 signature : 38D9F195
AccurateRip v2 signature : 766B7FBB
->Accurately ripped (v1+v2, confidence 31+5/36)
Statistics
Read error : 0
Jitter error (maybe fixed) : 0
Retry sector count : 0
Damaged sector count : 0
Track 08
Filename : /OdW/Army of Lovers (1993) The Gods Of Earth And Heaven (519 133-2)/08. Carry My Urn To Ukraine.flac
Track gain : -6.41 dB
Peak : 0.964081
CRC32 hash (test run) : 7DEA93F2
CRC32 hash : 7DEA93F2
CRC32 hash (skip zero) : F9A8B16C
AccurateRip v1 signature : 5807C37C
AccurateRip v2 signature : 20A4C482
->Accurately ripped (v1+v2, confidence 31+5/36)
Statistics
Read error : 0
Jitter error (maybe fixed) : 0
Retry sector count : 0
Damaged sector count : 0
Track 09
Filename : /OdW/Army of Lovers (1993) The Gods Of Earth And Heaven (519 133-2)/09. Sebastien.flac
Pre-gap length : 00:01:02
Track gain : -7.01 dB
Peak : 1.000000
CRC32 hash (test run) : 60750E45
CRC32 hash : 60750E45
CRC32 hash (skip zero) : 9EE29945
AccurateRip v1 signature : 407CAD42
AccurateRip v2 signature : 0E2EE2FF
->Accurately ripped (v1+v2, confidence 31+5/36)
Statistics
Read error : 0
Jitter error (maybe fixed) : 0
Retry sector count : 0
Damaged sector count : 0
Track 10
Filename : /OdW/Army of Lovers (1993) The Gods Of Earth And Heaven (519 133-2)/10. La Storia Di O.flac
Pre-gap length : 00:01:05
Track gain : -1.17 dB
Peak : 0.930908
CRC32 hash (test run) : BC616E29
CRC32 hash : BC616E29
CRC32 hash (skip zero) : E1C5E663
AccurateRip v1 signature : 3439105A
AccurateRip v2 signature : 8BCE1DE2
->Accurately ripped (v1+v2, confidence 31+5/36)
Statistics
Read error : 0
Jitter error (maybe fixed) : 0
Retry sector count : 0
Damaged sector count : 0
Track 11
Filename : /OdW/Army of Lovers (1993) The Gods Of Earth And Heaven (519 133-2)/11. Blood In The Chapel.flac
Track gain : -7.16 dB
Peak : 1.000000
CRC32 hash (test run) : 0EDA747B
CRC32 hash : 0EDA747B
CRC32 hash (skip zero) : 2C6E50DB
AccurateRip v1 signature : 67742504
AccurateRip v2 signature : 4B345280
->Accurately ripped (v1+v2, confidence 31+5/36)
Statistics
Read error : 0
Jitter error (maybe fixed) : 0
Retry sector count : 0
Damaged sector count : 0
Track 12
Filename : /OdW/Army of Lovers (1993) The Gods Of Earth And Heaven (519 133-2)/12. The Ballad Of Marie Curie.flac
Track gain : -5.93 dB
Peak : 1.000000
CRC32 hash (test run) : FAC5869A
CRC32 hash : FAC5869A
CRC32 hash (skip zero) : A2A9039C
AccurateRip v1 signature : 7BB29EE2
AccurateRip v2 signature : 12D26790
->Accurately ripped (v1+v2, confidence 29+5/34)
Statistics
Read error : 0
Jitter error (maybe fixed) : 0
Retry sector count : 0
Damaged sector count : 0
Track 13
Filename : /OdW/Army of Lovers (1993) The Gods Of Earth And Heaven (519 133-2)/13. Heterosexuality.flac
Pre-gap length : 00:00:55
Track gain : -6.33 dB
Peak : 1.000000
CRC32 hash (test run) : 6E619AFA
CRC32 hash : 6E619AFA
CRC32 hash (skip zero) : 6DEA7C57
AccurateRip v1 signature : 3A5903B7
AccurateRip v2 signature : 15D4FAEA
->Accurately ripped (v1+v2, confidence 30+5/35)
Statistics
Read error : 0
Jitter error (maybe fixed) : 0
Retry sector count : 0
Damaged sector count : 0
Track 14
Filename : /OdW/Army of Lovers (1993) The Gods Of Earth And Heaven (519 133-2)/14. Sons Of Lucy.flac
Track gain : -8.50 dB
Peak : 1.000000
CRC32 hash (test run) : 07B266E9
CRC32 hash : 07B266E9
CRC32 hash (skip zero) : 431E09E3
AccurateRip v1 signature : 6F00CDD1
AccurateRip v2 signature : 1CFD45F3
->Accurately ripped (v1+v2, confidence 30+5/35)
Statistics
Read error : 0
Jitter error (maybe fixed) : 0
Retry sector count : 0
Damaged sector count : 0
Track 15
Filename : /OdW/Army of Lovers (1993) The Gods Of Earth And Heaven (519 133-2)/15. Also Sprach Alexander.flac
Track gain : 1.99 dB
Peak : 0.541962
CRC32 hash (test run) : E304397A
CRC32 hash : E304397A
CRC32 hash (skip zero) : 418E1DE3
AccurateRip v1 signature : 006F3B52
AccurateRip v2 signature : CEBEC538
->Accurately ripped (v1+v2, confidence 30+5/35)
Statistics
Read error : 0
Jitter error (maybe fixed) : 0
Retry sector count : 0
Damaged sector count : 0
Track 16
Filename : /OdW/Army of Lovers (1993) The Gods Of Earth And Heaven (519 133-2)/16. The Day The Gods Help Us All.flac
Track gain : -7.49 dB
Peak : 0.999969
CRC32 hash (test run) : EAD759BC
CRC32 hash : EAD759BC
CRC32 hash (skip zero) : DBC4D2AE
AccurateRip v1 signature : 1840D81C
AccurateRip v2 signature : 3D9C5B35
->Accurately ripped (v1+v2, confidence 30+5/35)
Statistics
Read error : 0
Jitter error (maybe fixed) : 0
Retry sector count : 0
Damaged sector count : 0
No errors occurred
End of status report
-----BEGIN XLD SIGNATURE-----
1UnoE78IY6Yj61daEWrfa5Wr.yqrel4LynIaFOCxAB4Uy2pcu4el.ekmlUHELl1znbHG.1f_5BU4hFxK960wZICNWbg8vikg9PnbcnC
-----END XLD SIGNATURE-----
TITLE "The Gods Of Earth And Heaven (519 133-2)"
PERFORMER "Army Of Lovers"
CATALOG 0731451913327
REM GENRE "Pop"
REM DATE "1993"
REM DISCNUMBER 1
REM TOTALDISCS 1
REM DISCID C70AEA10
REM REPLAYGAIN_ALBUM_GAIN -7.07 dB
REM REPLAYGAIN_ALBUM_PEAK 1.000000
FILE "01. Chihuahuas On Parade.flac" WAVE
TRACK 01 AUDIO
TITLE "Chihuahuas On Parade"
ISRC SEBFT9301020
REM REPLAYGAIN_TRACK_GAIN -0.21 dB
REM REPLAYGAIN_TRACK_PEAK 0.926392
INDEX 01 00:00:00
FILE "02. We Are The Universe.flac" WAVE
TRACK 02 AUDIO
TITLE "We Are The Universe"
ISRC SEBFT9301030
REM REPLAYGAIN_TRACK_GAIN -6.49 dB
REM REPLAYGAIN_TRACK_PEAK 1.000000
INDEX 01 00:00:00
FILE "03. La Plage De Saint Tropez.flac" WAVE
TRACK 03 AUDIO
TITLE "La Plage De Saint Tropez"
ISRC SEBFT9301040
REM REPLAYGAIN_TRACK_GAIN -6.85 dB
REM REPLAYGAIN_TRACK_PEAK 1.000000
INDEX 01 00:00:00
FILE "04. I Am.flac" WAVE
TRACK 04 AUDIO
TITLE "I Am"
ISRC SEBFT9301050
REM REPLAYGAIN_TRACK_GAIN -5.68 dB
REM REPLAYGAIN_TRACK_PEAK 1.000000
INDEX 01 00:00:00
FILE "05. Le Portrait De Jean-Pierre.flac" WAVE
TRACK 05 AUDIO
TITLE "Le Portrait De Jean-Pierre"
ISRC SEBFT9301060
REM REPLAYGAIN_TRACK_GAIN -0.24 dB
REM REPLAYGAIN_TRACK_PEAK 0.709564
INDEX 01 00:00:00
FILE "06. Israelism.flac" WAVE
TRACK 06 AUDIO
TITLE "Israelism"
ISRC SEBFT9301010
REM REPLAYGAIN_TRACK_GAIN -8.13 dB
REM REPLAYGAIN_TRACK_PEAK 1.000000
INDEX 01 00:00:00
FILE "07. The Grand Fatigue.flac" WAVE
TRACK 07 AUDIO
TITLE "The Grand Fatigue"
ISRC SEBFT9301070
REM REPLAYGAIN_TRACK_GAIN -5.47 dB
REM REPLAYGAIN_TRACK_PEAK 1.000000
INDEX 01 00:00:00
FILE "08. Carry My Urn To Ukraine.flac" WAVE
TRACK 08 AUDIO
TITLE "Carry My Urn To Ukraine"
ISRC SEBFT9301080
REM REPLAYGAIN_TRACK_GAIN -6.41 dB
REM REPLAYGAIN_TRACK_PEAK 0.964081
INDEX 01 00:00:00
TRACK 09 AUDIO
TITLE "Sebastien"
ISRC SEBFT9301090
REM REPLAYGAIN_TRACK_GAIN -7.01 dB
REM REPLAYGAIN_TRACK_PEAK 1.000000
INDEX 00 04:03:38
FILE "09. Sebastien.flac" WAVE
INDEX 01 00:00:00
TRACK 10 AUDIO
TITLE "La Storia Di O"
ISRC SEBFT9301100
REM REPLAYGAIN_TRACK_GAIN -1.17 dB
REM REPLAYGAIN_TRACK_PEAK 0.930908
INDEX 00 03:34:33
FILE "10. La Storia Di O.flac" WAVE
INDEX 01 00:00:00
FILE "11. Blood In The Chapel.flac" WAVE
TRACK 11 AUDIO
TITLE "Blood In The Chapel"
ISRC SEBFT9301110
REM REPLAYGAIN_TRACK_GAIN -7.16 dB
REM REPLAYGAIN_TRACK_PEAK 1.000000
INDEX 01 00:00:00
FILE "12. The Ballad Of Marie Curie.flac" WAVE
TRACK 12 AUDIO
TITLE "The Ballad Of Marie Curie"
ISRC SEBFT9301120
REM REPLAYGAIN_TRACK_GAIN -5.93 dB
REM REPLAYGAIN_TRACK_PEAK 1.000000
INDEX 01 00:00:00
TRACK 13 AUDIO
TITLE "Heterosexuality"
ISRC SEBFT9301130
REM REPLAYGAIN_TRACK_GAIN -6.33 dB
REM REPLAYGAIN_TRACK_PEAK 1.000000
INDEX 00 03:49:03
FILE "13. Heterosexuality.flac" WAVE
INDEX 01 00:00:00
FILE "14. Sons Of Lucy.flac" WAVE
TRACK 14 AUDIO
TITLE "Sons Of Lucy"
ISRC SEBFT9301140
REM REPLAYGAIN_TRACK_GAIN -8.50 dB
REM REPLAYGAIN_TRACK_PEAK 1.000000
INDEX 01 00:00:00
FILE "15. Also Sprach Alexander.flac" WAVE
TRACK 15 AUDIO
TITLE "Also Sprach Alexander"
ISRC SEBFT9301150
REM REPLAYGAIN_TRACK_GAIN 1.99 dB
REM REPLAYGAIN_TRACK_PEAK 0.541962
INDEX 01 00:00:00
FILE "16. The Day The Gods Help Us All.flac" WAVE
TRACK 16 AUDIO
TITLE "The Day The Gods Help Us All"
ISRC SEBFT9301160
REM REPLAYGAIN_TRACK_GAIN -7.49 dB
REM REPLAYGAIN_TRACK_PEAK 0.999969
INDEX 01 00:00:00
[CUETools log; Date: 27.12.2012 19:16:33; Version: 2.1.4]
[CTDB TOCID: 600kmufqG7LLO1kAXE9G.QF7b34-] found.
Track | CTDB Status
1 | (8/8) Accurately ripped
2 | (8/8) Accurately ripped
3 | (8/8) Accurately ripped
4 | (8/8) Accurately ripped
5 | (8/8) Accurately ripped
6 | (8/8) Accurately ripped
7 | (8/8) Accurately ripped
8 | (8/8) Accurately ripped
9 | (8/8) Accurately ripped
10 | (8/8) Accurately ripped
11 | (8/8) Accurately ripped
12 | (8/8) Accurately ripped
13 | (8/8) Accurately ripped
14 | (8/8) Accurately ripped
15 | (8/8) Accurately ripped
16 | (8/8) Accurately ripped
[AccurateRip ID: 001aaa0f-01448634-c70aea10] found.
Track [ CRC | V2 ] Status
01 [81976eb4|3b20310c] (31+05/36) Accurately ripped
02 [81ae2be8|4eb6a6ea] (31+05/36) Accurately ripped
03 [bc2ab452|a3800214] (31+05/36) Accurately ripped
04 [671d86a3|055fb8ae] (31+05/36) Accurately ripped
05 [e868f148|11648bbb] (31+05/36) Accurately ripped
06 [e5cb81ca|71b0bff3] (31+05/36) Accurately ripped
07 [38d9f195|766b7fbb] (31+05/36) Accurately ripped
08 [5807c37c|20a4c482] (31+05/36) Accurately ripped
09 [407cad42|0e2ee2ff] (31+05/36) Accurately ripped
10 [3439105a|8bce1de2] (31+05/36) Accurately ripped
11 [67742504|4b345280] (31+05/36) Accurately ripped
12 [7bb29ee2|12d26790] (29+05/34) Accurately ripped
13 [3a5903b7|15d4faea] (30+05/35) Accurately ripped
14 [6f00cdd1|1cfd45f3] (30+05/35) Accurately ripped
15 [006f3b52|cebec538] (30+05/35) Accurately ripped
16 [1840d81c|3d9c5b35] (30+05/35) Accurately ripped
Track Peak [ CRC32 ] [W/O NULL]
-- 100,0 [0528BD15] [A5106692]
01 92,6 [36429FBA] [4CCE2043]
02 100,0 [F8E17D61] [93D25187]
03 100,0 [AE2E9D86] [597A96E9]
04 100,0 [C0101752] [D2D929B7]
05 70,9 [866DE838] [6859109F]
06 100,0 [7B849A45] [32D70AC9]
07 100,0 [E5CE52CC] [67797A32]
08 96,4 [7DEA93F2] [F9A8B16C]
09 100,0 [60750E45] [9EE29945]
10 93,0 [BC616E29] [E1C5E663]
11 100,0 [0EDA747B] [2C6E50DB]
12 100,0 [FAC5869A] [A2A9039C]
13 100,0 [6E619AFA] [6DEA7C57]
14 100,0 [07B266E9] [431E09E3]
15 54,1 [E304397A] [418E1DE3]
16 100,0 [EAD759BC] [DBC4D2AE]
-
Glory Glamour and Gold- Дата выпуска: 1993
Издание: Germany, Stockholm, 519 133-2
Продолжительность: 46:34-01. Hurrah Hurrah Apocalypse 5:33
02. Sexual Revolution 3:47
03. Stand Up For Myself 4:02
04. Lit De Parade (Video Edit) 3:16
05. Life Is Fantastic 4:04
06. Mr. Battyman 3:12
07. C'est D�mon 3:34
08. Shine Like A Star 3:41
09. You've Come A Long Way Baby 6:07
10. Ballrooms Of Versailles 3:27
11. Dub Evolution 4:21
12. Like A Virgin Sacrified 4:04
13. Lit De Parade (Radio Edit) 3:27
-
X Lossless Decoder version 20121222 (142.2)
XLD extraction logfile from 2012-12-27 01:56:32 +0300
Army Of Lovers / Glory Glamour And Gold (523 614-2)
Used drive : HL-DT-ST DVDRAM GE20NU11 (revision CN01)
Media type : Pressed CD
Ripper mode : XLD Secure Ripper
Disable audio cache : OK for the drive with a cache less than 1375KiB
Make use of C2 pointers : NO
Read offset correction : 667
Max retry count : 20
Gap status : Analyzed, Appended
TOC of the extracted CD
Track | Start | Length | Start sector | End sector
---------------------------------------------------------
1 | 00:00:32 | 05:33:53 | 32 | 25059
2 | 05:34:10 | 03:47:32 | 25060 | 42116
3 | 09:21:42 | 04:02:18 | 42117 | 60284
4 | 13:23:60 | 03:16:17 | 60285 | 75001
5 | 16:40:02 | 04:04:65 | 75002 | 93366
6 | 20:44:67 | 03:12:03 | 93367 | 107769
7 | 23:56:70 | 03:34:45 | 107770 | 123864
8 | 27:31:40 | 03:41:45 | 123865 | 140484
9 | 31:13:10 | 06:07:02 | 140485 | 168011
10 | 37:20:12 | 03:26:73 | 168012 | 183534
11 | 40:47:10 | 04:21:20 | 183535 | 203129
12 | 45:08:30 | 04:04:70 | 203130 | 221499
13 | 49:13:25 | 03:27:67 | 221500 | 237091
AccurateRip Summary (DiscID: 0019a764-00feca1b-a90c590d)
Track 01 : OK (v1, confidence 13/13)
Track 02 : OK (v1+v2, confidence 15/15)
Track 03 : OK (v1+v2, confidence 17/17)
Track 04 : OK (v1+v2, confidence 15/15)
Track 05 : OK (v1+v2, confidence 16/16)
Track 06 : OK (v1+v2, confidence 15/15)
Track 07 : OK (v1+v2, confidence 15/15)
Track 08 : OK (v1+v2, confidence 15/15)
Track 09 : OK (v1+v2, confidence 16/16)
Track 10 : OK (v1+v2, confidence 16/16)
Track 11 : OK (v1+v2, confidence 15/15)
Track 12 : OK (v1+v2, confidence 16/16)
Track 13 : OK (v1+v2, confidence 15/15)
->All tracks accurately ripped.
All Tracks
Album gain : -6.96 dB
Peak : 1.000000
Statistics
Read error : 0
Jitter error (maybe fixed) : 0
Retry sector count : 0
Damaged sector count : 0
Track 01
Filename : /OdW/Army of Lovers (1994) Glory Glamour And Gold (523 614-2)/01. Hurrah Hurrah Apocalypse.flac
Pre-gap length : 00:02:32
Track gain : -5.60 dB
Peak : 1.000000
CRC32 hash (test run) : 940C336C
CRC32 hash : 940C336C
CRC32 hash (skip zero) : 1F2D1AB0
AccurateRip v1 signature : B24A59A5
AccurateRip v2 signature : 21CA78E1
->Accurately ripped (v1, confidence 13/13)
Statistics
Read error : 0
Jitter error (maybe fixed) : 0
Retry sector count : 0
Damaged sector count : 0
Track 02
Filename : /OdW/Army of Lovers (1994) Glory Glamour And Gold (523 614-2)/02. Sexual Revolution.flac
Pre-gap length : 00:01:48
Track gain : -7.57 dB
Peak : 1.000000
CRC32 hash (test run) : DB86B7AC
CRC32 hash : DB86B7AC
CRC32 hash (skip zero) : EC1C0B29
AccurateRip v1 signature : 2C186AEF
AccurateRip v2 signature : FF72B9E3
->Accurately ripped (v1+v2, confidence 13+2/15)
Statistics
Read error : 0
Jitter error (maybe fixed) : 0
Retry sector count : 0
Damaged sector count : 0
Track 03
Filename : /OdW/Army of Lovers (1994) Glory Glamour And Gold (523 614-2)/03. Stand Up For Myself.flac
Pre-gap length : 00:02:27
Track gain : -5.84 dB
Peak : 0.999969
CRC32 hash (test run) : A8337E46
CRC32 hash : A8337E46
CRC32 hash (skip zero) : 51042ECF
AccurateRip v1 signature : C0E2273B
AccurateRip v2 signature : 0E598C06
->Accurately ripped (v1+v2, confidence 14+3/17)
Statistics
Read error : 0
Jitter error (maybe fixed) : 0
Retry sector count : 0
Damaged sector count : 0
Track 04
Filename : /OdW/Army of Lovers (1994) Glory Glamour And Gold (523 614-2)/04. Lit De Parade (Video Edit).flac
Pre-gap length : 00:01:60
Track gain : -7.47 dB
Peak : 1.000000
CRC32 hash (test run) : 646D1F3C
CRC32 hash : 646D1F3C
CRC32 hash (skip zero) : 395C737C
AccurateRip v1 signature : 1458E96F
AccurateRip v2 signature : 62C821B8
->Accurately ripped (v1+v2, confidence 13+2/15)
Statistics
Read error : 0
Jitter error (maybe fixed) : 0
Retry sector count : 0
Damaged sector count : 0
Track 05
Filename : /OdW/Army of Lovers (1994) Glory Glamour And Gold (523 614-2)/05. Life Is Fantastic.flac
Track gain : -6.71 dB
Peak : 1.000000
CRC32 hash (test run) : 3150D3F6
CRC32 hash : 3150D3F6
CRC32 hash (skip zero) : 76856E13
AccurateRip v1 signature : 744C501E
AccurateRip v2 signature : 6BAD0E57
->Accurately ripped (v1+v2, confidence 14+2/16)
Statistics
Read error : 0
Jitter error (maybe fixed) : 0
Retry sector count : 0
Damaged sector count : 0
Track 06
Filename : /OdW/Army of Lovers (1994) Glory Glamour And Gold (523 614-2)/06. Mr Battyman.flac
Pre-gap length : 00:01:27
Track gain : -6.73 dB
Peak : 1.000000
CRC32 hash (test run) : 366D4379
CRC32 hash : 366D4379
CRC32 hash (skip zero) : 3F3793E2
AccurateRip v1 signature : 5BECACE5
AccurateRip v2 signature : 16495CA3
->Accurately ripped (v1+v2, confidence 13+2/15)
Statistics
Read error : 0
Jitter error (maybe fixed) : 0
Retry sector count : 0
Damaged sector count : 0
Track 07
Filename : /OdW/Army of Lovers (1994) Glory Glamour And Gold (523 614-2)/07. C'est Demon.flac
Track gain : -5.14 dB
Peak : 1.000000
CRC32 hash (test run) : 6ABBEFF3
CRC32 hash : 6ABBEFF3
CRC32 hash (skip zero) : C8DCE3CC
AccurateRip v1 signature : 12E8CF21
AccurateRip v2 signature : C89C858E
->Accurately ripped (v1+v2, confidence 13+2/15)
Statistics
Read error : 0
Jitter error (maybe fixed) : 0
Retry sector count : 0
Damaged sector count : 0
Track 08
Filename : /OdW/Army of Lovers (1994) Glory Glamour And Gold (523 614-2)/08. Shine Like A Star.flac
Pre-gap length : 00:02:13
Track gain : -8.49 dB
Peak : 1.000000
CRC32 hash (test run) : AE4685E8
CRC32 hash : AE4685E8
CRC32 hash (skip zero) : F0D0120F
AccurateRip v1 signature : 067EBB3B
AccurateRip v2 signature : C69731CA
->Accurately ripped (v1+v2, confidence 13+2/15)
Statistics
Read error : 0
Jitter error (maybe fixed) : 0
Retry sector count : 0
Damaged sector count : 0
Track 09
Filename : /OdW/Army of Lovers (1994) Glory Glamour And Gold (523 614-2)/09. You've Come A Long Way Baby.flac
Pre-gap length : 00:01:30
Track gain : -5.91 dB
Peak : 1.000000
CRC32 hash (test run) : 2B4FC671
CRC32 hash : 2B4FC671
CRC32 hash (skip zero) : 32E3ACA1
AccurateRip v1 signature : DC01B0EB
AccurateRip v2 signature : 48A0C7BF
->Accurately ripped (v1+v2, confidence 13+3/16)
Statistics
Read error : 0
Jitter error (maybe fixed) : 0
Retry sector count : 0
Damaged sector count : 0
Track 10
Filename : /OdW/Army of Lovers (1994) Glory Glamour And Gold (523 614-2)/10. Ballrooms Of Versailles.flac
Pre-gap length : 00:01:30
Track gain : -6.07 dB
Peak : 1.000000
CRC32 hash (test run) : 10AC9CAD
CRC32 hash : 10AC9CAD
CRC32 hash (skip zero) : C4213959
AccurateRip v1 signature : 388CA09B
AccurateRip v2 signature : 0DB4996B
->Accurately ripped (v1+v2, confidence 13+3/16)
Statistics
Read error : 0
Jitter error (maybe fixed) : 0
Retry sector count : 0
Damaged sector count : 0
Track 11
Filename : /OdW/Army of Lovers (1994) Glory Glamour And Gold (523 614-2)/11. Dub Evotion.flac
Pre-gap length : 00:01:18
Track gain : -6.59 dB
Peak : 1.000000
CRC32 hash (test run) : EE5B8601
CRC32 hash : EE5B8601
CRC32 hash (skip zero) : 75ECB3CE
AccurateRip v1 signature : B52BBCDE
AccurateRip v2 signature : 57EDE0A5
->Accurately ripped (v1+v2, confidence 13+2/15)
Statistics
Read error : 0
Jitter error (maybe fixed) : 0
Retry sector count : 0
Damaged sector count : 0
Track 12
Filename : /OdW/Army of Lovers (1994) Glory Glamour And Gold (523 614-2)/12. Like A Virgin Sacrified.flac
Pre-gap length : 00:01:40
Track gain : -7.41 dB
Peak : 1.000000
CRC32 hash (test run) : FC6F48CD
CRC32 hash : FC6F48CD
CRC32 hash (skip zero) : CBE61589
AccurateRip v1 signature : 6E58D056
AccurateRip v2 signature : 2AC57D52
->Accurately ripped (v1+v2, confidence 13+3/16)
Statistics
Read error : 0
Jitter error (maybe fixed) : 0
Retry sector count : 0
Damaged sector count : 0
Track 13
Filename : /OdW/Army of Lovers (1994) Glory Glamour And Gold (523 614-2)/13. Lit De Parade (Radio Edit).flac
Pre-gap length : 00:02:08
Track gain : -6.81 dB
Peak : 1.000000
CRC32 hash (test run) : 34DE2D21
CRC32 hash : 34DE2D21
CRC32 hash (skip zero) : CD27A932
AccurateRip v1 signature : 806F0853
AccurateRip v2 signature : 49D7885B
->Accurately ripped (v1+v2, confidence 13+2/15)
Statistics
Read error : 0
Jitter error (maybe fixed) : 0
Retry sector count : 0
Damaged sector count : 0
No errors occurred
End of status report
-----BEGIN XLD SIGNATURE-----
jF8ecKUR.V7XkaHW6BrxRE2mlCVZszJTB4.sB.yixCtHrOdbg322CHSe49vIieX7CqRtKft8H9Vl_iOhBImHcEn_rvW7M7LoY3SsO98
-----END XLD SIGNATURE-----
TITLE "Glory Glamour And Gold (523 614-2)"
PERFORMER "Army Of Lovers"
CATALOG 0731452361424
REM GENRE "Pop"
REM DATE "1994"
REM DISCNUMBER 1
REM TOTALDISCS 1
REM DISCID A90C590D
REM REPLAYGAIN_ALBUM_GAIN -6.96 dB
REM REPLAYGAIN_ALBUM_PEAK 1.000000
FILE "01. Hurrah Hurrah Apocalypse.flac" WAVE
TRACK 01 AUDIO
TITLE "Hurrah Hurrah Apocalypse"
SONGWRITER "Vasa"
ISRC SEBKA9401180
REM REPLAYGAIN_TRACK_GAIN -5.60 dB
REM REPLAYGAIN_TRACK_PEAK 1.000000
INDEX 00 00:00:00
INDEX 01 00:00:32
TRACK 02 AUDIO
TITLE "Sexual Revolution"
SONGWRITER "Dominika Peczynski/Alexander Bard/Anders Wollbeck/Jean-Pierre Barda/Michaela Dornonville De La Cour"
ISRC SEBKA9401190
REM REPLAYGAIN_TRACK_GAIN -7.57 dB
REM REPLAYGAIN_TRACK_PEAK 1.000000
INDEX 00 05:32:37
FILE "02. Sexual Revolution.flac" WAVE
INDEX 01 00:00:00
TRACK 03 AUDIO
TITLE "Stand Up For Myself"
SONGWRITER "Per Adebratt"
ISRC SEBKA9401200
REM REPLAYGAIN_TRACK_GAIN -5.84 dB
REM REPLAYGAIN_TRACK_PEAK 0.999969
INDEX 00 03:45:05
FILE "03. Stand Up For Myself.flac" WAVE
INDEX 01 00:00:00
TRACK 04 AUDIO
TITLE "Lit De Parade (Video Edit)"
SONGWRITER "Jean-Pierre Barda/Ola Håkansson/Vasa/Tim Norell"
ISRC SEBKA9401174
REM REPLAYGAIN_TRACK_GAIN -7.47 dB
REM REPLAYGAIN_TRACK_PEAK 1.000000
INDEX 00 04:00:33
FILE "04. Lit De Parade (Video Edit).flac" WAVE
INDEX 01 00:00:00
FILE "05. Life Is Fantastic.flac" WAVE
TRACK 05 AUDIO
TITLE "Life Is Fantastic"
SONGWRITER "Michaela Dornonville De La Cour/Anders Wollbeck/Alexander Bard"
ISRC SEBKA9401210
REM REPLAYGAIN_TRACK_GAIN -6.71 dB
REM REPLAYGAIN_TRACK_PEAK 1.000000
INDEX 01 00:00:00
TRACK 06 AUDIO
TITLE "Mr Battyman"
SONGWRITER "Per Adebratt/Dominika Peczynski/Jean-Pierre Barda"
ISRC SEBKA9401220
REM REPLAYGAIN_TRACK_GAIN -6.73 dB
REM REPLAYGAIN_TRACK_PEAK 1.000000
INDEX 00 04:03:38
FILE "06. Mr Battyman.flac" WAVE
INDEX 01 00:00:00
FILE "07. C'est Demon.flac" WAVE
TRACK 07 AUDIO
TITLE "C'est Demon"
ISRC SEBKA9401230
REM REPLAYGAIN_TRACK_GAIN -5.14 dB
REM REPLAYGAIN_TRACK_PEAK 1.000000
INDEX 01 00:00:00
TRACK 08 AUDIO
TITLE "Shine Like A Star"
SONGWRITER "Dominika Peczynski/Jean-Pierre Barda"
ISRC SEBKA9401240
REM REPLAYGAIN_TRACK_GAIN -8.49 dB
REM REPLAYGAIN_TRACK_PEAK 1.000000
INDEX 00 03:32:32
FILE "08. Shine Like A Star.flac" WAVE
INDEX 01 00:00:00
TRACK 09 AUDIO
TITLE "You've Come A Long Way Baby"
SONGWRITER "Jean-Pierre Barda/Dominika Peczynski"
ISRC SEBKA9401250
REM REPLAYGAIN_TRACK_GAIN -5.91 dB
REM REPLAYGAIN_TRACK_PEAK 1.000000
INDEX 00 03:40:15
FILE "09. You've Come A Long Way Baby.flac" WAVE
INDEX 01 00:00:00
TRACK 10 AUDIO
TITLE "Ballrooms Of Versailles"
SONGWRITER "Dominika Peczynski/Jean-Pierre Barda"
ISRC SEBKA9401260
REM REPLAYGAIN_TRACK_GAIN -6.07 dB
REM REPLAYGAIN_TRACK_PEAK 1.000000
INDEX 00 06:05:47
FILE "10. Ballrooms Of Versailles.flac" WAVE
INDEX 01 00:00:00
TRACK 11 AUDIO
TITLE "Dub Evotion"
SONGWRITER "Michaela Dornonville De La Cour/Jean-Pierre Barda/Dominika Peczynski"
ISRC SEBKA9401270
REM REPLAYGAIN_TRACK_GAIN -6.59 dB
REM REPLAYGAIN_TRACK_PEAK 1.000000
INDEX 00 03:25:55
FILE "11. Dub Evotion.flac" WAVE
INDEX 01 00:00:00
TRACK 12 AUDIO
TITLE "Like A Virgin Sacrified"
SONGWRITER "Dominika Peczynski/Jean-Pierre Barda/Michaela Dornonville De La Cour"
ISRC SEBKA9401280
REM REPLAYGAIN_TRACK_GAIN -7.41 dB
REM REPLAYGAIN_TRACK_PEAK 1.000000
INDEX 00 04:19:55
FILE "12. Like A Virgin Sacrified.flac" WAVE
INDEX 01 00:00:00
TRACK 13 AUDIO
TITLE "Lit De Parade (Radio Edit)"
SONGWRITER "Vasa/Jean-Pierre Barda/Alexander Bard/Anders Wollbeck/Tim Norell/Ola Håkansson"
ISRC SEBKA9401170
REM REPLAYGAIN_TRACK_GAIN -6.81 dB
REM REPLAYGAIN_TRACK_PEAK 1.000000
INDEX 00 04:02:62
FILE "13. Lit De Parade (Radio Edit).flac" WAVE
INDEX 01 00:00:00
[CUETools log; Date: 27.12.2012 19:46:41; Version: 2.1.4]
Pregap length 00:00:32.
[CTDB TOCID: QMSW2FDCOddG_7hgruDMQlO4CsM-] found.
Track | CTDB Status
1 | (2/2) Accurately ripped
2 | (2/2) Accurately ripped
3 | (2/2) Accurately ripped
4 | (2/2) Accurately ripped
5 | (2/2) Accurately ripped
6 | (2/2) Accurately ripped
7 | (2/2) Accurately ripped
8 | (2/2) Accurately ripped
9 | (2/2) Accurately ripped
10 | (2/2) Accurately ripped
11 | (2/2) Accurately ripped
12 | (2/2) Accurately ripped
13 | (2/2) Accurately ripped
[AccurateRip ID: 0019a764-00feca1b-a90c590d] found.
Track [ CRC | V2 ] Status
01 [b24a59a5|21ca78e1] (13+00/13) Accurately ripped
02 [2c186aef|ff72b9e3] (13+02/15) Accurately ripped
03 [c0e2273b|0e598c06] (14+03/17) Accurately ripped
04 [1458e96f|62c821b8] (13+02/15) Accurately ripped
05 [744c501e|6bad0e57] (14+02/16) Accurately ripped
06 [5becace5|16495ca3] (13+02/15) Accurately ripped
07 [12e8cf21|c89c858e] (13+02/15) Accurately ripped
08 [067ebb3b|c69731ca] (13+02/15) Accurately ripped
09 [dc01b0eb|48a0c7bf] (13+03/16) Accurately ripped
10 [388ca09b|0db4996b] (13+03/16) Accurately ripped
11 [b52bbcde|57ede0a5] (13+02/15) Accurately ripped
12 [6e58d056|2ac57d52] (13+03/16) Accurately ripped
13 [806f0853|49d7885b] (13+02/15) Accurately ripped
Track Peak [ CRC32 ] [W/O NULL]
-- 100,0 [D084DA16] [47EC7D02]
01 100,0 [940C336C] [1F2D1AB0]
02 100,0 [DB86B7AC] [EC1C0B29]
03 100,0 [A8337E46] [51042ECF]
04 100,0 [646D1F3C] [395C737C]
05 100,0 [3150D3F6] [76856E13]
06 100,0 [366D4379] [3F3793E2]
07 100,0 [6ABBEFF3] [C8DCE3CC]
08 100,0 [AE4685E8] [F0D0120F]
09 100,0 [2B4FC671] [32E3ACA1]
10 100,0 [10AC9CAD] [C4213959]
11 100,0 [EE5B8601] [75ECB3CE]
12 100,0 [FC6F48CD] [CBE61589]
13 100,0 [34DE2D21] [CD27A932]
-
Download / Скачать

Хотите скачать бесплатно? Зарегистрируйтесь на сайте (ссылка на регистрацию). Pirat.ca - самый быстрый торрент трекер в рунете!

Как скачивать  ·   Что такое торрент  ·   Рейтинг и ограничения

alexx2201

33

Пост 23-Апр-2015 00:18 (спустя 2 года 2 месяца)

[Q] 

эх молодось...

_________________
Одним ветром дышим, Пираты!
[Профиль]  [ЛС] 
Показать сообщения:    
Ответить на тему

Текущее время: Сегодня 13:38

Часовой пояс: GMT + 4



Вы не можете начинать темы
Вы не можете отвечать на сообщения
Вы не можете редактировать свои сообщения
Вы не можете удалять свои сообщения
Вы не можете голосовать в опросах
Вы не можете прикреплять файлы к сообщениям
Вы не можете скачивать файлы

▼ Вниз