Уважаемый Гость!
Вы можете поддержать проект и зарегистрироваться у наших партнеров - онлайн-стратегия MyLands. При регистрации в игре Вы получите код, который сможете активировать после регистрации на pirat.ca и получить 1000 дублонов.

Ваш код:
42dfaac977a7ef29e5167536f5b22936dba18477
 
     

(Pop) Michael Jackson - Bad - 2001 (1 CD) [FLAC, tracks+cue, lossless]

Ответить на тему
 
Автор
Сообщение

Пост 07-Фев-2013 23:43

[Q] 

CHARLI2236

Michael Jackson - Bad - 2001 (1 CD))
Год выпуска альбома: 2001
Страна: Россия
Жанр: Pop
Лейбл издания: Сони Мьюзик Энтертейнмент
Продолжительность: 1:11:10
Формат: FLAC
Битрейт аудио: lossless
Тип рипа: tracks+.cue
Источник (релизер): диск CDDA
Наличие сканов в содержимом раздачи: да
Трэклист
01 - Bad. (4:07)
02 - The Way You Make Me Feel. (4:58)
03 - Speed Demon. (4:01)
04 - Liberian Girl. (3:53)
05 - Just Good Friends. (4:07)
06 - Another Part Of Me. (3:54)
07 - Man In The Mirror. (5:19)
08 - Siedah Garrett, Michael Jackson , I Just Can't Stop Loving You. (4:12)
09 - Dirty Diana. (4:41)
10 - Smooth Criminal. (4:17)
11 - Leave Me Alone. (4:40)
12 - Quincy Jones , Voice-over Intro Quincy Jones Interview #1-Quincy Jones Interview #1. (4:03)
13 - Streetwalker. (5:49)
14 - Quincy Jones , Voice-over Intro Quincy Jones Interview #2-Quincy Jones Interview #2. (2:53)
15 - Todo Mi Amor Eres Tu (I Just Can't Stop Loving You). (4:05)
16 - Quincy Jones , Quincy Jones Interview #3. (2:30)
17 - Quincy Jones , Voice-over Intro 'Fly Away'. (0:08)
18 - Fly Away. (3:26)
”Отчет ЕАС”
Отчёт EAC об извлечении, выполненном 7. февраля 2013, 14:02 для диска:
Michael Jackson / Michael Jackson Bad
Дисковод: _NEC DVD_RW ND-4550A Adapter: 0 ID: 1
Режим чтения: Достоверный (C2: нет, Точный поток: да, Отключение кэша: да)
Коррекция смещения при чтении: 48
Способность читать области Lead-in и Lead-out : Нет
Выходной формат: C:\Program Files\FLAC\flac.exe (Пользовательский кодировщик)
128 kBit/s
Дополнительные параметры: -8 -V -T "ARTIST=%a" -T "TITLE=%t" -T "ALBUM=%g" -T "DATE=%y" -T "TRACKNUMBER=%n" -T "GENRE=%m" -T "COMMENT=EAC FLAC -8" %s
Другие параметры:
Заполнение пропущенных сэмплов тишиной : Да
Удаление блоков с тишиной в начале и конце : Нет
Встроенный Win32-интерфейс для Win NT/2000
Трек 1
Имя файла C:\Sergei\новая папка\01 - Bad.wav
Длина предзазора 0:00:02.00
Пиковый уровень 98.8 %
Качество трека 100.0 %
CRC теста 9872A021
CRC копии 9872A021
Копирование... OK
Трек 2
Имя файла C:\Sergei\новая папка\02 - The Way You Make Me Feel.wav
Пиковый уровень 98.8 %
Качество трека 100.0 %
CRC теста 1CD266AC
CRC копии 1CD266AC
Копирование... OK
Трек 3
Имя файла C:\Sergei\новая папка\03 - Speed Demon.wav
Пиковый уровень 98.8 %
Качество трека 100.0 %
CRC теста 971EC6B9
CRC копии 971EC6B9
Копирование... OK
Трек 4
Имя файла C:\Sergei\новая папка\04 - Liberian Girl.wav
Пиковый уровень 98.8 %
Качество трека 99.9 %
CRC теста 72369CB1
CRC копии 72369CB1
Копирование... OK
Трек 5
Имя файла C:\Sergei\новая папка\05 - Just Good Friends.wav
Длина предзазора 0:00:00.86
Пиковый уровень 98.8 %
Качество трека 100.0 %
CRC теста C0893DB4
CRC копии C0893DB4
Копирование... OK
Трек 6
Имя файла C:\Sergei\новая папка\06 - Another Part Of Me.wav
Длина предзазора 0:00:01.66
Пиковый уровень 98.8 %
Качество трека 99.9 %
CRC теста 125450DE
CRC копии 125450DE
Копирование... OK
Трек 7
Имя файла C:\Sergei\новая папка\07 - Man In The Mirror.wav
Длина предзазора 0:00:01.20
Пиковый уровень 98.8 %
Качество трека 100.0 %
CRC теста 2A6F10AC
CRC копии 2A6F10AC
Копирование... OK
Трек 8
Имя файла C:\Sergei\новая папка\08 - Siedah Garrett, Michael Jackson , I Just Can't Stop Loving You.wav
Пиковый уровень 98.8 %
Качество трека 100.0 %
CRC теста DC9910FB
CRC копии DC9910FB
Копирование... OK
Трек 9
Имя файла C:\Sergei\новая папка\09 - Dirty Diana.wav
Длина предзазора 0:00:01.64
Пиковый уровень 98.8 %
Качество трека 100.0 %
CRC теста 7B46C26E
CRC копии 7B46C26E
Копирование... OK
Трек 10
Имя файла C:\Sergei\новая папка\10 - Smooth Criminal.wav
Пиковый уровень 98.8 %
Качество трека 100.0 %
CRC теста 31F88625
CRC копии 31F88625
Копирование... OK
Трек 11
Имя файла C:\Sergei\новая папка\11 - Leave Me Alone.wav
Длина предзазора 0:00:00.86
Пиковый уровень 98.8 %
Качество трека 100.0 %
CRC теста 3788E315
CRC копии 3788E315
Копирование... OK
Трек 12
Имя файла C:\Sergei\новая папка\12 - Quincy Jones , Voice-over Intro Quincy Jones Interview #1-Quincy Jones Interview #1.wav
Длина предзазора 0:00:01.53
Пиковый уровень 98.8 %
Качество трека 98.3 %
CRC теста EE0F82BE
CRC копии EE0F82BE
Копирование... OK
Трек 13
Имя файла C:\Sergei\новая папка\13 - Streetwalker.wav
Пиковый уровень 98.8 %
Качество трека 99.9 %
CRC теста 77D7B888
CRC копии 77D7B888
Копирование... OK
Трек 14
Имя файла C:\Sergei\новая папка\14 - Quincy Jones , Voice-over Intro Quincy Jones Interview #2-Quincy Jones Interview #2.wav
Пиковый уровень 98.5 %
Качество трека 100.0 %
CRC теста BD0E894F
CRC копии BD0E894F
Копирование... OK
Трек 15
Имя файла C:\Sergei\новая папка\15 - Todo Mi Amor Eres Tu (I Just Can't Stop Loving You).wav
Пиковый уровень 98.8 %
Качество трека 100.0 %
CRC теста A4F87DD2
CRC копии A4F87DD2
Копирование... OK
Трек 16
Имя файла C:\Sergei\новая папка\16 - Quincy Jones , Quincy Jones Interview #3.wav
Пиковый уровень 98.6 %
Качество трека 100.0 %
CRC теста 236D053D
CRC копии 236D053D
Копирование... OK
Трек 17
Имя файла C:\Sergei\новая папка\17 - Quincy Jones , Voice-over Intro 'Fly Away'.wav
Пиковый уровень 94.6 %
Качество трека 98.7 %
CRC теста 1074D5A5
CRC копии 1074D5A5
Копирование... OK
Трек 18
Имя файла C:\Sergei\новая папка\18 - Fly Away.wav
Пиковый уровень 98.8 %
Качество трека 99.9 %
CRC теста 502A8E7E
CRC копии 502A8E7E
Копирование... OK
Ошибок не произошло
Конец отчёта
"Non-compilant CUE"
REM GENRE Pop
REM DATE 2001
REM DISCID 1510AE12
REM COMMENT "ExactAudioCopy v0.95b3"
PERFORMER "Michael Jackson"
TITLE "Michael Jackson Bad"
FILE "01 - Bad.wav" WAVE
TRACK 01 AUDIO
TITLE "Bad"
PERFORMER "Michael Jackson"
INDEX 01 00:00:00
FILE "02 - The Way You Make Me Feel.wav" WAVE
TRACK 02 AUDIO
TITLE "The Way You Make Me Feel"
PERFORMER "Michael Jackson"
INDEX 01 00:00:00
FILE "03 - Speed Demon.wav" WAVE
TRACK 03 AUDIO
TITLE "Speed Demon"
PERFORMER "Michael Jackson"
INDEX 01 00:00:00
FILE "04 - Liberian Girl.wav" WAVE
TRACK 04 AUDIO
TITLE "Liberian Girl"
PERFORMER "Michael Jackson"
INDEX 01 00:00:00
TRACK 05 AUDIO
TITLE "Just Good Friends"
PERFORMER "Michael Jackson"
INDEX 00 03:52:65
FILE "05 - Just Good Friends.wav" WAVE
INDEX 01 00:00:00
TRACK 06 AUDIO
TITLE "Another Part Of Me"
PERFORMER "Michael Jackson"
INDEX 00 04:05:50
FILE "06 - Another Part Of Me.wav" WAVE
INDEX 01 00:00:00
TRACK 07 AUDIO
TITLE "Man In The Mirror"
PERFORMER "Michael Jackson"
INDEX 00 03:53:40
FILE "07 - Man In The Mirror.wav" WAVE
INDEX 01 00:00:00
FILE "08 - Siedah Garrett, Michael Jackson , I Just Can't Stop Loving You.wav" WAVE
TRACK 08 AUDIO
TITLE "Siedah Garrett, Michael Jackson / I Just Can't Stop Loving You"
PERFORMER "Michael Jackson"
INDEX 01 00:00:00
TRACK 09 AUDIO
TITLE "Dirty Diana"
PERFORMER "Michael Jackson"
INDEX 00 04:11:22
FILE "09 - Dirty Diana.wav" WAVE
INDEX 01 00:00:00
FILE "10 - Smooth Criminal.wav" WAVE
TRACK 10 AUDIO
TITLE "Smooth Criminal"
PERFORMER "Michael Jackson"
INDEX 01 00:00:00
TRACK 11 AUDIO
TITLE "Leave Me Alone"
PERFORMER "Michael Jackson"
INDEX 00 04:16:55
FILE "11 - Leave Me Alone.wav" WAVE
INDEX 01 00:00:00
TRACK 12 AUDIO
TITLE "Quincy Jones / Voice-over Intro Quincy Jones Interview #1\Quincy Jones Interv..."
PERFORMER "Michael Jackson"
INDEX 00 04:38:70
FILE "12 - Quincy Jones , Voice-over Intro Quincy Jones Interview #1-Quincy Jones Interview #1.wav" WAVE
INDEX 01 00:00:00
FILE "13 - Streetwalker.wav" WAVE
TRACK 13 AUDIO
TITLE "Streetwalker"
PERFORMER "Michael Jackson"
INDEX 01 00:00:00
FILE "14 - Quincy Jones , Voice-over Intro Quincy Jones Interview #2-Quincy Jones Interview #2.wav" WAVE
TRACK 14 AUDIO
TITLE "Quincy Jones / Voice-over Intro Quincy Jones Interview #2\Quincy Jones Interv..."
PERFORMER "Michael Jackson"
INDEX 01 00:00:00
FILE "15 - Todo Mi Amor Eres Tu (I Just Can't Stop Loving You).wav" WAVE
TRACK 15 AUDIO
TITLE "Todo Mi Amor Eres Tu (I Just Can't Stop Loving You)"
PERFORMER "Michael Jackson"
INDEX 01 00:00:00
FILE "16 - Quincy Jones , Quincy Jones Interview #3.wav" WAVE
TRACK 16 AUDIO
TITLE "Quincy Jones / Quincy Jones Interview #3"
PERFORMER "Michael Jackson"
INDEX 01 00:00:00
FILE "17 - Quincy Jones , Voice-over Intro 'Fly Away'.wav" WAVE
TRACK 17 AUDIO
TITLE "Quincy Jones / Voice-over Intro 'Fly Away'"
PERFORMER "Michael Jackson"
INDEX 01 00:00:00
FILE "18 - Fly Away.wav" WAVE
TRACK 18 AUDIO
TITLE "Fly Away"
PERFORMER "Michael Jackson"
INDEX 01 00:00:00
"Лог Audiochecker"
AUDIOCHECKER v2.0 beta (build 457) - by Dester - [email protected]
~~~~~~~~~~~~~~~~~~~~~~~~~~~~~~~~~~
-=== НЕ РЕДАКТИРУЙТЕ ЭТОТ ФАЙЛ! ===-
Путь: ...\Michael Jackson - Bad (pirat.ca)
01 -=- 01 - Bad.flac -=- CDDA (100%)
02 -=- 02 - The Way You Make Me Feel.flac -=- CDDA (100%)
03 -=- 03 - Speed Demon.flac -=- MPEG (95%)
04 -=- 04 - Liberian Girl.flac -=- CDDA (100%)
05 -=- 05 - Just Good Friends.flac -=- CDDA (99%)
06 -=- 06 - Another Part Of Me.flac -=- CDDA (99%)
07 -=- 07 - Man In The Mirror.flac -=- CDDA (100%)
08 -=- 08 - Siedah Garrett, Michael Jackson , I Just Can't Stop Loving You.flac -=- CDDA (100%)
09 -=- 09 - Dirty Diana.flac -=- CDDA (100%)
10 -=- 10 - Smooth Criminal.flac -=- CDDA (100%)
11 -=- 11 - Leave Me Alone.flac -=- CDDA (100%)
12 -=- 12 - Quincy Jones , Voice-over Intro Quincy Jones Interview #1-Quincy Jones Interview #1.flac -=- CDDA (100%)
13 -=- 13 - Streetwalker.flac -=- CDDA (100%)
14 -=- 14 - Quincy Jones , Voice-over Intro Quincy Jones Interview #2-Quincy Jones Interview #2.flac -=- CDDA (100%)
15 -=- 15 - Todo Mi Amor Eres Tu (I Just Can't Stop Loving You).flac -=- CDDA (100%)
16 -=- 16 - Quincy Jones , Quincy Jones Interview #3.flac -=- CDDA (100%)
17 -=- 17 - Quincy Jones , Voice-over Intro 'Fly Away'.flac -=- CDDA (100%)
18 -=- 18 - Fly Away.flac -=- CDDA (100%)
Сводка 94,61% CDDA
179669828
Мы помогаем людям, чтобы они, в свою очередь, помогли нам; таким образом, наши услуги сводятся просто к благодеяниям, которые мы загодя оказываем самим себе. (Франсуа де Ларошфуко)
Download / Скачать

Хотите скачать бесплатно? Зарегистрируйтесь на сайте (ссылка на регистрацию). Pirat.ca - самый быстрый торрент трекер в рунете!

Как скачивать  ·   Что такое торрент  ·   Рейтинг и ограничения

Показать сообщения:    
Ответить на тему

Текущее время: Сегодня 22:30

Часовой пояс: GMT + 4



Вы не можете начинать темы
Вы не можете отвечать на сообщения
Вы не можете редактировать свои сообщения
Вы не можете удалять свои сообщения
Вы не можете голосовать в опросах
Вы не можете прикреплять файлы к сообщениям
Вы не можете скачивать файлы

▼ Вниз