Уважаемый Гость!
Вы можете поддержать проект и зарегистрироваться у наших партнеров - онлайн-стратегия MyLands. При регистрации в игре Вы получите код, который сможете активировать после регистрации на pirat.ca и получить 1000 дублонов.

Ваш код:
6e74277781110e9b49c3c0dd24e1bed54391613e
 
     

(Pop) Whitney Houston – I Look To You - 2009 (1 CD) [FLAC, tracks+cue, lossless]

Ответить на тему
 
Автор
Сообщение

Пост 07-Фев-2013 23:46

[Q] 

CHARLI2236

Whitney Houston – I Look To You - 2009 (1 CD)
Год выпуска альбома: 2009
Страна: Россия
Жанр: Pop
Лейбл издания: Сони Мьюзик Энтертейнмент
Продолжительность: 0:44:44
Формат: FLAC
Битрейт аудио: lossless
Тип рипа: tracks+.cue
Источник (релизер): диск CDDA
Наличие сканов в содержимом раздачи: да
Трэклист
01 - Million Dollar Bill. (3:24)
02 - Nothin' But Love. (3:36)
03 - Call You Tonight. (4:10)
04 - I Look To You. (4:27)
05 - Like I Never Left (Featuring Akon). (3:51)
06 - A Song For You. (4:12)
07 - I Didn't Know My Own Strength. (3:41)
08 - Worth It. (4:40)
09 - For The Lovers. (4:14)
10 - I Got You. (4:13)
11 - Salute. (4:10)
”Отчет ЕАС”
Отчёт EAC об извлечении, выполненном 7. февраля 2013, 13:02 для диска:
Whitney Houston / I Look To You
Дисковод: _NEC DVD_RW ND-4550A Adapter: 0 ID: 1
Режим чтения: Достоверный (C2: нет, Точный поток: да, Отключение кэша: да)
Коррекция смещения при чтении: 48
Способность читать области Lead-in и Lead-out : Нет
Выходной формат: C:\Program Files\FLAC\flac.exe (Пользовательский кодировщик)
128 kBit/s
Дополнительные параметры: -8 -V -T "ARTIST=%a" -T "TITLE=%t" -T "ALBUM=%g" -T "DATE=%y" -T "TRACKNUMBER=%n" -T "GENRE=%m" -T "COMMENT=EAC FLAC -8" %s
Другие параметры:
Заполнение пропущенных сэмплов тишиной : Да
Удаление блоков с тишиной в начале и конце : Нет
Встроенный Win32-интерфейс для Win NT/2000
Трек 1
Имя файла C:\Sergei\новая папка\01 - Million Dollar Bill.wav
Длина предзазора 0:00:02.00
Пиковый уровень 99.9 %
Качество трека 100.0 %
CRC теста D0AC2DCA
CRC копии D0AC2DCA
Копирование... OK
Трек 2
Имя файла C:\Sergei\новая папка\02 - Nothin' But Love.wav
Пиковый уровень 99.9 %
Качество трека 100.0 %
CRC теста 7A903247
CRC копии 7A903247
Копирование... OK
Трек 3
Имя файла C:\Sergei\новая папка\03 - Call You Tonight.wav
Длина предзазора 0:00:01.12
Пиковый уровень 100.0 %
Качество трека 100.0 %
CRC теста C7853BAD
CRC копии C7853BAD
Копирование... OK
Трек 4
Имя файла C:\Sergei\новая папка\04 - I Look To You.wav
Длина предзазора 0:00:01.80
Пиковый уровень 99.9 %
Качество трека 100.0 %
CRC теста D4BE0D7A
CRC копии D4BE0D7A
Копирование... OK
Трек 5
Имя файла C:\Sergei\новая папка\05 - Like I Never Left (Featuring Akon).wav
Длина предзазора 0:00:01.72
Пиковый уровень 96.6 %
Качество трека 100.0 %
CRC теста 44C2A957
CRC копии 44C2A957
Копирование... OK
Трек 6
Имя файла C:\Sergei\новая папка\06 - A Song For You.wav
Длина предзазора 0:00:01.73
Пиковый уровень 99.8 %
Качество трека 100.0 %
CRC теста DE2FCAE2
CRC копии DE2FCAE2
Копирование... OK
Трек 7
Имя файла C:\Sergei\новая папка\07 - I Didn't Know My Own Strength.wav
Длина предзазора 0:00:01.64
Пиковый уровень 99.9 %
Качество трека 100.0 %
CRC теста 3953FA19
CRC копии 3953FA19
Копирование... OK
Трек 8
Имя файла C:\Sergei\новая папка\08 - Worth It.wav
Длина предзазора 0:00:01.93
Пиковый уровень 99.8 %
Качество трека 99.9 %
CRC теста 7FA9F767
CRC копии 7FA9F767
Копирование... OK
Трек 9
Имя файла C:\Sergei\новая папка\09 - For The Lovers.wav
Длина предзазора 0:00:01.22
Пиковый уровень 99.9 %
Качество трека 100.0 %
CRC теста E38FF6BB
CRC копии E38FF6BB
Копирование... OK
Трек 10
Имя файла C:\Sergei\новая папка\10 - I Got You.wav
Пиковый уровень 97.9 %
Качество трека 99.9 %
CRC теста 8DF2CF13
CRC копии 8DF2CF13
Копирование... OK
Трек 11
Имя файла C:\Sergei\новая папка\11 - Salute.wav
Длина предзазора 0:00:01.24
Пиковый уровень 99.9 %
Качество трека 100.0 %
CRC теста AA7EF853
CRC копии AA7EF853
Копирование... OK
Ошибок не произошло
Конец отчёта
"Non-compilant CUE"
REM GENRE Pop
REM DATE 2009
REM DISCID 890A7C0B
REM COMMENT "ExactAudioCopy v0.95b3"
PERFORMER "Whitney Houston"
TITLE "I Look To You"
FILE "01 - Million Dollar Bill.wav" WAVE
TRACK 01 AUDIO
TITLE "Million Dollar Bill"
PERFORMER "Whitney Houston"
INDEX 01 00:00:00
FILE "02 - Nothin' But Love.wav" WAVE
TRACK 02 AUDIO
TITLE "Nothin' But Love"
PERFORMER "Whitney Houston"
INDEX 01 00:00:00
TRACK 03 AUDIO
TITLE "Call You Tonight"
PERFORMER "Whitney Houston"
INDEX 00 03:35:14
FILE "03 - Call You Tonight.wav" WAVE
INDEX 01 00:00:00
TRACK 04 AUDIO
TITLE "I Look To You"
PERFORMER "Whitney Houston"
INDEX 00 04:08:20
FILE "04 - I Look To You.wav" WAVE
INDEX 01 00:00:00
TRACK 05 AUDIO
TITLE "Like I Never Left (Featuring Akon)"
PERFORMER "Whitney Houston"
INDEX 00 04:25:46
FILE "05 - Like I Never Left (Featuring Akon).wav" WAVE
INDEX 01 00:00:00
TRACK 06 AUDIO
TITLE "A Song For You"
PERFORMER "Whitney Houston"
INDEX 00 03:49:55
FILE "06 - A Song For You.wav" WAVE
INDEX 01 00:00:00
TRACK 07 AUDIO
TITLE "I Didn't Know My Own Strength"
PERFORMER "Whitney Houston"
INDEX 00 04:11:12
FILE "07 - I Didn't Know My Own Strength.wav" WAVE
INDEX 01 00:00:00
TRACK 08 AUDIO
TITLE "Worth It"
PERFORMER "Whitney Houston"
INDEX 00 03:39:71
FILE "08 - Worth It.wav" WAVE
INDEX 01 00:00:00
TRACK 09 AUDIO
TITLE "For The Lovers"
PERFORMER "Whitney Houston"
INDEX 00 04:39:51
FILE "09 - For The Lovers.wav" WAVE
INDEX 01 00:00:00
FILE "10 - I Got You.wav" WAVE
TRACK 10 AUDIO
TITLE "I Got You"
PERFORMER "Whitney Houston"
INDEX 01 00:00:00
TRACK 11 AUDIO
TITLE "Salute"
PERFORMER "Whitney Houston"
INDEX 00 04:12:50
FILE "11 - Salute.wav" WAVE
INDEX 01 00:00:00
"Лог Audiochecker"
AUDIOCHECKER v2.0 beta (build 457) - by Dester - [email protected]
~~~~~~~~~~~~~~~~~~~~~~~~~~~~~~~~~~
-=== НЕ РЕДАКТИРУЙТЕ ЭТОТ ФАЙЛ! ===-
Путь: ...\Whitney Houston - I Look To You (pirat.ca)
01 -=- 01 - Million Dollar Bill.flac -=- CDDA (100%)
02 -=- 02 - Nothin' But Love.flac -=- MPEG (95%)
03 -=- 03 - Call You Tonight.flac -=- CDDA (100%)
04 -=- 04 - I Look To You.flac -=- CDDA (100%)
05 -=- 05 - Like I Never Left (Featuring Akon).flac -=- CDDA (100%)
06 -=- 06 - A Song For You.flac -=- CDDA (100%)
07 -=- 07 - I Didn't Know My Own Strength.flac -=- ERROR
08 -=- 08 - Worth It.flac -=- CDDA (100%)
09 -=- 09 - For The Lovers.flac -=- CDDA (99%)
10 -=- 10 - I Got You.flac -=- CDDA (100%)
11 -=- 11 - Salute.flac -=- CDDA (100%)
Сводка 90,40% CDDA
146323060
Мы помогаем людям, чтобы они, в свою очередь, помогли нам; таким образом, наши услуги сводятся просто к благодеяниям, которые мы загодя оказываем самим себе. (Франсуа де Ларошфуко)
Download / Скачать

Хотите скачать бесплатно? Зарегистрируйтесь на сайте (ссылка на регистрацию). Pirat.ca - самый быстрый торрент трекер в рунете!

Как скачивать  ·   Что такое торрент  ·   Рейтинг и ограничения

Показать сообщения:    
Ответить на тему

Текущее время: Сегодня 13:33

Часовой пояс: GMT + 4



Вы не можете начинать темы
Вы не можете отвечать на сообщения
Вы не можете редактировать свои сообщения
Вы не можете удалять свои сообщения
Вы не можете голосовать в опросах
Вы не можете прикреплять файлы к сообщениям
Вы не можете скачивать файлы

▼ Вниз