Уважаемый Гость!
Вы можете поддержать проект и зарегистрироваться у наших партнеров - онлайн-стратегия MyLands. При регистрации в игре Вы получите код, который сможете активировать после регистрации на pirat.ca и получить 1000 дублонов.

Ваш код:
42dfaac977a7ef29e5167536f5b22936dba18477
 
     

(Pop) Michael Jackson - Thriller - 2008 (1 CD) [FLAC, tracks+cue, lossless]

Ответить на тему
 
Автор
Сообщение

Пост 25-Фев-2013 22:46

[Q] 

CHARLI2236

Michael Jackson - Thriller - 2008 (1CD)
Год выпуска альбома: 2008
Страна: Россия
Жанр: Pop
Лейбл издания: MJJ Productons Inc.
Продолжительность: 1:07:22
Формат: FLAC
Битрейт аудио: lossless
Тип рипа: tracks+.cue
Источник (релизер): диск CDDA
Наличие сканов в содержимом раздачи: да
Трэклист
01 - Wanna Be Startin' Somethin'. (6:02)
02 - Baby Be Mine. (4:20)
03 - The Girl Is Mine (With Paul McCartney). (3:42)
04 - Thriller. (5:57)
05 - Beat It. (4:18)
06 - Billie Jean. (4:53)
07 - Human Nature. (4:05)
08 - P.Y.T. (Pretty Young Thing). (3:58)
09 - The Lady In My Life. (4:58)
10 - Vincent Price Excerpt From 'Thriller' Voice-Over Session. (0:24)
11 - The Girl Is Mine 2008 (With will.i.am). (3:11)
12 - P.Y.T. (Pretty Young Thing) 2008 (With will.i.am). (4:21)
13 - Wanna Be Startin' Somethin' 2008 (With Akon). (4:14)
14 - Beat It 2008 (With Fergie). (4:12)
15 - Billie Jean 2008 (Kanye West Mix). (4:37)
16 - For All Time (Unreleased Track From Original Thriller Sessions). (4:03)
”Отчет ЕАС”
Отчёт EAC об извлечении, выполненном 20. февраля 2013, 19:47 для диска:
Michael Jackson / Thriller [25th Anniversary Edition]
Дисковод: _NEC DVD_RW ND-4550A Adapter: 0 ID: 1
Режим чтения: Достоверный (C2: нет, Точный поток: да, Отключение кэша: да)
Коррекция смещения при чтении: 48
Способность читать области Lead-in и Lead-out : Нет
Выходной формат: C:\Program Files\FLAC\flac.exe (Пользовательский кодировщик)
128 kBit/s
Дополнительные параметры: -8 -V -T "ARTIST=%a" -T "TITLE=%t" -T "ALBUM=%g" -T "DATE=%y" -T "TRACKNUMBER=%n" -T "GENRE=%m" -T "COMMENT=EAC FLAC -8" %s
Другие параметры:
Заполнение пропущенных сэмплов тишиной : Да
Удаление блоков с тишиной в начале и конце : Нет
Встроенный Win32-интерфейс для Win NT/2000
Трек 1
Имя файла C:\Sergei\новая папка\01 - Wanna Be Startin' Somethin'.wav
Длина предзазора 0:00:02.00
Пиковый уровень 99.8 %
Качество трека 100.0 %
CRC теста F9B23323
CRC копии F9B23323
Копирование... OK
Трек 2
Имя файла C:\Sergei\новая папка\02 - Baby Be Mine.wav
Пиковый уровень 99.8 %
Качество трека 100.0 %
CRC теста 813F8C0D
CRC копии 813F8C0D
Копирование... OK
Трек 3
Имя файла C:\Sergei\новая папка\03 - The Girl Is Mine (With Paul McCartney).wav
Пиковый уровень 99.8 %
Качество трека 100.0 %
CRC теста 46CBE22B
CRC копии 46CBE22B
Копирование... OK
Трек 4
Имя файла C:\Sergei\новая папка\04 - Thriller.wav
Пиковый уровень 99.8 %
Качество трека 99.9 %
CRC теста 3FC11765
CRC копии 3FC11765
Копирование... OK
Трек 5
Имя файла C:\Sergei\новая папка\05 - Beat It.wav
Пиковый уровень 99.8 %
Качество трека 100.0 %
CRC теста F7DD8D43
CRC копии F7DD8D43
Копирование... OK
Трек 6
Имя файла C:\Sergei\новая папка\06 - Billie Jean.wav
Пиковый уровень 99.8 %
Качество трека 99.9 %
CRC теста 6A37183D
CRC копии 6A37183D
Копирование... OK
Трек 7
Имя файла C:\Sergei\новая папка\07 - Human Nature.wav
Пиковый уровень 99.8 %
Качество трека 100.0 %
CRC теста EA522D15
CRC копии EA522D15
Копирование... OK
Трек 8
Имя файла C:\Sergei\новая папка\08 - P.Y.T. (Pretty Young Thing).wav
Пиковый уровень 99.8 %
Качество трека 99.9 %
CRC теста 8D514B20
CRC копии 8D514B20
Копирование... OK
Трек 9
Имя файла C:\Sergei\новая папка\09 - The Lady In My Life.wav
Пиковый уровень 99.8 %
Качество трека 100.0 %
CRC теста 35D63C80
CRC копии 35D63C80
Копирование... OK
Трек 10
Имя файла C:\Sergei\новая папка\10 - Vincent Price Excerpt From 'Thriller' Voice-Over Session.wav
Пиковый уровень 68.3 %
Качество трека 100.0 %
CRC теста D0CBF097
CRC копии D0CBF097
Копирование... OK
Трек 11
Имя файла C:\Sergei\новая папка\11 - The Girl Is Mine 2008 (With will.i.am).wav
Пиковый уровень 99.8 %
Качество трека 100.0 %
CRC теста 37C65D7B
CRC копии 37C65D7B
Копирование... OK
Трек 12
Имя файла C:\Sergei\новая папка\12 - P.Y.T. (Pretty Young Thing) 2008 (With will.i.am).wav
Длина предзазора 0:00:01.42
Пиковый уровень 99.8 %
Качество трека 100.0 %
CRC теста 313B7805
CRC копии 313B7805
Копирование... OK
Трек 13
Имя файла C:\Sergei\новая папка\13 - Wanna Be Startin' Somethin' 2008 (With Akon).wav
Пиковый уровень 99.8 %
Качество трека 100.0 %
CRC теста 0439EC33
CRC копии 0439EC33
Копирование... OK
Трек 14
Имя файла C:\Sergei\новая папка\14 - Beat It 2008 (With Fergie).wav
Пиковый уровень 99.8 %
Качество трека 100.0 %
CRC теста B56C2381
CRC копии B56C2381
Копирование... OK
Трек 15
Имя файла C:\Sergei\новая папка\15 - Billie Jean 2008 (Kanye West Mix).wav
Длина предзазора 0:00:01.29
Пиковый уровень 99.8 %
Качество трека 100.0 %
CRC теста 2E4ADC00
CRC копии 2E4ADC00
Копирование... OK
Трек 16
Имя файла C:\Sergei\новая папка\16 - For All Time (Unreleased Track From Original Thriller Sessions).wav
Длина предзазора 0:00:01.77
Пиковый уровень 99.8 %
Качество трека 100.0 %
CRC теста 11A353D5
CRC копии 11A353D5
Копирование... OK
Ошибок не произошло
Конец отчёта
"Non-compilant CUE"
REM GENRE Pop
REM DATE 2008
REM DISCID BD0FCA10
REM COMMENT "ExactAudioCopy v0.95b3"
PERFORMER "Michael Jackson"
TITLE "Thriller [25th Anniversary Edition]"
FILE "01 - Wanna Be Startin' Somethin'.wav" WAVE
TRACK 01 AUDIO
TITLE "Wanna Be Startin' Somethin'"
PERFORMER "Michael Jackson"
INDEX 01 00:00:00
FILE "02 - Baby Be Mine.wav" WAVE
TRACK 02 AUDIO
TITLE "Baby Be Mine"
PERFORMER "Michael Jackson"
INDEX 01 00:00:00
FILE "03 - The Girl Is Mine (With Paul McCartney).wav" WAVE
TRACK 03 AUDIO
TITLE "The Girl Is Mine (With Paul McCartney)"
PERFORMER "Michael Jackson"
INDEX 01 00:00:00
FILE "04 - Thriller.wav" WAVE
TRACK 04 AUDIO
TITLE "Thriller"
PERFORMER "Michael Jackson"
INDEX 01 00:00:00
FILE "05 - Beat It.wav" WAVE
TRACK 05 AUDIO
TITLE "Beat It"
PERFORMER "Michael Jackson"
INDEX 01 00:00:00
FILE "06 - Billie Jean.wav" WAVE
TRACK 06 AUDIO
TITLE "Billie Jean"
PERFORMER "Michael Jackson"
INDEX 01 00:00:00
FILE "07 - Human Nature.wav" WAVE
TRACK 07 AUDIO
TITLE "Human Nature"
PERFORMER "Michael Jackson"
INDEX 01 00:00:00
FILE "08 - P.Y.T. (Pretty Young Thing).wav" WAVE
TRACK 08 AUDIO
TITLE "P.Y.T. (Pretty Young Thing)"
PERFORMER "Michael Jackson"
INDEX 01 00:00:00
FILE "09 - The Lady In My Life.wav" WAVE
TRACK 09 AUDIO
TITLE "The Lady In My Life"
PERFORMER "Michael Jackson"
INDEX 01 00:00:00
FILE "10 - Vincent Price Excerpt From 'Thriller' Voice-Over Session.wav" WAVE
TRACK 10 AUDIO
TITLE "Vincent Price Excerpt From 'Thriller' Voice-Over Session"
PERFORMER "Michael Jackson"
INDEX 01 00:00:00
FILE "11 - The Girl Is Mine 2008 (With will.i.am).wav" WAVE
TRACK 11 AUDIO
TITLE "The Girl Is Mine 2008 (With will.i.am)"
PERFORMER "Michael Jackson"
INDEX 01 00:00:00
TRACK 12 AUDIO
TITLE "P.Y.T. (Pretty Young Thing) 2008 (With will.i.am)"
PERFORMER "Michael Jackson"
INDEX 00 03:10:19
FILE "12 - P.Y.T. (Pretty Young Thing) 2008 (With will.i.am).wav" WAVE
INDEX 01 00:00:00
FILE "13 - Wanna Be Startin' Somethin' 2008 (With Akon).wav" WAVE
TRACK 13 AUDIO
TITLE "Wanna Be Startin' Somethin' 2008 (With Akon)"
PERFORMER "Michael Jackson"
INDEX 01 00:00:00
FILE "14 - Beat It 2008 (With Fergie).wav" WAVE
TRACK 14 AUDIO
TITLE "Beat It 2008 (With Fergie)"
PERFORMER "Michael Jackson"
INDEX 01 00:00:00
TRACK 15 AUDIO
TITLE "Billie Jean 2008 (Kanye West Mix)"
PERFORMER "Michael Jackson"
INDEX 00 04:11:14
FILE "15 - Billie Jean 2008 (Kanye West Mix).wav" WAVE
INDEX 01 00:00:00
TRACK 16 AUDIO
TITLE "For All Time (Unreleased Track From Original Thriller Sessions)"
PERFORMER "Michael Jackson"
INDEX 00 04:35:70
FILE "16 - For All Time (Unreleased Track From Original Thriller Sessions).wav" WAVE
INDEX 01 00:00:00
"Лог Audiochecker"
AUDIOCHECKER v2.0 beta (build 457) - by Dester - [email protected]
~~~~~~~~~~~~~~~~~~~~~~~~~~~~~~~~~~
-=== НЕ РЕДАКТИРУЙТЕ ЭТОТ ФАЙЛ! ===-
Путь: ...\Michael Jackson - Thriller (pirat.ca)
01 -=- 01 - Wanna Be Startin' Somethin'.flac -=- CDDA (100%)
02 -=- 02 - Baby Be Mine.flac -=- CDDA (100%)
03 -=- 03 - The Girl Is Mine (With Paul McCartney).flac -=- CDDA (100%)
04 -=- 04 - Thriller.flac -=- CDDA (100%)
05 -=- 05 - Beat It.flac -=- CDDA (100%)
06 -=- 06 - Billie Jean.flac -=- CDDA (100%)
07 -=- 07 - Human Nature.flac -=- CDDA (100%)
08 -=- 08 - P.Y.T. (Pretty Young Thing).flac -=- CDDA (100%)
09 -=- 09 - The Lady In My Life.flac -=- CDDA (100%)
10 -=- 10 - Vincent Price Excerpt From 'Thriller' Voice-Over Session.flac -=- CDDA (100%)
11 -=- 11 - The Girl Is Mine 2008 (With will.i.am).flac -=- MPEG (95%)
12 -=- 12 - P.Y.T. (Pretty Young Thing) 2008 (With will.i.am).flac -=- CDDA (100%)
13 -=- 13 - Wanna Be Startin' Somethin' 2008 (With Akon).flac -=- CDDA (100%)
14 -=- 14 - Beat It 2008 (With Fergie).flac -=- CDDA (100%)
15 -=- 15 - Billie Jean 2008 (Kanye West Mix).flac -=- CDDA (100%)
16 -=- 16 - For All Time (Unreleased Track From Original Thriller Sessions).flac -=- CDDA (100%)
Сводка 94,06% CDDA
133798212
Мы помогаем людям, чтобы они, в свою очередь, помогли нам; таким образом, наши услуги сводятся просто к благодеяниям, которые мы загодя оказываем самим себе. (Франсуа де Ларошфуко)
Download / Скачать

Хотите скачать бесплатно? Зарегистрируйтесь на сайте (ссылка на регистрацию). Pirat.ca - самый быстрый торрент трекер в рунете!

Как скачивать  ·   Что такое торрент  ·   Рейтинг и ограничения

popov234

Корсар

Пост 20-Мар-2013 19:23 (спустя 22 дня)

[Q] 

[Профиль]  [ЛС] 

Oldpunk 71

Пост 24-Фев-2014 15:09 (спустя 11 месяцев 3 дня)

[Q] 

СПАСИБО - СИЛЬНО !!! bk
[Профиль]  [ЛС] 
Показать сообщения:    
Ответить на тему

Текущее время: Сегодня 22:42

Часовой пояс: GMT + 4



Вы не можете начинать темы
Вы не можете отвечать на сообщения
Вы не можете редактировать свои сообщения
Вы не можете удалять свои сообщения
Вы не можете голосовать в опросах
Вы не можете прикреплять файлы к сообщениям
Вы не можете скачивать файлы

▼ Вниз