Уважаемый Гость!
Вы можете поддержать проект и зарегистрироваться у наших партнеров - онлайн-стратегия MyLands. При регистрации в игре Вы получите код, который сможете активировать после регистрации на pirat.ca и получить 1000 дублонов.

Ваш код:
6e74277781110e9b49c3c0dd24e1bed54391613e
 
     

(Electronic, EuroDance) London Boys - The Twelve Commandments Of Dance - 1989 [FLAC, image+.cue, lossless]

Ответить на тему
 
Автор
Сообщение

Пост 15-Мар-2013 08:53

[Q] 

Лоцмен

Шкипер

--London Boys / The Twelve Commandments Of Dance-- Год издания: 1989
Страна: Germany
Жанр: Electronic, EuroDance
Продолжительность: 00:47:53-Лейбл издания: Teldec
Тип альбома: CD Альбом
Страна-выпуска диска: Japan
Номер по каталогу: 22P2-3012
Источник (релизер): Собственный рип снят в режиме Test&Copy-Формат: FLAC
Битрейт аудио: lossless
Тип рипа: image+.cue
Наличие сканов в содержимом раздачи: да-
01 - Requiem
02 - Kimbaley (My Ma-Mama Say)
03 - Harlem Desire
04 - Chinese Radio
05 - Wichitah Woman
06 - My Love
07 - London Nights
08 - I'm Gonna Give My Heart
09 - El Matinero
10 - Dance Dance Dance
11 - Sandra
12 - The Midi Dance

Exact Audio Copy V1.0 beta 3 from 29. August 2011
Отчёт EAC об извлечении, выполненном 12. марта 2013, 11:40
London Boys / The Twelve Commandments Of Dance
Дисковод: HL-DT-STDVDRAM GSA-T10N Adapter: 0 ID: 0
Режим чтения : Достоверность
Использование точного потока : Да
Отключение кэша аудио : Да
Использование указателей C2 : Нет
Коррекция смещения при чтении : 667
Способность читать области Lead-in и Lead-out : Нет
Заполнение пропущенных сэмплов тишиной : Да
Удаление блоков с тишиной в начале и конце : Нет
При вычислениях CRC использовались нулевые сэмплы : Да
Интерфейс : Установленный внешний ASPI-интерфейс
Выходной формат : Пользовательский кодировщик
Выбранный битрейт : 1024 kBit/s
Качество : Высокий
Добавление ID3-тега : Нет
Утилита сжатия : D:\Program Files\Exact Audio Copy\FLAC\FLAC.EXE
Дополнительные параметры : -V -8 -T "Date=%year%" -T "Genre=%genre%" %source%
TOC извлечённого CD
Трек | Старт | Длительность | Начальный сектор | Конечный сектор
---------------------------------------------------------------------
1 | 0:00.00 | 4:20.00 | 0 | 19499
2 | 4:20.00 | 4:17.67 | 19500 | 38841
3 | 8:37.67 | 3:49.08 | 38842 | 56024
4 | 12:27.00 | 3:49.60 | 56025 | 73259
5 | 16:16.60 | 3:59.00 | 73260 | 91184
6 | 20:15.60 | 3:07.67 | 91185 | 105276
7 | 23:23.52 | 4:03.05 | 105277 | 123506
8 | 27:26.57 | 4:09.28 | 123507 | 142209
9 | 31:36.10 | 4:14.55 | 142210 | 161314
10 | 35:50.65 | 3:57.07 | 161315 | 179096
11 | 39:47.72 | 4:51.35 | 179097 | 200956
12 | 44:39.32 | 3:14.03 | 200957 | 215509
Характеристики диапазона извлечения и сообщения об ошибках
Выбранный диапазон
Имя файла D:\Desktop\London Boys - The Twelve Commandments Of Dance.wav
Пиковый уровень 96.2 %
Скорость извлечения 3.6 X
Качество диапазона 99.9 %
CRC теста B6D7627B
CRC копии B6D7627B
Копирование... OK
Ошибок не произошло
AccurateRip: сводка
Трек 1 : извлечено точно (доверие 1) [36953147] (AR v1)
Трек 2 : извлечено точно (доверие 1) [CDC863EB] (AR v1)
Трек 3 точность не определена (достоверность 1) [FC42362C], AccurateRip вернул [0858B4E8] (AR v2)
Трек 4 : извлечено точно (доверие 1) [D9F4F859] (AR v1)
Трек 5 : извлечено точно (доверие 1) [5AC0EF8F] (AR v1)
Трек 6 : извлечено точно (доверие 1) [9540FDF3] (AR v1)
Трек 7 : извлечено точно (доверие 1) [4DEDB3E7] (AR v1)
Трек 8 : извлечено точно (доверие 1) [8B17B32E] (AR v1)
Трек 9 : извлечено точно (доверие 1) [46BF4A85] (AR v1)
Трек 10 : извлечено точно (доверие 1) [20CDD3A7] (AR v1)
Трек 11 : извлечено точно (доверие 1) [53633AD3] (AR v1)
Трек 12 : извлечено точно (доверие 1) [EA769B4D] (AR v1)
11 трек(и) скопированы точно
1 трек(и) не удалось проверить на точность
Некоторые треки не прошли проверку на точность
Конец отчёта
==== Контрольная сумма отчёта 05E7F4EB57149334DF6C5C2A2799665B7DE324A40B03EEA38E50F00E8FE98762 ====

REM GENRE EuroDance
REM DATE 1989
REM DISCID BA0B390C
REM COMMENT "ExactAudioCopy v1.0b3"
PERFORMER "London Boys"
TITLE "The Twelve Commandments Of Dance"
FILE "London Boys - The Twelve Commandments Of Dance.flac" WAVE
TRACK 01 AUDIO
TITLE "Requiem"
PERFORMER "London Boys"
INDEX 01 00:00:00
TRACK 02 AUDIO
TITLE "Kimbaley {My Ma-Mama Say}"
PERFORMER "London Boys"
INDEX 00 04:17:45
INDEX 01 04:20:00
TRACK 03 AUDIO
TITLE "Harlem Desire"
PERFORMER "London Boys"
INDEX 00 08:35:50
INDEX 01 08:37:67
TRACK 04 AUDIO
TITLE "Chinese Radio"
PERFORMER "London Boys"
INDEX 00 12:24:50
INDEX 01 12:27:00
TRACK 05 AUDIO
TITLE "Wichitah Woman"
PERFORMER "London Boys"
INDEX 00 16:14:42
INDEX 01 16:16:60
TRACK 06 AUDIO
TITLE "My Love"
PERFORMER "London Boys"
INDEX 00 20:13:57
INDEX 01 20:15:60
TRACK 07 AUDIO
TITLE "London Nights"
PERFORMER "London Boys"
INDEX 00 23:21:12
INDEX 01 23:23:52
TRACK 08 AUDIO
TITLE "I'm Gonna Give My Heart"
PERFORMER "London Boys"
INDEX 00 27:24:45
INDEX 01 27:26:57
TRACK 09 AUDIO
TITLE "El Matinero"
PERFORMER "London Boys"
INDEX 00 31:33:60
INDEX 01 31:36:10
TRACK 10 AUDIO
TITLE "Dance Dance Dance"
PERFORMER "London Boys"
INDEX 00 35:48:52
INDEX 01 35:50:65
TRACK 11 AUDIO
TITLE "Sandra"
PERFORMER "London Boys"
INDEX 00 39:45:65
INDEX 01 39:47:72
TRACK 12 AUDIO
TITLE "The Midi Dance"
PERFORMER "London Boys"
INDEX 00 44:37:67
INDEX 01 44:39:32

The Twelve Commandments of Dance (Двенадцать заповедей танца) - дебютный альбом London Boys, танцевального поп-дуэта. Он был выпущен в 1989 году, и достиг второго места в Британском чарте. Альбом оставался в чартах 29 недель.
-
Download / Скачать

Хотите скачать бесплатно? Зарегистрируйтесь на сайте (ссылка на регистрацию). Pirat.ca - самый быстрый торрент трекер в рунете!

Как скачивать  ·   Что такое торрент  ·   Рейтинг и ограничения

Показать сообщения:    
Ответить на тему

Текущее время: Сегодня 13:40

Часовой пояс: GMT + 4



Вы не можете начинать темы
Вы не можете отвечать на сообщения
Вы не можете редактировать свои сообщения
Вы не можете удалять свои сообщения
Вы не можете голосовать в опросах
Вы не можете прикреплять файлы к сообщениям
Вы не можете скачивать файлы

▼ Вниз