Уважаемый Гость!
Вы можете поддержать проект и зарегистрироваться у наших партнеров - онлайн-стратегия MyLands. При регистрации в игре Вы получите код, который сможете активировать после регистрации на pirat.ca и получить 1000 дублонов.

Ваш код:
6e74277781110e9b49c3c0dd24e1bed54391613e
 
     

(Electronic, Hi NRG, EuroDance) London Boys - Sweet Soul Music - 1991 [FLAC, image+.cue, lossless]

Ответить на тему
 
Автор
Сообщение

Пост 15-Мар-2013 09:38

[Q] 

Лоцмен

Шкипер

---London Boys / Sweet Soul Music-- Год издания: 1991
Страна: Germany
Жанр: Electronic, Hi NRG, EuroDance
Продолжительность: 00:43:01-Лейбл издания: EastWest
Тип альбома: CD Альбом
Страна-выпуска диска: Europe
Номер по каталогу: 9031-74641-2, 9031-74641-2 ZP
Источник (релизер): Собственный рип снят в режиме Test&Copy-Формат: FLAC
Битрейт аудио: lossless
Тип рипа: image+.cue
Наличие сканов в содержимом раздачи: да-
01 - Sweet Soul Music
02 - Tonight! Tonight!
03 - Freedom
04 - Is This Love
05 - Bob Marley
06 - Was?! (Just An Illusion)
07 - Love Train
08 - High Fidelity
09 - Chapel Of Love
10 - Cherokee
11 - Reggae-Reggae, Rasta-Rasta (Reprise Bob Marley)

Exact Audio Copy V1.0 beta 3 from 29. August 2011
Отчёт EAC об извлечении, выполненном 23. июня 2012, 20:04
London Boys / Sweet Soul Music
Дисковод: HL-DT-STDVDRAM GSA-T10N Adapter: 0 ID: 0
Режим чтения : Достоверность
Использование точного потока : Да
Отключение кэша аудио : Да
Использование указателей C2 : Нет
Коррекция смещения при чтении : 667
Способность читать области Lead-in и Lead-out : Нет
Заполнение пропущенных сэмплов тишиной : Да
Удаление блоков с тишиной в начале и конце : Нет
При вычислениях CRC использовались нулевые сэмплы : Да
Интерфейс : Установленный внешний ASPI-интерфейс
Выходной формат : Пользовательский кодировщик
Выбранный битрейт : 1024 kBit/s
Качество : Высокий
Добавление ID3-тега : Нет
Утилита сжатия : D:\Program Files\Exact Audio Copy\FLAC\FLAC.EXE
Дополнительные параметры : -V -8 -T "Date=%year%" -T "Genre=%genre%" %source%
TOC извлечённого CD
Трек | Старт | Длительность | Начальный сектор | Конечный сектор
---------------------------------------------------------------------
1 | 0:00.00 | 3:32.58 | 0 | 15957
2 | 3:32.58 | 3:54.50 | 15958 | 33557
3 | 7:27.33 | 3:58.00 | 33558 | 51407
4 | 11:25.33 | 4:30.25 | 51408 | 71682
5 | 15:55.58 | 4:27.17 | 71683 | 91724
6 | 20:23.00 | 4:33.20 | 91725 | 112219
7 | 24:56.20 | 3:52.63 | 112220 | 129682
8 | 28:49.08 | 3:57.45 | 129683 | 147502
9 | 32:46.53 | 3:37.47 | 147503 | 163824
10 | 36:24.25 | 3:46.60 | 163825 | 180834
11 | 40:11.10 | 2:49.68 | 180835 | 193577
Характеристики диапазона извлечения и сообщения об ошибках
Выбранный диапазон
Имя файла D:\Desktop\London Boys - Sweet Soul Music.wav
Пиковый уровень 99.9 %
Скорость извлечения 3.5 X
Качество диапазона 100.0 %
CRC теста 572D2201
CRC копии 572D2201
Копирование... OK
Ошибок не произошло
AccurateRip: сводка
Трек 1 : извлечено точно (доверие 7) [D78C27C9] (AR v1)
Трек 2 : извлечено точно (доверие 7) [29F332DA] (AR v1)
Трек 3 : извлечено точно (доверие 7) [EC01DA4F] (AR v1)
Трек 4 : извлечено точно (доверие 7) [F8F50E92] (AR v1)
Трек 5 : извлечено точно (доверие 7) [EF4FAE6C] (AR v1)
Трек 6 : извлечено точно (доверие 7) [B53B2108] (AR v1)
Трек 7 : извлечено точно (доверие 8) [F8942655] (AR v1)
Трек 8 : извлечено точно (доверие 7) [8DA2C0DD] (AR v1)
Трек 9 : извлечено точно (доверие 7) [18EE7834] (AR v1)
Трек 10 : извлечено точно (доверие 7) [43C404DB] (AR v1)
Трек 11 : извлечено точно (доверие 7) [FE698A17] (AR v1)
Все треки извлечены точно
Конец отчёта
==== Контрольная сумма отчёта 4BC72C3C360A8AE93A6B07ADDBFE76A20F7C98CD966F91F0A3DE0E0E64342617 ====
REM GENRE EuroDance
REM DATE 1991
REM DISCID A30A150B
REM COMMENT "ExactAudioCopy v1.0b3"
PERFORMER "London Boys"
TITLE "Sweet Soul Music"
FILE "London Boys - Sweet Soul Music.flac" WAVE
TRACK 01 AUDIO
TITLE "Sweet Soul Music"
PERFORMER "London Boys"
INDEX 01 00:00:00
TRACK 02 AUDIO
TITLE "Tonight! Tonight!"
PERFORMER "London Boys"
INDEX 00 03:31:28
INDEX 01 03:32:58
TRACK 03 AUDIO
TITLE "Freedom"
PERFORMER "London Boys"
INDEX 00 07:25:40
INDEX 01 07:27:33
TRACK 04 AUDIO
TITLE "Is This Love"
PERFORMER "London Boys"
INDEX 00 11:24:03
INDEX 01 11:25:33
TRACK 05 AUDIO
TITLE "Bob Marley"
PERFORMER "London Boys"
INDEX 00 15:54:28
INDEX 01 15:55:58
TRACK 06 AUDIO
TITLE "Was?! (Just An Illusion)"
PERFORMER "London Boys"
INDEX 00 20:21:40
INDEX 01 20:23:00
TRACK 07 AUDIO
TITLE "Love Train"
PERFORMER "London Boys"
INDEX 00 24:55:03
INDEX 01 24:56:20
TRACK 08 AUDIO
TITLE "High Fidelity"
PERFORMER "London Boys"
INDEX 00 28:47:53
INDEX 01 28:49:08
TRACK 09 AUDIO
TITLE "Chapel Of Love"
PERFORMER "London Boys"
INDEX 00 32:45:03
INDEX 01 32:46:53
TRACK 10 AUDIO
TITLE "Cherokee"
PERFORMER "London Boys"
INDEX 00 36:22:65
INDEX 01 36:24:25
TRACK 11 AUDIO
TITLE "Reggae-Reggae, Rasta-Rasta (Reprise Bob Marley)"
PERFORMER "London Boys"
INDEX 00 40:09:65
INDEX 01 40:11:10

Группа была образована в 1986 году в Гамбурге. Название группы сложилось само собой: немецкие друзья англичан Эдема Эфраима (Edem Ephraim) и Денниса Фуллера (Dennis Fuller) в разговоре часто называли двух друзей «эти парни из Лондона». Продюсером группы стал небезызвестный Ральф Рене Мауе (Ralf Rene Maue).
Выпустив в 1986 году свой первый сингл «I’m Gonna Give My Heart», London boys сразу же показали себя последователями ритмичного евродиско. Особой популярностью диск не пользовался, хотя в Германии и вошел в британскую «десятку».
Осенью 1988 года группа выпускает полноценный альбом и новую песню «Requiem», которая фантастическим образом делает группу по-настоящему знаменитой. Альбом «Двенадцать заповедей танца», который был напечатан сначала только для Германии и Японии, распродается полностью, потом допечатывается новый тираж с небольшими изменениями в трек-листе и расходится по всей Европе. Это можно назвать кульминацией творчества группы London boys. Благодаря профессиональному подходу продюсера и отличному вокалу исполнителей, аранжировкам и хорошо выставленному саунду, альбом слушается на одном дыхании. Появление в дополнительном издании песни «London Nights» и параллельный выпуск ее синглом – стали венцом успеха группы: сингл занял 2-е место в британском хит-параде.
Следующий альбом London boys вышел только в 1991 году. По содержанию «Sweet Soul Music» сильно отличался от того, что группа исполняла раньше. Появились песни в стиле хаус, реггей (одна из песен даже была посвящена корифею этого стиля Бобу Марли). Практически каждая композиция содержала в себе элементы рэпа. Разве что, только вышедшая годом ранее синглом «Chapel Of Love» очень напоминала классический саунд London Boys образца 1988-1989.
Диск «Love 4 Unity», выпущенный в 1993 году, показал, что дуэт в очередной раз сменил стиль в угоду модным веяниям. Впрочем, ритм композиций идеально подходил для дискотек. Тем не менее действительно ярких и запоминающихся песен на пластинке не было.
Последний альбом «Hallelujah Hits» вышел в 1995 году, при этом группа изменила название на The New London Boys.
21 января 1996 года, путешествуя в Австрийских Альпах, Деннис и Эдем погибают при лобовом столкновении своей машины с машиной нетрезвого швейцарца на одном из опасных участках альпийского высокогорья.
Download / Скачать

Хотите скачать бесплатно? Зарегистрируйтесь на сайте (ссылка на регистрацию). Pirat.ca - самый быстрый торрент трекер в рунете!

Как скачивать  ·   Что такое торрент  ·   Рейтинг и ограничения

Показать сообщения:    
Ответить на тему

Текущее время: Сегодня 13:38

Часовой пояс: GMT + 4



Вы не можете начинать темы
Вы не можете отвечать на сообщения
Вы не можете редактировать свои сообщения
Вы не можете удалять свои сообщения
Вы не можете голосовать в опросах
Вы не можете прикреплять файлы к сообщениям
Вы не можете скачивать файлы

▼ Вниз