Уважаемый Гость!
Вы можете поддержать проект и зарегистрироваться у наших партнеров - онлайн-стратегия MyLands. При регистрации в игре Вы получите код, который сможете активировать после регистрации на pirat.ca и получить 1000 дублонов.

Ваш код:
6e74277781110e9b49c3c0dd24e1bed54391613e
 
     

(Electronic, Pop, Italo-Disco, Euro House, Synth-pop)Mike Mareen - Essential (2 CD) - 2010 [FLAC, image+.cue, lossless]

Ответить на тему
 
Автор
Сообщение

Пост 17-Мар-2013 12:38

[Q] 

Лоцмен

Шкипер

-Mike Mareen - Essential (2 CD)-- Год издания: 2010
Страна: Germany
Жанр: Electronic, Pop, Italo-Disco, Euro House, Synth-pop
Продолжительность: 02:32:06-Лейбл издания: Klub80 Records
Тип альбома: Компиляция, Ограниченное издание
Страна-выпуска диска: Poland
Номер по каталогу: CD 003
Источник (релизер): Собственный рип снят в режиме Test&Copy-Формат: FLAC
Битрейт аудио: lossless
Тип рипа: image+.cue
Наличие сканов в содержимом раздачи: да-
01 - Cecilia (Original Remix Version)
02 - Dancing In The Dark (Original 12' Version)
03 - Here I Am (Original 12' Version)
04 - Double Trouble (Original 12' Version)
05 - Midnight Runners (Original 12' Version)
06 - Love Spy (The Badman Mix)
07 - Agent Of Liberty (Original 12' Version)
08 - Don't Talk To The Snake (Original 12' Version)
09 - Stand Up (Original 12' Version)
10 - Germany (Original 12' Version)
11 - Lady Ecstasy (Original 12' Version)
12 - Heavy Water (Original 12' Version)
01 - Right Into My Heart (Inner Town-Deep-Houzz-Mix)
02 - Love Spy (Night Mix - Salutation Mix)
03 - Here I Am (Megatrain Mix)
04 - Here I Am (Hammer Mix)
05 - Dancing In The Dark (Galactica Remix)
06 - Double Trouble (Zeppelin Remix)
07 - Agent Of Liberty (Instrumental)
08 - Love Spy (Instrumental)
09 - Don't Talk To The Snake (Instrumental)
10 - Double Trouble (Double Dub)
11 - Right Into My Heart (Dub Version)
12 - The Mike Mareen Essential Megamix (Nextanimal Edit)

Exact Audio Copy V1.0 beta 3 from 29. August 2011
Отчёт EAC об извлечении, выполненном 24. июня 2012, 16:06
Mike Mareen / Essential CD 1
Дисковод: HL-DT-STDVDRAM GSA-T10N Adapter: 0 ID: 0
Режим чтения : Достоверность
Использование точного потока : Да
Отключение кэша аудио : Да
Использование указателей C2 : Нет
Коррекция смещения при чтении : 667
Способность читать области Lead-in и Lead-out : Нет
Заполнение пропущенных сэмплов тишиной : Да
Удаление блоков с тишиной в начале и конце : Нет
При вычислениях CRC использовались нулевые сэмплы : Да
Интерфейс : Установленный внешний ASPI-интерфейс
Выходной формат : Пользовательский кодировщик
Выбранный битрейт : 1024 kBit/s
Качество : Высокий
Добавление ID3-тега : Нет
Утилита сжатия : D:\Program Files\Exact Audio Copy\FLAC\FLAC.EXE
Дополнительные параметры : -V -8 -T "Date=%year%" -T "Genre=%genre%" %source%
TOC извлечённого CD
Трек | Старт | Длительность | Начальный сектор | Конечный сектор
---------------------------------------------------------------------
1 | 0:00.00 | 7:17.74 | 0 | 32848
2 | 7:17.74 | 5:45.74 | 32849 | 58797
3 | 13:03.73 | 5:14.74 | 58798 | 82421
4 | 18:18.72 | 5:12.74 | 82422 | 105895
5 | 23:31.71 | 5:57.74 | 105896 | 132744
6 | 29:29.70 | 6:24.74 | 132745 | 161618
7 | 35:54.69 | 8:53.74 | 161619 | 201667
8 | 44:48.68 | 8:00.74 | 201668 | 237741
9 | 52:49.67 | 6:31.74 | 237742 | 267140
10 | 59:21.66 | 5:45.74 | 267141 | 293089
11 | 65:07.65 | 5:37.38 | 293090 | 318402
12 | 70:45.28 | 6:49.74 | 318403 | 349151
Характеристики диапазона извлечения и сообщения об ошибках
Выбранный диапазон
Имя файла D:\Desktop\Mike Mareen - Essential CD 1.wav
Пиковый уровень 96.7 %
Скорость извлечения 4.1 X
Качество диапазона 100.0 %
CRC теста E991DCD9
CRC копии E991DCD9
Копирование... OK
Ошибок не произошло
AccurateRip: сводка
Трек 1 точность не определена (достоверность 1) [D64ACBFA], AccurateRip вернул [7CF35049] (AR v2)
Трек 2 точность не определена (достоверность 1) [1F6C659E], AccurateRip вернул [88C4F85E] (AR v2)
Трек 3 точность не определена (достоверность 1) [F9AB1817], AccurateRip вернул [7D6EFD6F] (AR v2)
Трек 4 точность не определена (достоверность 1) [2844F4D0], AccurateRip вернул [DC8C1660] (AR v2)
Трек 5 точность не определена (достоверность 1) [657EA32D], AccurateRip вернул [6A72E6F7] (AR v2)
Трек 6 точность не определена (достоверность 1) [2B633437], AccurateRip вернул [3B4ACB6C] (AR v2)
Трек 7 точность не определена (достоверность 1) [25C5CDB2], AccurateRip вернул [2ABFDB54] (AR v2)
Трек 8 точность не определена (достоверность 1) [ED9948F7], AccurateRip вернул [7DA845B0] (AR v2)
Трек 9 точность не определена (достоверность 1) [EBCF3E8F], AccurateRip вернул [63D8DD3E] (AR v2)
Трек 10 точность не определена (достоверность 1) [ADC9AABA], AccurateRip вернул [3F3C03DB] (AR v2)
Трек 11 точность не определена (достоверность 1) [30D57940], AccurateRip вернул [36058CA7] (AR v2)
Трек 12 точность не определена (достоверность 1) [79C77DD6], AccurateRip вернул [E415F048] (AR v2)
Ни один трек не прошёл проверки на точность
В вашей базе может быть иной вариант штамповки диска
Конец отчёта
==== Контрольная сумма отчёта 91A0CFE0E5A77F2D260D6D46A105D7E5BF394214FFD7DC4A9559AF51E3FF2E65 ====

Exact Audio Copy V1.0 beta 3 from 29. August 2011
Отчёт EAC об извлечении, выполненном 24. июня 2012, 18:05
Mike Mareen / Essential CD 2
Дисковод: HL-DT-STDVDRAM GSA-T10N Adapter: 0 ID: 0
Режим чтения : Достоверность
Использование точного потока : Да
Отключение кэша аудио : Да
Использование указателей C2 : Нет
Коррекция смещения при чтении : 667
Способность читать области Lead-in и Lead-out : Нет
Заполнение пропущенных сэмплов тишиной : Да
Удаление блоков с тишиной в начале и конце : Нет
При вычислениях CRC использовались нулевые сэмплы : Да
Интерфейс : Установленный внешний ASPI-интерфейс
Выходной формат : Пользовательский кодировщик
Выбранный битрейт : 1024 kBit/s
Качество : Высокий
Добавление ID3-тега : Нет
Утилита сжатия : D:\Program Files\Exact Audio Copy\FLAC\FLAC.EXE
Дополнительные параметры : -V -8 -T "Date=%year%" -T "Genre=%genre%" %source%
TOC извлечённого CD
Трек | Старт | Длительность | Начальный сектор | Конечный сектор
---------------------------------------------------------------------
1 | 0:00.00 | 6:46.74 | 0 | 30523
2 | 6:46.74 | 8:41.74 | 30524 | 69672
3 | 15:28.73 | 7:35.74 | 69673 | 103871
4 | 23:04.72 | 5:41.74 | 103872 | 129520
5 | 28:46.71 | 7:07.74 | 129521 | 161619
6 | 35:54.70 | 6:38.74 | 161620 | 191543
7 | 42:33.69 | 6:57.74 | 191544 | 222892
8 | 49:31.68 | 4:12.74 | 222893 | 241866
9 | 53:44.67 | 4:30.74 | 241867 | 262190
10 | 58:15.66 | 4:11.74 | 262191 | 281089
11 | 62:27.65 | 3:58.74 | 281090 | 299013
12 | 66:26.64 | 8:04.55 | 299014 | 335368
Характеристики диапазона извлечения и сообщения об ошибках
Выбранный диапазон
Имя файла D:\Desktop\Mike Mareen - Essential CD 2.wav
Пиковый уровень 97.1 %
Скорость извлечения 1.6 X
Качество диапазона 100.0 %
CRC теста 24364CE8
CRC копии 24364CE8
Копирование... OK
Ошибок не произошло
AccurateRip: сводка
Трек 1 отсутствует в базе данных
Трек 2 отсутствует в базе данных
Трек 3 отсутствует в базе данных
Трек 4 отсутствует в базе данных
Трек 5 отсутствует в базе данных
Трек 6 отсутствует в базе данных
Трек 7 отсутствует в базе данных
Трек 8 отсутствует в базе данных
Трек 9 отсутствует в базе данных
Трек 10 отсутствует в базе данных
Трек 11 отсутствует в базе данных
Трек 12 отсутствует в базе данных
Ни одного трека нет в базе AccurateRip
Конец отчёта
==== Контрольная сумма отчёта 710D07D78DEFA7EF8F8962012CAFDD298B5B8731A0E3C06F3424EC36DF8271C7 ====

REM GENRE Italo-Disco, Euro House, Synth-pop
REM DATE 2010
REM DISCID A3122F0C
REM COMMENT "ExactAudioCopy v1.0b3"
PERFORMER "Mike Mareen"
TITLE "Essential CD 1"
FILE "Mike Mareen - Essential CD 1.flac" WAVE
TRACK 01 AUDIO
TITLE "Cecilia (Original Remix Version)"
PERFORMER "Mike Mareen"
INDEX 01 00:00:00
TRACK 02 AUDIO
TITLE "Dancing In The Dark (Original 12' Version)"
PERFORMER "Mike Mareen"
INDEX 00 07:16:74
INDEX 01 07:17:74
TRACK 03 AUDIO
TITLE "Here I Am (Original 12' Version)"
PERFORMER "Mike Mareen"
INDEX 00 13:02:73
INDEX 01 13:03:73
TRACK 04 AUDIO
TITLE "Double Trouble (Original 12' Version)"
PERFORMER "Mike Mareen"
INDEX 00 18:17:72
INDEX 01 18:18:72
TRACK 05 AUDIO
TITLE "Midnight Runners (Original 12' Version)"
PERFORMER "Mike Mareen"
INDEX 00 23:30:71
INDEX 01 23:31:71
TRACK 06 AUDIO
TITLE "Love Spy (The Badman Mix)"
PERFORMER "Mike Mareen"
INDEX 00 29:28:70
INDEX 01 29:29:70
TRACK 07 AUDIO
TITLE "Agent Of Liberty (Original 12' Version)"
PERFORMER "Mike Mareen"
INDEX 00 35:53:69
INDEX 01 35:54:69
TRACK 08 AUDIO
TITLE "Don't Talk To The Snake (Original 12' Version)"
PERFORMER "Mike Mareen"
INDEX 00 44:47:68
INDEX 01 44:48:68
TRACK 09 AUDIO
TITLE "Stand Up (Original 12' Version)"
PERFORMER "Mike Mareen"
INDEX 00 52:48:67
INDEX 01 52:49:67
TRACK 10 AUDIO
TITLE "Germany (Original 12' Version)"
PERFORMER "Mike Mareen"
INDEX 00 59:20:66
INDEX 01 59:21:66
TRACK 11 AUDIO
TITLE "Lady Ecstasy (Original 12' Version)"
PERFORMER "Mike Mareen"
INDEX 00 65:06:65
INDEX 01 65:07:65
TRACK 12 AUDIO
TITLE "Heavy Water (Original 12' Version)"
PERFORMER "Mike Mareen"
INDEX 00 70:44:28
INDEX 01 70:45:28

REM GENRE Italo-Disco, Euro House, Synth-pop
REM DATE 2010
REM DISCID C911770C
REM COMMENT "ExactAudioCopy v1.0b3"
PERFORMER "Mike Mareen"
TITLE "Essential CD 2"
FILE "Mike Mareen - Essential CD 2.flac" WAVE
TRACK 01 AUDIO
TITLE "Right Into My Heart (Inner Town-Deep-Houzz-Mix)"
PERFORMER "Mike Mareen"
INDEX 01 00:00:00
TRACK 02 AUDIO
TITLE "Love Spy (Night Mix - Salutation Mix)"
PERFORMER "Mike Mareen"
INDEX 00 06:45:74
INDEX 01 06:46:74
TRACK 03 AUDIO
TITLE "Here I Am (Megatrain Mix)"
PERFORMER "Mike Mareen"
INDEX 00 15:27:73
INDEX 01 15:28:73
TRACK 04 AUDIO
TITLE "Here I Am (Hammer Mix)"
PERFORMER "Mike Mareen"
INDEX 00 23:03:72
INDEX 01 23:04:72
TRACK 05 AUDIO
TITLE "Dancing In The Dark (Galactica Remix)"
PERFORMER "Mike Mareen"
INDEX 00 28:45:71
INDEX 01 28:46:71
TRACK 06 AUDIO
TITLE "Double Trouble (Zeppelin Remix)"
PERFORMER "Mike Mareen"
INDEX 00 35:53:70
INDEX 01 35:54:70
TRACK 07 AUDIO
TITLE "Agent Of Liberty (Instrumental)"
PERFORMER "Mike Mareen"
INDEX 00 42:32:69
INDEX 01 42:33:69
TRACK 08 AUDIO
TITLE "Love Spy (Instrumental)"
PERFORMER "Mike Mareen"
INDEX 00 49:30:68
INDEX 01 49:31:68
TRACK 09 AUDIO
TITLE "Don't Talk To The Snake (Instrumental)"
PERFORMER "Mike Mareen"
INDEX 00 53:43:67
INDEX 01 53:44:67
TRACK 10 AUDIO
TITLE "Double Trouble (Double Dub)"
PERFORMER "Mike Mareen"
INDEX 00 58:14:66
INDEX 01 58:15:66
TRACK 11 AUDIO
TITLE "Right Into My Heart (Dub Version)"
PERFORMER "Mike Mareen"
INDEX 00 62:26:65
INDEX 01 62:27:65
TRACK 12 AUDIO
TITLE "The Mike Mareen Essential Megamix (Nextanimal Edit)"
PERFORMER "Mike Mareen"
INDEX 00 66:25:64
INDEX 01 66:26:64

Майк Марин (Mike Mareen) родился и вырос в Берлине. Свой первый музыкальный опыт он получил как барабанщик группы «Cementery Institution», выступающей в легендарном Star-Club в Гамбурге. В поисках своего неповторимого музыкального стиля он путешестует по миру, в том числе несколько лет работает в США вокалистом во многих группах. Вернувшись домой в Германию, он продолжает свои музыкальные тренировки, а также берет уроки игры на клавишных инструментах. Он устраивает экстравагантное ночное шоу, которое длится всю ночь в режиме реального времени.
В 1982 году он организует собственную студию грамзаписи «Night n Day Records». Главная цель - помочь молодым музыкантам в стадии их становления. В 1984-1985 годах Mike Mareen записывает свой первый альбом «Dance Control», который поступает в продажу в 1985 году. Сопродюсером альбома стал Chris Evans-Ironside. Песня «Dancing In The Dark» стала хитом номер 1 в 27 странах мира. Например, в одном только Мехико Сити было продано 50 тысяч пластинок. В 1986 году диск «Love Spy» стал его окончательным прорывом, благодаря которому Mike Mareen стал считаться королем италодиско. Он один из немногих европейских артистов попавших со своими песнями в American Billboard Charts. Благодаря международной известности Майком заинтересовался продюсер Roberto Blanco, известный по работе со многими звездами мировой музыки.
В 1987 в топ выходит еще одна песня Майка Марин (Mike Mareen) «Agent Of Liberty», которая долго держалась во многих радиочартах. В конце 1988 года Майк Марин (Mike Mareen) выпускает диск-гигант «Let s Start Now», полностью завоевавший дискотеки Европы.
Download / Скачать

Хотите скачать бесплатно? Зарегистрируйтесь на сайте (ссылка на регистрацию). Pirat.ca - самый быстрый торрент трекер в рунете!

Как скачивать  ·   Что такое торрент  ·   Рейтинг и ограничения

Показать сообщения:    
Ответить на тему

Текущее время: Сегодня 13:41

Часовой пояс: GMT + 4



Вы не можете начинать темы
Вы не можете отвечать на сообщения
Вы не можете редактировать свои сообщения
Вы не можете удалять свои сообщения
Вы не можете голосовать в опросах
Вы не можете прикреплять файлы к сообщениям
Вы не можете скачивать файлы

▼ Вниз