Уважаемый Гость!
Вы можете поддержать проект и зарегистрироваться у наших партнеров - онлайн-стратегия MyLands. При регистрации в игре Вы получите код, который сможете активировать после регистрации на pirat.ca и получить 1000 дублонов.

Ваш код:
42dfaac977a7ef29e5167536f5b22936dba18477
 
     

(Disco) VA - VA - Фестиваль Авторадио: Дискотека 80-х (часть 1) - 2003 [FLAC, image+.cue, lossless]

Ответить на тему
 
Автор
Сообщение

Пост 18-Мар-2013 23:12

[Q] 

Лоцмен

Шкипер

-VA - Фестиваль Авторадио: Дискотека 80-х (часть 1)-- Год издания: 2003
Страна: Europe, Italy
Жанр: Disco
Продолжительность: 01:14:13-Лейбл издания: Prof Music
Тип альбома: Компиляция
Страна-выпуска диска: Russia
Номер по каталогу: Prof Music-8-2
Источник (релизер): Собственный рип снят в режиме Test&Copy-Формат: FLAC
Битрейт аудио: lossless
Тип рипа: image+.cue
Наличие сканов в содержимом раздачи: да-
01 - Modern Talking "Cheri Cheri Lady"
02 - Bad Boys Blue "You're A Woman"
03 - Afric Simone "Hafanana"
04 - Fancy "Flames Of Love"
05 - Baccara "Sorry, I'm A Lady"
06 - Al Bano & Romina Power "Felicita"
07 - Gazebo "Lunatic"
08 - Dschinghis Khan "Dschinghis Khan"
09 - Samanta Fox "Nothing's Gonna Stop Me Now"
10 - Afric Simone "Todo Pasara Maria"
11 - C.C.Catch "Heaven And Hell"
12 - Modern Talking "Geronimo's Cadilac"
13 - Bad Boys Blue "Kiss You All Over,Baby"
14 - Gazebo "Masterpiece"
15 - Baccara "You Sir, I Can Boogle"
16 - Londonbeat "I've Been Thinking About You"
17 - Fancy "Slice Me Nice"
18 - Ricchi & Poveri "Mamma Maria"
19 - Vaya Con Dios "Nah Neh Nah"
20 - Dschinghis Khan "Moscow"

Exact Audio Copy V1.0 beta 3 from 29. August 2011
Отчёт EAC об извлечении, выполненном 19. апреля 2012, 0:16
Various Artist / Дискотека 80х часть1
Дисковод: HL-DT-STDVDRAM GSA-T10N Adapter: 0 ID: 0
Режим чтения : Достоверность
Использование точного потока : Да
Отключение кэша аудио : Да
Использование указателей C2 : Нет
Коррекция смещения при чтении : 667
Способность читать области Lead-in и Lead-out : Нет
Заполнение пропущенных сэмплов тишиной : Да
Удаление блоков с тишиной в начале и конце : Нет
При вычислениях CRC использовались нулевые сэмплы : Да
Интерфейс : Установленный внешний ASPI-интерфейс
Выходной формат : Пользовательский кодировщик
Выбранный битрейт : 1024 kBit/s
Качество : Высокий
Добавление ID3-тега : Нет
Утилита сжатия : D:\Program Files\Exact Audio Copy\FLAC\FLAC.EXE
Дополнительные параметры : -V -8 -T "Date=%year%" -T "Genre=%genre%" %source%
TOC извлечённого CD
Трек | Старт | Длительность | Начальный сектор | Конечный сектор
---------------------------------------------------------------------
1 | 0:00.00 | 3:46.74 | 0 | 17023
2 | 3:46.74 | 3:55.49 | 17024 | 34697
3 | 7:42.48 | 2:54.58 | 34698 | 47805
4 | 10:37.31 | 3:55.13 | 47806 | 65443
5 | 14:32.44 | 3:37.69 | 65444 | 81787
6 | 18:10.38 | 3:11.70 | 81788 | 96182
7 | 21:22.33 | 3:57.23 | 96183 | 113980
8 | 25:19.56 | 3:03.61 | 113981 | 127766
9 | 28:23.42 | 3:44.56 | 127767 | 144622
10 | 32:08.23 | 3:14.59 | 144623 | 159231
11 | 35:23.07 | 3:41.65 | 159232 | 175871
12 | 39:04.72 | 3:17.42 | 175872 | 190688
13 | 42:22.39 | 4:33.59 | 190689 | 211222
14 | 46:56.23 | 4:12.03 | 211223 | 230125
15 | 51:08.26 | 4:34.02 | 230126 | 250677
16 | 55:42.28 | 3:49.50 | 250678 | 267902
17 | 59:32.03 | 4:22.15 | 267903 | 287567
18 | 63:54.18 | 2:55.40 | 287568 | 300732
19 | 66:49.58 | 2:54.49 | 300733 | 313831
20 | 69:44.32 | 4:28.37 | 313832 | 333968
Характеристики диапазона извлечения и сообщения об ошибках
Выбранный диапазон
Имя файла D:\Desktop\Various Artist - Дискотека 80х часть1.wav
Пиковый уровень 99.6 %
Скорость извлечения 4.0 X
Качество диапазона 100.0 %
CRC теста 259D23BC
CRC копии 259D23BC
Копирование... OK
Ошибок не произошло
AccurateRip: сводка
Трек 1 : извлечено точно (доверие 1) [8B7F73E0] (AR v1)
Трек 2 : извлечено точно (доверие 1) [483D39E3] (AR v1)
Трек 3 : извлечено точно (доверие 1) [B1251386] (AR v1)
Трек 4 : извлечено точно (доверие 1) [C9A9DD26] (AR v1)
Трек 5 : извлечено точно (доверие 1) [4EC6A85C] (AR v1)
Трек 6 : извлечено точно (доверие 1) [31AEC106] (AR v1)
Трек 7 : извлечено точно (доверие 1) [6F98E2F8] (AR v1)
Трек 8 : извлечено точно (доверие 1) [A39B141B] (AR v1)
Трек 9 : извлечено точно (доверие 1) [46F57D50] (AR v1)
Трек 10 : извлечено точно (доверие 1) [07DC15BE] (AR v1)
Трек 11 : извлечено точно (доверие 1) [484F5BFA] (AR v1)
Трек 12 : извлечено точно (доверие 1) [9E522FCD] (AR v1)
Трек 13 : извлечено точно (доверие 1) [09FFF655] (AR v1)
Трек 14 : извлечено точно (доверие 1) [9E627B48] (AR v1)
Трек 15 точность не определена (достоверность 1) [61B03C06], AccurateRip вернул [5811EAD7] (AR v2)
Трек 16 точность не определена (достоверность 1) [9057F409], AccurateRip вернул [D6B00497] (AR v2)
Трек 17 : извлечено точно (доверие 1) [C0ECA386] (AR v1)
Трек 18 : извлечено точно (доверие 1) [815E2EE9] (AR v1)
Трек 19 : извлечено точно (доверие 1) [C8C4F976] (AR v1)
Трек 20 точность не определена (достоверность 1) [6D71F2E6], AccurateRip вернул [EEE054B9] (AR v2)
17 трек(и) скопированы точно
3 трек(и) не удалось проверить на точность
Некоторые треки не прошли проверку на точность
Конец отчёта
==== Контрольная сумма отчёта 11FF4E23D0679F2F6D3EE7044E5B6B50DF24317BBCC2B0F73B1A0BA095B800E6 ====

REM GENRE Disco
REM DATE 2003
REM DISCID 13116414
REM COMMENT "ExactAudioCopy v1.0b3"
PERFORMER " Various Artist "
TITLE "Дискотека 80х часть1"
FILE "Various Artist - Дискотека 80х часть1.flac" WAVE
TRACK 01 AUDIO
TITLE "Cheri Cheri Lady"
PERFORMER "Modern Talking"
FLAGS DCP
INDEX 01 00:00:00
TRACK 02 AUDIO
TITLE "You're A Woman"
PERFORMER "Bad Boys Blue"
FLAGS DCP
INDEX 00 03:44:74
INDEX 01 03:46:74
TRACK 03 AUDIO
TITLE "Hafanana"
PERFORMER "Afric Simone"
FLAGS DCP
INDEX 00 07:40:48
INDEX 01 07:42:48
TRACK 04 AUDIO
TITLE "Flames Of Love"
PERFORMER "Fancy"
FLAGS DCP
INDEX 00 10:35:31
INDEX 01 10:37:31
TRACK 05 AUDIO
TITLE "Sorry, I'm A Lady"
PERFORMER "Baccara"
FLAGS DCP
INDEX 00 14:30:44
INDEX 01 14:32:44
TRACK 06 AUDIO
TITLE "Felicita"
PERFORMER "Al Bano & Romina Power"
FLAGS DCP
INDEX 00 18:08:38
INDEX 01 18:10:38
TRACK 07 AUDIO
TITLE "Lunatic"
PERFORMER "Gazebo"
FLAGS DCP
INDEX 00 21:20:33
INDEX 01 21:22:33
TRACK 08 AUDIO
TITLE "Dschinghis Khan"
PERFORMER "Dschinghis Khan"
FLAGS DCP
INDEX 00 25:17:56
INDEX 01 25:19:56
TRACK 09 AUDIO
TITLE "Nothing's Gonna Stop Me Now"
PERFORMER "Samanta Fox"
FLAGS DCP
INDEX 00 28:21:42
INDEX 01 28:23:42
TRACK 10 AUDIO
TITLE "Todo Pasara Maria"
PERFORMER "Afric Simone"
FLAGS DCP
INDEX 00 32:06:23
INDEX 01 32:08:23
TRACK 11 AUDIO
TITLE "Heaven And Hell"
PERFORMER "C.C.Catch"
FLAGS DCP
INDEX 00 35:21:07
INDEX 01 35:23:07
TRACK 12 AUDIO
TITLE "Geronimo's Cadilac"
PERFORMER "Modern Talking"
FLAGS DCP
INDEX 00 39:02:72
INDEX 01 39:04:72
TRACK 13 AUDIO
TITLE "Kiss You All Over,Baby"
PERFORMER "Bad Boys Blue"
FLAGS DCP
INDEX 00 42:20:39
INDEX 01 42:22:39
TRACK 14 AUDIO
TITLE "Masterpiece"
PERFORMER "Gazebo"
FLAGS DCP
INDEX 00 46:54:23
INDEX 01 46:56:23
TRACK 15 AUDIO
TITLE "You Sir, I Can Boogle"
PERFORMER "Baccara"
FLAGS DCP
INDEX 00 51:06:26
INDEX 01 51:08:26
TRACK 16 AUDIO
TITLE "I've Been Thinking About You"
PERFORMER "Londonbeat"
FLAGS DCP
INDEX 00 55:40:28
INDEX 01 55:42:28
TRACK 17 AUDIO
TITLE "Slice Me Nice"
PERFORMER "Fancy"
FLAGS DCP
INDEX 00 59:30:03
INDEX 01 59:32:03
TRACK 18 AUDIO
TITLE "Mamma Maria"
PERFORMER "Ricchi & Poveri"
FLAGS DCP
INDEX 00 63:52:18
INDEX 01 63:54:18
TRACK 19 AUDIO
TITLE "Nah Neh Nah"
PERFORMER "Vaya Con Dios"
FLAGS DCP
INDEX 00 66:47:58
INDEX 01 66:49:58
TRACK 20 AUDIO
TITLE "Moscow"
PERFORMER "Dschinghis Khan"
FLAGS DCP
INDEX 00 69:42:32
INDEX 01 69:44:32
Download / Скачать

Хотите скачать бесплатно? Зарегистрируйтесь на сайте (ссылка на регистрацию). Pirat.ca - самый быстрый торрент трекер в рунете!

Как скачивать  ·   Что такое торрент  ·   Рейтинг и ограничения

Показать сообщения:    
Ответить на тему

Текущее время: Сегодня 22:42

Часовой пояс: GMT + 4



Вы не можете начинать темы
Вы не можете отвечать на сообщения
Вы не можете редактировать свои сообщения
Вы не можете удалять свои сообщения
Вы не можете голосовать в опросах
Вы не можете прикреплять файлы к сообщениям
Вы не можете скачивать файлы

▼ Вниз