Уважаемый Гость!
Вы можете поддержать проект и зарегистрироваться у наших партнеров - онлайн-стратегия MyLands. При регистрации в игре Вы получите код, который сможете активировать после регистрации на pirat.ca и получить 1000 дублонов.

Ваш код:
6e74277781110e9b49c3c0dd24e1bed54391613e
 
     

(Dance) VA - Super Hot Hits (2CD) - 2013, FLAC (tracks), lossless

Ответить на тему
 
Автор
Сообщение

Пост 17-Сен-2013 22:34

[Q] 

sergej644

-VA - Super Hot Hits (2CD)- Страна: Румыния
Жанр: Dance
Год выпуска: 2013
Издатель (лейбл): ROTON
Номер по каталогу: 5123-2
Формат: FLAC (tracks)
Битрейт аудио: lossless
Продолжительность: 01:55:25

01. Antonia - Marabou (03:39)
02. Katia feat. Wildboyz - Boom Sem Parar (03:49)
03. Ahmed Chawki feat. Pitbull - Habibi I Love You (Radio Edit) (03:42)
04. Marquess & Jessie D feat. Jimmy Dub - Beso (03:30)
05. Lylloo & Matt Houston - Tu Y Yo (Original Version) (03:04)
06. Spankox feat. Yunna - Makaroni (Radio Edit) (03:12)
07. Faydee - Psycho (03:06)
08. Tacabro - Asi Asi (Radio Edit) (03:05)
09. Alien Cut & Dino Brown feat. Vivian B - Love Me Boy (Radio Edit) (03:25)
10. Gary Caos vs Rico Bernasconi feat. In-Grid - La Trompette (Bernasconi Radio Edit) (03:02)
11. Bob Sinclar - Groupie (03:07)
12. Chris Malinchak - So Good To Me (Radio Edit) (02:40)
13. Ida Corr feat. Fatman Scoop - Tonight I'm Your DJ (Radio) (03:40)
14. Bosson & Baby Bash feat. Apollo-4 - Love Is In The Air (Radio Edit) (03:40)
15. Sonic-e & Woolhouse feat. Amna - Tonight (03:26)
16. EDX & Nadia Ali - This Is Your Life (Radio Edit) (02:51)
17. Sibel - Every Girl In The World (Radio Edit) (03:21)
01. Inna feat. Daddy Yankee - More Than Friends (04:00)
02. Kourosh Tazmini feat. Aisa - Saxo Love (I'm What You Want) (Radio Edit) (03:37)
03. Boris Dlugosch feat. Roisin Murphy - Look Around You (Radio Edit) (03:39)
04. Hardwell feat. Mitch Crown - Call Me A Spaceman (Radio Edit) (03:11)
05. Mike Candys feat. Jenson Vaughan - Bring Back The Love (Radio Mix) (03:18)
06. DJ Antoine - Bella Vita (DJ Antoine vs Mad Mark 2k13 Radio Edit) (03:25)
07. Meital feat. Sean Kingston - On Ya (Radio Edit) (04:06)
08. Eddy Wata - Senorita (Ago Carollo Radio Edit) (03:21)
09. Daniela - Breathe Again (Radio Edit) (03:10)
10. Rightless - You're The One (Club Radio Edit) (03:24)
11. Stereolizza - Go Back To Your Mama (03:57)
12. Anthony - DreamGirl (03:00)
13. Picco - La Maquina (Orginal Radio Edit) (02:52)
14. Ex-Po - We Love Susanne (Original Edit) (03:45)
15. Fawni - It's All About You (Original Radio Edit) (03:39)
16. Antoine Clamaran feat Fenha - This Is My Goodbye (Radio Edit) (03:24)
17. Reepublic feat. T-Elle - Turn Off The Light (Radio Edit) (03:17)
-
Код:
Exact Audio Copy V1.0 beta 3 from 29. August 2011
EAC extraction logfile from 3. September 2013, 23:52
Various / Super Summer Hits 2013 CD1
Used drive  : ASUS    DRW-2014L1T   Adapter: 2  ID: 1
Read mode               : Secure
Utilize accurate stream : Yes
Defeat audio cache      : Yes
Make use of C2 pointers : No
Read offset correction                      : 6
Overread into Lead-In and Lead-Out          : No
Fill up missing offset samples with silence : Yes
Delete leading and trailing silent blocks   : No
Null samples used in CRC calculations       : Yes
Used interface                              : Native Win32 interface for Win NT & 2000
Gap handling                                : Appended to previous track
Used output format : Internal WAV Routines
Sample format      : 44.100 Hz; 16 Bit; Stereo
TOC of the extracted CD
     Track |   Start  |  Length  | Start sector | End sector
    ---------------------------------------------------------
        1  |  0:00.00 |  3:39.21 |         0    |    16445
        2  |  3:39.21 |  3:49.63 |     16446    |    33683
        3  |  7:29.09 |  3:42.13 |     33684    |    50346
        4  | 11:11.22 |  3:30.26 |     50347    |    66122
        5  | 14:41.48 |  3:04.26 |     66123    |    79948
        6  | 17:45.74 |  3:12.30 |     79949    |    94378
        7  | 20:58.29 |  3:06.22 |     94379    |   108350
        8  | 24:04.51 |  3:05.06 |    108351    |   122231
        9  | 27:09.57 |  3:25.58 |    122232    |   137664
       10  | 30:35.40 |  3:02.09 |    137665    |   151323
       11  | 33:37.49 |  3:07.19 |    151324    |   165367
       12  | 36:44.68 |  2:40.69 |    165368    |   177436
       13  | 39:25.62 |  3:40.03 |    177437    |   193939
       14  | 43:05.65 |  3:40.13 |    193940    |   210452
       15  | 46:46.03 |  3:26.30 |    210453    |   225932
       16  | 50:12.33 |  2:51.68 |    225933    |   238825
       17  | 53:04.26 |  3:21.49 |    238826    |   253949
Track  1
     Filename D:\OUTPUT FILES\01 Antonia - Marabou.wav
     Pre-gap length  0:00:02.00
     Peak level 91.1 %
     Extraction speed 4.9 X
     Track quality 100.0 %
     Test CRC 86617923
     Copy CRC 86617923
     Track not present in AccurateRip database
     Copy OK
Track  2
     Filename D:\OUTPUT FILES\02 Katia feat. Wildboyz - Boom Sem Parar.wav
     Pre-gap length  0:00:02.00
     Peak level 97.7 %
     Extraction speed 5.4 X
     Track quality 100.0 %
     Test CRC 0E4E753E
     Copy CRC 0E4E753E
     Track not present in AccurateRip database
     Copy OK
Track  3
     Filename D:\OUTPUT FILES\03 Ahmed Chawki feat. Pitbull - Habibi I Love You (Radio Edit).wav
     Pre-gap length  0:00:02.00
     Peak level 89.0 %
     Extraction speed 5.9 X
     Track quality 100.0 %
     Test CRC 25C5F940
     Copy CRC 25C5F940
     Track not present in AccurateRip database
     Copy OK
Track  4
     Filename D:\OUTPUT FILES\04 Marquess & Jessie D feat. Jimmy Dub - Beso.wav
     Pre-gap length  0:00:02.00
     Peak level 97.7 %
     Extraction speed 6.2 X
     Track quality 100.0 %
     Test CRC C0123E8A
     Copy CRC C0123E8A
     Track not present in AccurateRip database
     Copy OK
Track  5
     Filename D:\OUTPUT FILES\05 Lylloo & Matt Houston - Tu Y Yo (Original Version).wav
     Pre-gap length  0:00:02.00
     Peak level 94.4 %
     Extraction speed 6.4 X
     Track quality 100.0 %
     Test CRC 03C0912B
     Copy CRC 03C0912B
     Track not present in AccurateRip database
     Copy OK
Track  6
     Filename D:\OUTPUT FILES\06 Spankox feat. Yunna - Makaroni (Radio Edit).wav
     Pre-gap length  0:00:02.00
     Peak level 84.0 %
     Extraction speed 6.8 X
     Track quality 100.0 %
     Test CRC 39584AE4
     Copy CRC 39584AE4
     Track not present in AccurateRip database
     Copy OK
Track  7
     Filename D:\OUTPUT FILES\07 Faydee - Psycho.wav
     Pre-gap length  0:00:02.00
     Peak level 79.4 %
     Extraction speed 7.0 X
     Track quality 100.0 %
     Test CRC 6BD5205B
     Copy CRC 6BD5205B
     Track not present in AccurateRip database
     Copy OK
Track  8
     Filename D:\OUTPUT FILES\08 Tacabro - Asi Asi (Radio Edit).wav
     Pre-gap length  0:00:02.00
     Peak level 94.3 %
     Extraction speed 7.3 X
     Track quality 100.0 %
     Test CRC 8D41348D
     Copy CRC 8D41348D
     Track not present in AccurateRip database
     Copy OK
Track  9
     Filename D:\OUTPUT FILES\09 Alien Cut & Dino Brown feat. Vivian B - Love Me Boy (Radio Edit).wav
     Pre-gap length  0:00:02.00
     Peak level 92.2 %
     Extraction speed 7.6 X
     Track quality 100.0 %
     Test CRC B27ACD2A
     Copy CRC B27ACD2A
     Track not present in AccurateRip database
     Copy OK
Track 10
     Filename D:\OUTPUT FILES\10 Gary Caos vs Rico Bernasconi feat. In-Grid - La Trompette (Bernasconi Radio Edit).wav
     Pre-gap length  0:00:02.00
     Peak level 87.3 %
     Extraction speed 7.8 X
     Track quality 100.0 %
     Test CRC 22EE0DA5
     Copy CRC 22EE0DA5
     Track not present in AccurateRip database
     Copy OK
Track 11
     Filename D:\OUTPUT FILES\11 Bob Sinclar - Groupie.wav
     Pre-gap length  0:00:02.00
     Peak level 79.3 %
     Extraction speed 5.8 X
     Track quality 99.9 %
     Test CRC 35BB9441
     Copy CRC 35BB9441
     Track not present in AccurateRip database
     Copy OK
Track 12
     Filename D:\OUTPUT FILES\12 Chris Malinchak - So Good To Me (Radio Edit).wav
     Pre-gap length  0:00:02.00
     Peak level 97.7 %
     Extraction speed 6.8 X
     Track quality 100.0 %
     Test CRC 6C792CE2
     Copy CRC 6C792CE2
     Track not present in AccurateRip database
     Copy OK
Track 13
     Filename D:\OUTPUT FILES\13 Ida Corr feat. Fatman Scoop - Tonight I'm Your DJ (Radio).wav
     Pre-gap length  0:00:02.00
     Peak level 87.9 %
     Extraction speed 7.4 X
     Track quality 100.0 %
     Test CRC 19F0A5B9
     Copy CRC 19F0A5B9
     Track not present in AccurateRip database
     Copy OK
Track 14
     Filename D:\OUTPUT FILES\14 Bosson & Baby Bash feat. Apollo-4 - Love Is In The Air (Radio Edit).wav
     Pre-gap length  0:00:02.00
     Peak level 78.5 %
     Extraction speed 7.6 X
     Track quality 100.0 %
     Test CRC 0EEDE3B1
     Copy CRC 0EEDE3B1
     Track not present in AccurateRip database
     Copy OK
Track 15
     Filename D:\OUTPUT FILES\15 Sonic-e & Woolhouse feat. Amna - Tonight.wav
     Pre-gap length  0:00:02.00
     Peak level 97.7 %
     Extraction speed 7.7 X
     Track quality 100.0 %
     Test CRC C4FE4A52
     Copy CRC C4FE4A52
     Track not present in AccurateRip database
     Copy OK
Track 16
     Filename D:\OUTPUT FILES\16 EDX & Nadia Ali - This Is Your Life (Radio Edit).wav
     Pre-gap length  0:00:02.00
     Peak level 89.0 %
     Extraction speed 7.6 X
     Track quality 100.0 %
     Test CRC 878D26FD
     Copy CRC 878D26FD
     Track not present in AccurateRip database
     Copy OK
Track 17
     Filename D:\OUTPUT FILES\17 Sibel - Every Girl In The World (Radio Edit).wav
     Pre-gap length  0:00:02.00
     Peak level 93.3 %
     Extraction speed 8.0 X
     Track quality 100.0 %
     Test CRC 33C4619D
     Copy CRC 33C4619D
     Track not present in AccurateRip database
     Copy OK
None of the tracks are present in the AccurateRip database
No errors occurred
End of status report
---- CUETools DB Plugin V2.1.3
[CTDB TOCID: BSP6EwLEopvNa46zEZ_nInRUOuw-] disk not present in database, Submit result: BSP6EwLEopvNa46zEZ_nInRUOuw- has been uploaded
Код:
Exact Audio Copy V1.0 beta 3 from 29. August 2011
EAC extraction logfile from 4. September 2013, 0:18
Various / Super Summer Hits 2013 CD2
Used drive  : ASUS    DRW-2014L1T   Adapter: 2  ID: 1
Read mode               : Secure
Utilize accurate stream : Yes
Defeat audio cache      : Yes
Make use of C2 pointers : No
Read offset correction                      : 6
Overread into Lead-In and Lead-Out          : No
Fill up missing offset samples with silence : Yes
Delete leading and trailing silent blocks   : No
Null samples used in CRC calculations       : Yes
Used interface                              : Native Win32 interface for Win NT & 2000
Gap handling                                : Appended to previous track
Used output format : Internal WAV Routines
Sample format      : 44.100 Hz; 16 Bit; Stereo
TOC of the extracted CD
     Track |   Start  |  Length  | Start sector | End sector
    ---------------------------------------------------------
        1  |  0:00.00 |  4:00.07 |         0    |    18006
        2  |  4:00.07 |  3:37.29 |     18007    |    34310
        3  |  7:37.36 |  3:39.03 |     34311    |    50738
        4  | 11:16.39 |  3:11.18 |     50739    |    65081
        5  | 14:27.57 |  3:18.32 |     65082    |    79963
        6  | 17:46.14 |  3:25.49 |     79964    |    95387
        7  | 21:11.63 |  4:06.50 |     95388    |   113887
        8  | 25:18.38 |  3:21.08 |    113888    |   128970
        9  | 28:39.46 |  3:10.35 |    128971    |   143255
       10  | 31:50.06 |  3:24.48 |    143256    |   158603
       11  | 35:14.54 |  3:57.40 |    158604    |   176418
       12  | 39:12.19 |  3:00.53 |    176419    |   189971
       13  | 42:12.72 |  2:52.29 |    189972    |   202900
       14  | 45:05.26 |  3:45.54 |    202901    |   219829
       15  | 48:51.05 |  3:39.70 |    219830    |   236324
       16  | 52:31.00 |  3:24.56 |    236325    |   251680
       17  | 55:55.56 |  3:17.08 |    251681    |   266463
Track  1
     Filename D:\OUTPUT FILES\01 Inna feat. Daddy Yankee - More Than Friends.wav
     Pre-gap length  0:00:02.00
     Peak level 89.1 %
     Extraction speed 4.9 X
     Track quality 100.0 %
     Test CRC 862CF8D7
     Copy CRC 862CF8D7
     Track not present in AccurateRip database
     Copy OK
Track  2
     Filename D:\OUTPUT FILES\02 Kourosh Tazmini feat. Aisa - Saxo Love (I'm What You Want) (Radio Edit).wav
     Pre-gap length  0:00:02.00
     Peak level 97.7 %
     Extraction speed 5.4 X
     Track quality 100.0 %
     Test CRC 71F078F4
     Copy CRC 71F078F4
     Track not present in AccurateRip database
     Copy OK
Track  3
     Filename D:\OUTPUT FILES\03 Boris Dlugosch feat. Roisin Murphy - Look Around You (Radio Edit).wav
     Pre-gap length  0:00:02.00
     Peak level 92.3 %
     Extraction speed 5.9 X
     Track quality 100.0 %
     Test CRC 9D9C8B81
     Copy CRC 9D9C8B81
     Track not present in AccurateRip database
     Copy OK
Track  4
     Filename D:\OUTPUT FILES\04 Hardwell feat. Mitch Crown - Call Me A Spaceman (Radio Edit).wav
     Pre-gap length  0:00:02.00
     Peak level 74.9 %
     Extraction speed 4.5 X
     Track quality 99.9 %
     Test CRC 7F9369AD
     Copy CRC 7F9369AD
     Track not present in AccurateRip database
     Copy OK
Track  5
     Filename D:\OUTPUT FILES\05 Mike Candys feat. Jenson Vaughan - Bring Back The Love (Radio Mix).wav
     Pre-gap length  0:00:02.00
     Peak level 89.0 %
     Extraction speed 5.5 X
     Track quality 100.0 %
     Test CRC 82114C2E
     Copy CRC 82114C2E
     Track not present in AccurateRip database
     Copy OK
Track  6
     Filename D:\OUTPUT FILES\06 DJ Antoine - Bella Vita (DJ Antoine vs Mad Mark 2k13 Radio Edit).wav
     Pre-gap length  0:00:02.00
     Peak level 96.6 %
     Extraction speed 5.9 X
     Track quality 100.0 %
     Test CRC 3D2F7F59
     Copy CRC 3D2F7F59
     Track not present in AccurateRip database
     Copy OK
Track  7
     Filename D:\OUTPUT FILES\07 Meital feat. Sean Kingston - On Ya (Radio Edit).wav
     Pre-gap length  0:00:02.00
     Peak level 88.1 %
     Extraction speed 5.5 X
     Track quality 99.9 %
     Test CRC 29811A0D
     Copy CRC 29811A0D
     Track not present in AccurateRip database
     Copy OK
Track  8
     Filename D:\OUTPUT FILES\08 Eddy Wata - Senorita (Ago Carollo Radio Edit).wav
     Pre-gap length  0:00:02.00
     Peak level 89.0 %
     Extraction speed 6.3 X
     Track quality 100.0 %
     Test CRC 7F49B70B
     Copy CRC 7F49B70B
     Track not present in AccurateRip database
     Copy OK
Track  9
     Filename D:\OUTPUT FILES\09 Daniela - Breathe Again (Radio Edit).wav
     Pre-gap length  0:00:02.00
     Peak level 87.1 %
     Extraction speed 6.5 X
     Track quality 100.0 %
     Test CRC 4E7B37EF
     Copy CRC 4E7B37EF
     Track not present in AccurateRip database
     Copy OK
Track 10
     Filename D:\OUTPUT FILES\10 Rightless - You're The One (Club Radio Edit).wav
     Pre-gap length  0:00:02.00
     Peak level 86.2 %
     Extraction speed 6.9 X
     Track quality 100.0 %
     Test CRC A3F2D4D4
     Copy CRC A3F2D4D4
     Track not present in AccurateRip database
     Copy OK
Track 11
     Filename D:\OUTPUT FILES\11 Stereolizza - Go Back To Your Mama.wav
     Pre-gap length  0:00:02.00
     Peak level 94.1 %
     Extraction speed 7.3 X
     Track quality 100.0 %
     Test CRC 5AB48D25
     Copy CRC 5AB48D25
     Track not present in AccurateRip database
     Copy OK
Track 12
     Filename D:\OUTPUT FILES\12 Anthony - DreamGirl.wav
     Pre-gap length  0:00:02.00
     Peak level 98.8 %
     Extraction speed 7.1 X
     Track quality 100.0 %
     Test CRC 373CF62D
     Copy CRC 373CF62D
     Track not present in AccurateRip database
     Copy OK
Track 13
     Filename D:\OUTPUT FILES\13 Picco - La Maquina (Orginal Radio Edit).wav
     Pre-gap length  0:00:02.00
     Peak level 87.1 %
     Extraction speed 7.3 X
     Track quality 100.0 %
     Test CRC 0175BC4E
     Copy CRC 0175BC4E
     Track not present in AccurateRip database
     Copy OK
Track 14
     Filename D:\OUTPUT FILES\14 Ex-Po - We Love Susanne (Original Edit).wav
     Pre-gap length  0:00:02.00
     Peak level 99.9 %
     Extraction speed 7.8 X
     Track quality 100.0 %
     Test CRC 18835EC6
     Copy CRC 18835EC6
     Track not present in AccurateRip database
     Copy OK
Track 15
     Filename D:\OUTPUT FILES\15 Fawni - It's All About You (Original Radio Edit).wav
     Pre-gap length  0:00:02.00
     Peak level 83.2 %
     Extraction speed 7.9 X
     Track quality 100.0 %
     Test CRC E70B908D
     Copy CRC E70B908D
     Track not present in AccurateRip database
     Copy OK
Track 16
     Filename D:\OUTPUT FILES\16 Antoine Clamaran feat Fenha - This Is My Goodbye (Radio Edit).wav
     Pre-gap length  0:00:02.00
     Peak level 81.4 %
     Extraction speed 8.0 X
     Track quality 100.0 %
     Test CRC 9798C547
     Copy CRC 9798C547
     Track not present in AccurateRip database
     Copy OK
Track 17
     Filename D:\OUTPUT FILES\17 Reepublic feat. T-Elle - Turn Off The Light (Radio Edit).wav
     Pre-gap length  0:00:02.00
     Peak level 86.4 %
     Extraction speed 8.1 X
     Track quality 100.0 %
     Test CRC ED34B22D
     Copy CRC ED34B22D
     Track not present in AccurateRip database
     Copy OK
None of the tracks are present in the AccurateRip database
No errors occurred
End of status report
---- CUETools DB Plugin V2.1.3
[CTDB TOCID: DbElG9B6__agqqAwSt7Zgqsny3E-] disk not present in database, Submit result: DbElG9B6__agqqAwSt7Zgqsny3E- has been uploaded
Код:
REM GENRE Dance
REM DATE 2013
REM DISCID E20D3A11
REM COMMENT "ExactAudioCopy v1.0b3"
PERFORMER "Various"
TITLE "Super Summer Hits 2013 CD1"
FILE "01 Antonia - Marabou.wav" WAVE
  TRACK 01 AUDIO
    TITLE "Marabou"
    PERFORMER "Antonia"
    FLAGS DCP
    INDEX 01 00:00:00
  TRACK 02 AUDIO
    TITLE "Boom Sem Parar"
    PERFORMER "Katia feat. Wildboyz"
    FLAGS DCP
    INDEX 00 03:37:21
FILE "02 Katia feat. Wildboyz - Boom Sem Parar.wav" WAVE
    INDEX 01 00:00:00
  TRACK 03 AUDIO
    TITLE "Habibi I Love You (Radio Edit)"
    PERFORMER "Ahmed Chawki feat. Pitbull"
    FLAGS DCP
    INDEX 00 03:47:63
FILE "03 Ahmed Chawki feat. Pitbull - Habibi I Love You (Radio Edit).wav" WAVE
    INDEX 01 00:00:00
  TRACK 04 AUDIO
    TITLE "Beso"
    PERFORMER "Marquess & Jessie D feat. Jimmy Dub"
    FLAGS DCP
    INDEX 00 03:40:13
FILE "04 Marquess & Jessie D feat. Jimmy Dub - Beso.wav" WAVE
    INDEX 01 00:00:00
  TRACK 05 AUDIO
    TITLE "Tu Y Yo (Original Version)"
    PERFORMER "Lylloo & Matt Houston"
    FLAGS DCP
    INDEX 00 03:28:26
FILE "05 Lylloo & Matt Houston - Tu Y Yo (Original Version).wav" WAVE
    INDEX 01 00:00:00
  TRACK 06 AUDIO
    TITLE "Makaroni (Radio Edit)"
    PERFORMER "Spankox feat. Yunna"
    FLAGS DCP
    INDEX 00 03:02:26
FILE "06 Spankox feat. Yunna - Makaroni (Radio Edit).wav" WAVE
    INDEX 01 00:00:00
  TRACK 07 AUDIO
    TITLE "Psycho"
    PERFORMER "Faydee"
    FLAGS DCP
    INDEX 00 03:10:30
FILE "07 Faydee - Psycho.wav" WAVE
    INDEX 01 00:00:00
  TRACK 08 AUDIO
    TITLE "Asi Asi (Radio Edit)"
    PERFORMER "Tacabro"
    FLAGS DCP
    INDEX 00 03:04:22
FILE "08 Tacabro - Asi Asi (Radio Edit).wav" WAVE
    INDEX 01 00:00:00
  TRACK 09 AUDIO
    TITLE "Love Me Boy (Radio Edit)"
    PERFORMER "Alien Cut & Dino Brown feat. Vivian B"
    FLAGS DCP
    INDEX 00 03:03:06
FILE "09 Alien Cut & Dino Brown feat. Vivian B - Love Me Boy (Radio Edit).wav" WAVE
    INDEX 01 00:00:00
  TRACK 10 AUDIO
    TITLE "La Trompette (Bernasconi Radio Edit)"
    PERFORMER "Gary Caos vs Rico Bernasconi feat. In-Grid"
    FLAGS DCP
    INDEX 00 03:23:58
FILE "10 Gary Caos vs Rico Bernasconi feat. In-Grid - La Trompette (Bernasconi Radio Edit).wav" WAVE
    INDEX 01 00:00:00
  TRACK 11 AUDIO
    TITLE "Groupie"
    PERFORMER "Bob Sinclar"
    FLAGS DCP
    INDEX 00 03:00:09
FILE "11 Bob Sinclar - Groupie.wav" WAVE
    INDEX 01 00:00:00
  TRACK 12 AUDIO
    TITLE "So Good To Me (Radio Edit)"
    PERFORMER "Chris Malinchak"
    FLAGS DCP
    INDEX 00 03:05:19
FILE "12 Chris Malinchak - So Good To Me (Radio Edit).wav" WAVE
    INDEX 01 00:00:00
  TRACK 13 AUDIO
    TITLE "Tonight I'm Your DJ (Radio)"
    PERFORMER "Ida Corr feat. Fatman Scoop"
    FLAGS DCP
    INDEX 00 02:38:69
FILE "13 Ida Corr feat. Fatman Scoop - Tonight I'm Your DJ (Radio).wav" WAVE
    INDEX 01 00:00:00
  TRACK 14 AUDIO
    TITLE "Love Is In The Air (Radio Edit)"
    PERFORMER "Bosson & Baby Bash feat. Apollo-4"
    FLAGS DCP
    INDEX 00 03:38:03
FILE "14 Bosson & Baby Bash feat. Apollo-4 - Love Is In The Air (Radio Edit).wav" WAVE
    INDEX 01 00:00:00
  TRACK 15 AUDIO
    TITLE "Tonight"
    PERFORMER "Sonic-e & Woolhouse feat. Amna"
    FLAGS DCP
    INDEX 00 03:38:13
FILE "15 Sonic-e & Woolhouse feat. Amna - Tonight.wav" WAVE
    INDEX 01 00:00:00
  TRACK 16 AUDIO
    TITLE "This Is Your Life (Radio Edit)"
    PERFORMER "EDX & Nadia Ali"
    FLAGS DCP
    INDEX 00 03:24:30
FILE "16 EDX & Nadia Ali - This Is Your Life (Radio Edit).wav" WAVE
    INDEX 01 00:00:00
  TRACK 17 AUDIO
    TITLE "Every Girl In The World (Radio Edit)"
    PERFORMER "Sibel"
    FLAGS DCP
    INDEX 00 02:49:68
FILE "17 Sibel - Every Girl In The World (Radio Edit).wav" WAVE
    INDEX 01 00:00:00
Код:
REM GENRE Dance
REM DATE 2013
REM DISCID E90DE011
REM COMMENT "ExactAudioCopy v1.0b3"
PERFORMER "Various"
TITLE "Super Summer Hits 2013 CD2"
FILE "01 Inna feat. Daddy Yankee - More Than Friends.wav" WAVE
  TRACK 01 AUDIO
    TITLE "More Than Friends"
    PERFORMER "Inna feat. Daddy Yankee"
    FLAGS DCP
    INDEX 01 00:00:00
  TRACK 02 AUDIO
    TITLE "Saxo Love (I'm What You Want) (Radio Edit)"
    PERFORMER "Kourosh Tazmini feat. Aisa"
    FLAGS DCP
    INDEX 00 03:58:07
FILE "02 Kourosh Tazmini feat. Aisa - Saxo Love (I'm What You Want) (Radio Edit).wav" WAVE
    INDEX 01 00:00:00
  TRACK 03 AUDIO
    TITLE "Look Around You (Radio Edit)"
    PERFORMER "Boris Dlugosch feat. Roisin Murphy"
    FLAGS DCP
    INDEX 00 03:35:29
FILE "03 Boris Dlugosch feat. Roisin Murphy - Look Around You (Radio Edit).wav" WAVE
    INDEX 01 00:00:00
  TRACK 04 AUDIO
    TITLE "Call Me A Spaceman (Radio Edit)"
    PERFORMER "Hardwell feat. Mitch Crown"
    FLAGS DCP
    INDEX 00 03:37:03
FILE "04 Hardwell feat. Mitch Crown - Call Me A Spaceman (Radio Edit).wav" WAVE
    INDEX 01 00:00:00
  TRACK 05 AUDIO
    TITLE "Bring Back The Love (Radio Mix)"
    PERFORMER "Mike Candys feat. Jenson Vaughan"
    FLAGS DCP
    INDEX 00 03:09:18
FILE "05 Mike Candys feat. Jenson Vaughan - Bring Back The Love (Radio Mix).wav" WAVE
    INDEX 01 00:00:00
  TRACK 06 AUDIO
    TITLE "Bella Vita (DJ Antoine vs Mad Mark 2k13 Radio Edit)"
    PERFORMER "DJ Antoine"
    FLAGS DCP
    INDEX 00 03:16:32
FILE "06 DJ Antoine - Bella Vita (DJ Antoine vs Mad Mark 2k13 Radio Edit).wav" WAVE
    INDEX 01 00:00:00
  TRACK 07 AUDIO
    TITLE "On Ya (Radio Edit)"
    PERFORMER "Meital feat. Sean Kingston"
    FLAGS DCP
    INDEX 00 03:23:49
FILE "07 Meital feat. Sean Kingston - On Ya (Radio Edit).wav" WAVE
    INDEX 01 00:00:00
  TRACK 08 AUDIO
    TITLE "Senorita (Ago Carollo Radio Edit)"
    PERFORMER "Eddy Wata"
    FLAGS DCP
    INDEX 00 04:04:50
FILE "08 Eddy Wata - Senorita (Ago Carollo Radio Edit).wav" WAVE
    INDEX 01 00:00:00
  TRACK 09 AUDIO
    TITLE "Breathe Again (Radio Edit)"
    PERFORMER "Daniela"
    FLAGS DCP
    INDEX 00 03:19:08
FILE "09 Daniela - Breathe Again (Radio Edit).wav" WAVE
    INDEX 01 00:00:00
  TRACK 10 AUDIO
    TITLE "You're The One (Club Radio Edit)"
    PERFORMER "Rightless"
    FLAGS DCP
    INDEX 00 03:08:35
FILE "10 Rightless - You're The One (Club Radio Edit).wav" WAVE
    INDEX 01 00:00:00
  TRACK 11 AUDIO
    TITLE "Go Back To Your Mama"
    PERFORMER "Stereolizza"
    FLAGS DCP
    INDEX 00 03:22:48
FILE "11 Stereolizza - Go Back To Your Mama.wav" WAVE
    INDEX 01 00:00:00
  TRACK 12 AUDIO
    TITLE "DreamGirl"
    PERFORMER "Anthony"
    FLAGS DCP
    INDEX 00 03:55:40
FILE "12 Anthony - DreamGirl.wav" WAVE
    INDEX 01 00:00:00
  TRACK 13 AUDIO
    TITLE "La Maquina (Orginal Radio Edit)"
    PERFORMER "Picco"
    FLAGS DCP
    INDEX 00 02:58:53
FILE "13 Picco - La Maquina (Orginal Radio Edit).wav" WAVE
    INDEX 01 00:00:00
  TRACK 14 AUDIO
    TITLE "We Love Susanne (Original Edit)"
    PERFORMER "Ex-Po"
    FLAGS DCP
    INDEX 00 02:50:29
FILE "14 Ex-Po - We Love Susanne (Original Edit).wav" WAVE
    INDEX 01 00:00:00
  TRACK 15 AUDIO
    TITLE "It's All About You (Original Radio Edit)"
    PERFORMER "Fawni"
    FLAGS DCP
    INDEX 00 03:43:54
FILE "15 Fawni - It's All About You (Original Radio Edit).wav" WAVE
    INDEX 01 00:00:00
  TRACK 16 AUDIO
    TITLE "This Is My Goodbye (Radio Edit)"
    PERFORMER "Antoine Clamaran feat Fenha"
    FLAGS DCP
    INDEX 00 03:37:70
FILE "16 Antoine Clamaran feat Fenha - This Is My Goodbye (Radio Edit).wav" WAVE
    INDEX 01 00:00:00
  TRACK 17 AUDIO
    TITLE "Turn Off The Light (Radio Edit)"
    PERFORMER "Reepublic feat. T-Elle"
    FLAGS DCP
    INDEX 00 03:22:56
FILE "17 Reepublic feat. T-Elle - Turn Off The Light (Radio Edit).wav" WAVE
    INDEX 01 00:00:00
-- --
Download / Скачать

Хотите скачать бесплатно? Зарегистрируйтесь на сайте (ссылка на регистрацию). Pirat.ca - самый быстрый торрент трекер в рунете!

Как скачивать  ·   Что такое торрент  ·   Рейтинг и ограничения

DAEDMAN

Флибустьер

Пост 18-Сен-2013 09:25 (спустя 10 часов)

[Q] 

Пиратка рулит! Thanks.
[Профиль]  [ЛС] 
Показать сообщения:    
Ответить на тему

Текущее время: Сегодня 13:42

Часовой пояс: GMT + 4



Вы не можете начинать темы
Вы не можете отвечать на сообщения
Вы не можете редактировать свои сообщения
Вы не можете удалять свои сообщения
Вы не можете голосовать в опросах
Вы не можете прикреплять файлы к сообщениям
Вы не можете скачивать файлы

▼ Вниз