Уважаемый Гость!
Вы можете поддержать проект и зарегистрироваться у наших партнеров - онлайн-стратегия MyLands. При регистрации в игре Вы получите код, который сможете активировать после регистрации на pirat.ca и получить 1000 дублонов.

Ваш код:
42dfaac977a7ef29e5167536f5b22936dba18477
 
     

(Pop) VA - Sexy Hits (2CD) - 2013, FLAC (tracks), lossless

Ответить на тему
 
Автор
Сообщение

Пост 17-Сен-2013 22:39

[Q] 

sergej644

-
VA - Sexy Hits (2CD)

Страна: Румыния
Жанр: Pop
Год выпуска: 2013
Издатель (лейбл): ROTON
Номер по каталогу: 5149-2
Формат: FLAC (tracks)
Битрейт аудио: lossless
Продолжительность: 01:40:04



продолжительность:00:49:54
01. Andreea Balan feat. Mike Diamondz - Things U Do 2 Me (03:27)
02. Mattyas - Remember (Rework) (02:54)
03. Inna - Spre mare (03:29)
04. Connect-R - Da-te-n dragostea mea (03:28)
05. Corina - Roata se intoarce (03:08)
06. Mike Diamondz - Et Patati Et Patata (Radio Edit) (02:55)
07. Emil Lassaria feat. Caitlyn - Fiesta (03:13)
08. AndreEa - Pune-o pe repeat (03:25)
09. CoJo - Hai Pa! (03:30)
10. Crush + Alexandra Ungureanu - Iubire de-o vara feat. Glance (03:33)
11. Jimmy Dub - Bogat in dragoste (03:19)
12. Dj Rynno & Sylvia - Noi doi (03:37)
13. Adrian Sina feat. CoJo - PierdeVara (03:20)
14. Aisa feat. Sonny Flame - Razboy (03:16)
15. Skizzo Skillz - Smecherarau 2013 (feat. Keo) (Radio Edit) (03:13)


продолжительность: 00:50:10

01. Marius Nedelcu - Love You To (03:36)
02. Arando Marquez feat. Randi - Run Away (03:27)
03. Ddy Nunes - Angels (03:13)
04. Jessica D feat. Glance - Get Down (Radio Edit) (03:25)
05. Andrea - Hayati (03:26)
06. Stroke 69 - Black Rose (Radio Edit) (03:30)
07. Lys - Fast Love (03:13)
08. Karyna feat. Andrei Leonte - If You Really Want Me (03:35)
09. Sophia - Unconditional Love (03:25)
10. Blaxy Girls - Ma mut la mare (02:45)
11. The Marker feat. Silviu Pasca - 6 Vieti (03:18)
12. Phelipe - Vad cum ma privesti (02:53)
13. Zero - About You (03:39)
14. VH2 - Cand vine vara (03:10)
15. 911 - Cum se face (03:27)

Код:
Exact Audio Copy V1.0 beta 3 from 29. August 2011
EAC extraction logfile from 12. September 2013, 2:03
Various Artists / Sexy Hits CD1
Used drive  : ASUS    DRW-2014L1T   Adapter: 2  ID: 1
Read mode               : Secure
Utilize accurate stream : Yes
Defeat audio cache      : Yes
Make use of C2 pointers : No
Read offset correction                      : 6
Overread into Lead-In and Lead-Out          : No
Fill up missing offset samples with silence : Yes
Delete leading and trailing silent blocks   : No
Null samples used in CRC calculations       : Yes
Used interface                              : Native Win32 interface for Win NT & 2000
Gap handling                                : Appended to previous track
Used output format : Internal WAV Routines
Sample format      : 44.100 Hz; 16 Bit; Stereo
TOC of the extracted CD
     Track |   Start  |  Length  | Start sector | End sector
    ---------------------------------------------------------
        1  |  0:00.00 |  3:27.15 |         0    |    15539
        2  |  3:27.15 |  2:54.46 |     15540    |    28635
        3  |  6:21.61 |  3:29.39 |     28636    |    44349
        4  |  9:51.25 |  3:28.48 |     44350    |    59997
        5  | 13:19.73 |  3:08.24 |     59998    |    74121
        6  | 16:28.22 |  2:55.04 |     74122    |    87250
        7  | 19:23.26 |  3:13.37 |     87251    |   101762
        8  | 22:36.63 |  3:25.56 |    101763    |   117193
        9  | 26:02.44 |  3:30.18 |    117194    |   132961
       10  | 29:32.62 |  3:33.69 |    132962    |   149005
       11  | 33:06.56 |  3:19.46 |    149006    |   163976
       12  | 36:26.27 |  3:37.37 |    163977    |   180288
       13  | 40:03.64 |  3:20.71 |    180289    |   195359
       14  | 43:24.60 |  3:16.28 |    195360    |   210087
       15  | 46:41.13 |  3:13.43 |    210088    |   224605
Track  1
     Filename D:\OUTPUT FILES\01 Andreea Balan feat. Mike Diamondz - Things U Do 2 Me.wav
     Pre-gap length  0:00:02.00
     Peak level 84.1 %
     Extraction speed 4.8 X
     Track quality 100.0 %
     Test CRC 4294E7B4
     Copy CRC 4294E7B4
     Track not present in AccurateRip database
     Copy OK
Track  2
     Filename D:\OUTPUT FILES\02 Mattyas - Remember (Rework).wav
     Pre-gap length  0:00:02.00
     Peak level 74.9 %
     Extraction speed 3.7 X
     Track quality 99.9 %
     Test CRC 209C33BD
     Copy CRC 209C33BD
     Track not present in AccurateRip database
     Copy OK
Track  3
     Filename D:\OUTPUT FILES\03 Inna - Spre mare.wav
     Pre-gap length  0:00:02.00
     Peak level 58.9 %
     Extraction speed 4.8 X
     Track quality 100.0 %
     Test CRC 540B03C7
     Copy CRC 540B03C7
     Track not present in AccurateRip database
     Copy OK
Track  4
     Filename D:\OUTPUT FILES\04 Connect-R - Da-te-n dragostea mea.wav
     Pre-gap length  0:00:02.00
     Peak level 78.5 %
     Extraction speed 5.2 X
     Track quality 100.0 %
     Test CRC 5DE44889
     Copy CRC 5DE44889
     Track not present in AccurateRip database
     Copy OK
Track  5
     Filename D:\OUTPUT FILES\05 Corina - Roata se intoarce.wav
     Pre-gap length  0:00:02.00
     Peak level 87.3 %
     Extraction speed 5.3 X
     Track quality 100.0 %
     Test CRC E41B0082
     Copy CRC E41B0082
     Track not present in AccurateRip database
     Copy OK
Track  6
     Filename D:\OUTPUT FILES\06 Mike Diamondz - Et Patati Et Patata (Radio Edit).wav
     Pre-gap length  0:00:02.00
     Peak level 77.6 %
     Extraction speed 5.5 X
     Track quality 100.0 %
     Test CRC 897A4F35
     Copy CRC 897A4F35
     Track not present in AccurateRip database
     Copy OK
Track  7
     Filename D:\OUTPUT FILES\07 Emil Lassaria feat. Caitlyn - Fiesta.wav
     Pre-gap length  0:00:02.00
     Peak level 88.6 %
     Extraction speed 5.9 X
     Track quality 100.0 %
     Test CRC 31AD133B
     Copy CRC 31AD133B
     Track not present in AccurateRip database
     Copy OK
Track  8
     Filename D:\OUTPUT FILES\08 AndreEa - Pune-o pe repeat.wav
     Pre-gap length  0:00:02.00
     Peak level 97.7 %
     Extraction speed 6.2 X
     Track quality 100.0 %
     Test CRC 81FB9E57
     Copy CRC 81FB9E57
     Track not present in AccurateRip database
     Copy OK
Track  9
     Filename D:\OUTPUT FILES\09 CoJo - Hai Pa!.wav
     Pre-gap length  0:00:02.00
     Peak level 97.7 %
     Extraction speed 6.5 X
     Track quality 100.0 %
     Test CRC 54720B33
     Copy CRC 54720B33
     Track not present in AccurateRip database
     Copy OK
Track 10
     Filename D:\OUTPUT FILES\10 Crush + Alexandra Ungureanu - Iubire de-o vara feat. Glance.wav
     Pre-gap length  0:00:02.00
     Peak level 72.2 %
     Extraction speed 6.7 X
     Track quality 100.0 %
     Test CRC 101762A8
     Copy CRC 101762A8
     Track not present in AccurateRip database
     Copy OK
Track 11
     Filename D:\OUTPUT FILES\11 Jimmy Dub - Bogat in dragoste.wav
     Pre-gap length  0:00:02.00
     Peak level 82.2 %
     Extraction speed 6.9 X
     Track quality 100.0 %
     Test CRC 4E987205
     Copy CRC 4E987205
     Track not present in AccurateRip database
     Copy OK
Track 12
     Filename D:\OUTPUT FILES\12 Dj Rynno & Sylvia - Noi doi.wav
     Pre-gap length  0:00:02.00
     Peak level 92.3 %
     Extraction speed 7.2 X
     Track quality 100.0 %
     Test CRC 243FDCC3
     Copy CRC 243FDCC3
     Track not present in AccurateRip database
     Copy OK
Track 13
     Filename D:\OUTPUT FILES\13 Adrian Sina feat. CoJo - PierdeVara.wav
     Pre-gap length  0:00:02.00
     Peak level 100.0 %
     Extraction speed 7.3 X
     Track quality 100.0 %
     Test CRC 389BE9B2
     Copy CRC 389BE9B2
     Track not present in AccurateRip database
     Copy OK
Track 14
     Filename D:\OUTPUT FILES\14 Aisa feat. Sonny Flame - Razboy.wav
     Pre-gap length  0:00:02.00
     Peak level 96.6 %
     Extraction speed 7.5 X
     Track quality 100.0 %
     Test CRC C0E84948
     Copy CRC C0E84948
     Track not present in AccurateRip database
     Copy OK
Track 15
     Filename D:\OUTPUT FILES\15 Skizzo Skillz - Smecherarau 2013 (feat. Keo) (Radio Edit).wav
     Pre-gap length  0:00:02.00
     Peak level 97.7 %
     Extraction speed 6.5 X
     Track quality 99.9 %
     Test CRC 25415823
     Copy CRC 25415823
     Track not present in AccurateRip database
     Copy OK
None of the tracks are present in the AccurateRip database
No errors occurred
End of status report
---- CUETools DB Plugin V2.1.3
[CTDB TOCID: gq4BdLd26X0duTVMb5mNaLWXDM4-] disk not present in database, Submit result: gq4BdLd26X0duTVMb5mNaLWXDM4- has been uploaded
==== Log checksum 2ACFEA8DE9674100EE23C404419B8C97D567CA5A3B1ACD63F39AA38F4AC60A2B ====
Код:
Exact Audio Copy V1.0 beta 3 from 29. August 2011
EAC extraction logfile from 12. September 2013, 2:23
Various Artists / Sexy Hits CD2
Used drive  : ASUS    DRW-2014L1T   Adapter: 2  ID: 1
Read mode               : Secure
Utilize accurate stream : Yes
Defeat audio cache      : Yes
Make use of C2 pointers : No
Read offset correction                      : 6
Overread into Lead-In and Lead-Out          : No
Fill up missing offset samples with silence : Yes
Delete leading and trailing silent blocks   : No
Null samples used in CRC calculations       : Yes
Used interface                              : Native Win32 interface for Win NT & 2000
Gap handling                                : Appended to previous track
Used output format : Internal WAV Routines
Sample format      : 44.100 Hz; 16 Bit; Stereo
TOC of the extracted CD
     Track |   Start  |  Length  | Start sector | End sector
    ---------------------------------------------------------
        1  |  0:00.00 |  3:36.66 |         0    |    16265
        2  |  3:36.66 |  3:27.28 |     16266    |    31818
        3  |  7:04.19 |  3:13.37 |     31819    |    46330
        4  | 10:17.56 |  3:25.58 |     46331    |    61763
        5  | 13:43.39 |  3:26.46 |     61764    |    77259
        6  | 17:10.10 |  3:30.18 |     77260    |    93027
        7  | 20:40.28 |  3:13.21 |     93028    |   107523
        8  | 23:53.49 |  3:35.04 |    107524    |   123652
        9  | 27:28.53 |  3:25.47 |    123653    |   139074
       10  | 30:54.25 |  2:45.30 |    139075    |   151479
       11  | 33:39.55 |  3:18.36 |    151480    |   166365
       12  | 36:58.16 |  2:53.50 |    166366    |   179390
       13  | 39:51.66 |  3:39.73 |    179391    |   195888
       14  | 43:31.64 |  3:10.40 |    195889    |   210178
       15  | 46:42.29 |  3:27.53 |    210179    |   225756
Track  1
     Filename D:\OUTPUT FILES\01 Marius Nedelcu - Love You To.wav
     Pre-gap length  0:00:02.00
     Peak level 79.4 %
     Extraction speed 4.9 X
     Track quality 100.0 %
     Test CRC F47FA4EC
     Copy CRC F47FA4EC
     Track not present in AccurateRip database
     Copy OK
Track  2
     Filename D:\OUTPUT FILES\02 Arando Marquez feat. Randi - Run Away.wav
     Pre-gap length  0:00:02.00
     Peak level 74.1 %
     Extraction speed 5.3 X
     Track quality 100.0 %
     Test CRC B3A2DC40
     Copy CRC B3A2DC40
     Track not present in AccurateRip database
     Copy OK
Track  3
     Filename D:\OUTPUT FILES\03 Ddy Nunes - Angels.wav
     Pre-gap length  0:00:02.00
     Peak level 98.8 %
     Extraction speed 5.6 X
     Track quality 100.0 %
     Test CRC 3761DA4D
     Copy CRC 3761DA4D
     Track not present in AccurateRip database
     Copy OK
Track  4
     Filename D:\OUTPUT FILES\04 Jessica D feat. Glance - Get Down (Radio Edit).wav
     Pre-gap length  0:00:02.00
     Peak level 98.8 %
     Extraction speed 6.1 X
     Track quality 100.0 %
     Test CRC 189B3308
     Copy CRC 189B3308
     Track not present in AccurateRip database
     Copy OK
Track  5
     Filename D:\OUTPUT FILES\05 Andrea - Hayati.wav
     Pre-gap length  0:00:02.00
     Peak level 82.2 %
     Extraction speed 6.5 X
     Track quality 100.0 %
     Test CRC 9DAA71DE
     Copy CRC 9DAA71DE
     Track not present in AccurateRip database
     Copy OK
Track  6
     Filename D:\OUTPUT FILES\06 Stroke 69 - Black Rose (Radio Edit).wav
     Pre-gap length  0:00:02.00
     Peak level 93.3 %
     Extraction speed 6.9 X
     Track quality 100.0 %
     Test CRC 166D36ED
     Copy CRC 166D36ED
     Track not present in AccurateRip database
     Copy OK
Track  7
     Filename D:\OUTPUT FILES\07 Lys - Fast Love.wav
     Pre-gap length  0:00:02.00
     Peak level 91.1 %
     Extraction speed 7.0 X
     Track quality 100.0 %
     Test CRC 482B2A8B
     Copy CRC 482B2A8B
     Track not present in AccurateRip database
     Copy OK
Track  8
     Filename D:\OUTPUT FILES\08 Karyna feat. Andrei Leonte - If You Really Want Me.wav
     Pre-gap length  0:00:02.00
     Peak level 82.8 %
     Extraction speed 7.4 X
     Track quality 100.0 %
     Test CRC 50DDEFF3
     Copy CRC 50DDEFF3
     Track not present in AccurateRip database
     Copy OK
Track  9
     Filename D:\OUTPUT FILES\09 Sophia - Unconditional Love.wav
     Pre-gap length  0:00:02.00
     Peak level 78.5 %
     Extraction speed 7.8 X
     Track quality 100.0 %
     Test CRC F2329703
     Copy CRC F2329703
     Track not present in AccurateRip database
     Copy OK
Track 10
     Filename D:\OUTPUT FILES\10 Blaxy Girls - Ma mut la mare.wav
     Pre-gap length  0:00:02.00
     Peak level 83.1 %
     Extraction speed 7.7 X
     Track quality 100.0 %
     Test CRC B248A3BA
     Copy CRC B248A3BA
     Track not present in AccurateRip database
     Copy OK
Track 11
     Filename D:\OUTPUT FILES\11 The Marker feat. Silviu Pasca - 6 Vieti.wav
     Pre-gap length  0:00:02.00
     Peak level 70.0 %
     Extraction speed 8.2 X
     Track quality 100.0 %
     Test CRC BE07F8F5
     Copy CRC BE07F8F5
     Track not present in AccurateRip database
     Copy OK
Track 12
     Filename D:\OUTPUT FILES\12 Phelipe - Vad cum ma privesti.wav
     Pre-gap length  0:00:02.00
     Peak level 92.3 %
     Extraction speed 8.1 X
     Track quality 100.0 %
     Test CRC E36A00DB
     Copy CRC E36A00DB
     Track not present in AccurateRip database
     Copy OK
Track 13
     Filename D:\OUTPUT FILES\13 Zero - About You.wav
     Pre-gap length  0:00:02.00
     Peak level 84.1 %
     Extraction speed 8.7 X
     Track quality 100.0 %
     Test CRC 951B7B37
     Copy CRC 951B7B37
     Track not present in AccurateRip database
     Copy OK
Track 14
     Filename D:\OUTPUT FILES\14 VH2 - Cand vine vara.wav
     Pre-gap length  0:00:02.00
     Peak level 89.0 %
     Extraction speed 6.4 X
     Track quality 99.9 %
     Test CRC B5881825
     Copy CRC B5881825
     Track not present in AccurateRip database
     Copy OK
Track 15
     Filename D:\OUTPUT FILES\15 911 - Cum se face.wav
     Pre-gap length  0:00:02.00
     Peak level 84.1 %
     Extraction speed 7.7 X
     Track quality 100.0 %
     Test CRC 3BE95E6D
     Copy CRC 3BE95E6D
     Track not present in AccurateRip database
     Copy OK
None of the tracks are present in the AccurateRip database
No errors occurred
End of status report
---- CUETools DB Plugin V2.1.3
[CTDB TOCID: mbfUfajgWLse6biR.aB9PQV2d64-] disk not present in database, Submit result: mbfUfajgWLse6biR.aB9PQV2d64- has been uploaded
==== Log checksum AB2E771BED9F95A9E18231334BBE24E593DEE738C16CA8E06D2C2FB0DF9FE29F ====
Код:
REM GENRE Dance
REM DATE 2013
REM DISCID DB0BB20F
REM COMMENT "ExactAudioCopy v1.0b3"
PERFORMER "Various Artists"
TITLE "Sexy Hits CD1"
FILE "01 Andreea Balan feat. Mike Diamondz - Things U Do 2 Me.wav" WAVE
  TRACK 01 AUDIO
    TITLE "Things U Do 2 Me"
    PERFORMER "Andreea Balan feat. Mike Diamondz"
    FLAGS DCP
    INDEX 01 00:00:00
  TRACK 02 AUDIO
    TITLE "Remember (Rework)"
    PERFORMER "Mattyas"
    FLAGS DCP
    INDEX 00 03:25:15
FILE "02 Mattyas - Remember (Rework).wav" WAVE
    INDEX 01 00:00:00
  TRACK 03 AUDIO
    TITLE "Spre mare"
    PERFORMER "Inna"
    FLAGS DCP
    INDEX 00 02:52:46
FILE "03 Inna - Spre mare.wav" WAVE
    INDEX 01 00:00:00
  TRACK 04 AUDIO
    TITLE "Da-te-n dragostea mea"
    PERFORMER "Connect-R"
    FLAGS DCP
    INDEX 00 03:27:39
FILE "04 Connect-R - Da-te-n dragostea mea.wav" WAVE
    INDEX 01 00:00:00
  TRACK 05 AUDIO
    TITLE "Roata se intoarce"
    PERFORMER "Corina"
    FLAGS DCP
    INDEX 00 03:26:48
FILE "05 Corina - Roata se intoarce.wav" WAVE
    INDEX 01 00:00:00
  TRACK 06 AUDIO
    TITLE "Et Patati Et Patata (Radio Edit)"
    PERFORMER "Mike Diamondz"
    FLAGS DCP
    INDEX 00 03:06:24
FILE "06 Mike Diamondz - Et Patati Et Patata (Radio Edit).wav" WAVE
    INDEX 01 00:00:00
  TRACK 07 AUDIO
    TITLE "Fiesta"
    PERFORMER "Emil Lassaria feat. Caitlyn"
    FLAGS DCP
    INDEX 00 02:53:04
FILE "07 Emil Lassaria feat. Caitlyn - Fiesta.wav" WAVE
    INDEX 01 00:00:00
  TRACK 08 AUDIO
    TITLE "Pune-o pe repeat"
    PERFORMER "AndreEa"
    FLAGS DCP
    INDEX 00 03:11:37
FILE "08 AndreEa - Pune-o pe repeat.wav" WAVE
    INDEX 01 00:00:00
  TRACK 09 AUDIO
    TITLE "Hai Pa!"
    PERFORMER "CoJo"
    FLAGS DCP
    INDEX 00 03:23:56
FILE "09 CoJo - Hai Pa!.wav" WAVE
    INDEX 01 00:00:00
  TRACK 10 AUDIO
    TITLE "Iubire de-o vara feat. Glance"
    PERFORMER "Crush + Alexandra Ungureanu"
    FLAGS DCP
    INDEX 00 03:28:18
FILE "10 Crush + Alexandra Ungureanu - Iubire de-o vara feat. Glance.wav" WAVE
    INDEX 01 00:00:00
  TRACK 11 AUDIO
    TITLE "Bogat in dragoste"
    PERFORMER "Jimmy Dub"
    FLAGS DCP
    INDEX 00 03:31:69
FILE "11 Jimmy Dub - Bogat in dragoste.wav" WAVE
    INDEX 01 00:00:00
  TRACK 12 AUDIO
    TITLE "Noi doi"
    PERFORMER "Dj Rynno & Sylvia"
    FLAGS DCP
    INDEX 00 03:17:46
FILE "12 Dj Rynno & Sylvia - Noi doi.wav" WAVE
    INDEX 01 00:00:00
  TRACK 13 AUDIO
    TITLE "PierdeVara"
    PERFORMER "Adrian Sina feat. CoJo"
    FLAGS DCP
    INDEX 00 03:35:37
FILE "13 Adrian Sina feat. CoJo - PierdeVara.wav" WAVE
    INDEX 01 00:00:00
  TRACK 14 AUDIO
    TITLE "Razboy"
    PERFORMER "Aisa feat. Sonny Flame"
    FLAGS DCP
    INDEX 00 03:18:71
FILE "14 Aisa feat. Sonny Flame - Razboy.wav" WAVE
    INDEX 01 00:00:00
  TRACK 15 AUDIO
    TITLE "Smecherarau 2013 (feat. Keo) (Radio Edit)"
    PERFORMER "Skizzo Skillz"
    FLAGS DCP
    INDEX 00 03:14:28
FILE "15 Skizzo Skillz - Smecherarau 2013 (feat. Keo) (Radio Edit).wav" WAVE
    INDEX 01 00:00:00
Код:
REM GENRE Dance
REM DATE 2013
REM DISCID AA0BC20F
REM COMMENT "ExactAudioCopy v1.0b3"
PERFORMER "Various Artists"
TITLE "Sexy Hits CD2"
FILE "01 Marius Nedelcu - Love You To.wav" WAVE
  TRACK 01 AUDIO
    TITLE "Love You To"
    PERFORMER "Marius Nedelcu"
    FLAGS DCP
    INDEX 01 00:00:00
  TRACK 02 AUDIO
    TITLE "Run Away"
    PERFORMER "Arando Marquez feat. Randi"
    FLAGS DCP
    INDEX 00 03:34:66
FILE "02 Arando Marquez feat. Randi - Run Away.wav" WAVE
    INDEX 01 00:00:00
  TRACK 03 AUDIO
    TITLE "Angels"
    PERFORMER "Ddy Nunes"
    FLAGS DCP
    INDEX 00 03:25:28
FILE "03 Ddy Nunes - Angels.wav" WAVE
    INDEX 01 00:00:00
  TRACK 04 AUDIO
    TITLE "Get Down (Radio Edit)"
    PERFORMER "Jessica D feat. Glance"
    FLAGS DCP
    INDEX 00 03:11:37
FILE "04 Jessica D feat. Glance - Get Down (Radio Edit).wav" WAVE
    INDEX 01 00:00:00
  TRACK 05 AUDIO
    TITLE "Hayati"
    PERFORMER "Andrea"
    FLAGS DCP
    INDEX 00 03:23:58
FILE "05 Andrea - Hayati.wav" WAVE
    INDEX 01 00:00:00
  TRACK 06 AUDIO
    TITLE "Black Rose (Radio Edit)"
    PERFORMER "Stroke 69"
    FLAGS DCP
    INDEX 00 03:24:46
FILE "06 Stroke 69 - Black Rose (Radio Edit).wav" WAVE
    INDEX 01 00:00:00
  TRACK 07 AUDIO
    TITLE "Fast Love"
    PERFORMER "Lys"
    FLAGS DCP
    INDEX 00 03:28:18
FILE "07 Lys - Fast Love.wav" WAVE
    INDEX 01 00:00:00
  TRACK 08 AUDIO
    TITLE "If You Really Want Me"
    PERFORMER "Karyna feat. Andrei Leonte"
    FLAGS DCP
    INDEX 00 03:11:21
FILE "08 Karyna feat. Andrei Leonte - If You Really Want Me.wav" WAVE
    INDEX 01 00:00:00
  TRACK 09 AUDIO
    TITLE "Unconditional Love"
    PERFORMER "Sophia"
    FLAGS DCP
    INDEX 00 03:33:04
FILE "09 Sophia - Unconditional Love.wav" WAVE
    INDEX 01 00:00:00
  TRACK 10 AUDIO
    TITLE "Ma mut la mare"
    PERFORMER "Blaxy Girls"
    FLAGS DCP
    INDEX 00 03:23:47
FILE "10 Blaxy Girls - Ma mut la mare.wav" WAVE
    INDEX 01 00:00:00
  TRACK 11 AUDIO
    TITLE "6 Vieti"
    PERFORMER "The Marker feat. Silviu Pasca"
    FLAGS DCP
    INDEX 00 02:43:30
FILE "11 The Marker feat. Silviu Pasca - 6 Vieti.wav" WAVE
    INDEX 01 00:00:00
  TRACK 12 AUDIO
    TITLE "Vad cum ma privesti"
    PERFORMER "Phelipe"
    FLAGS DCP
    INDEX 00 03:16:36
FILE "12 Phelipe - Vad cum ma privesti.wav" WAVE
    INDEX 01 00:00:00
  TRACK 13 AUDIO
    TITLE "About You"
    PERFORMER "Zero"
    FLAGS DCP
    INDEX 00 02:51:50
FILE "13 Zero - About You.wav" WAVE
    INDEX 01 00:00:00
  TRACK 14 AUDIO
    TITLE "Cand vine vara"
    PERFORMER "VH2"
    FLAGS DCP
    INDEX 00 03:37:73
FILE "14 VH2 - Cand vine vara.wav" WAVE
    INDEX 01 00:00:00
  TRACK 15 AUDIO
    TITLE "Cum se face"
    PERFORMER "911"
    FLAGS DCP
    INDEX 00 03:08:40
FILE "15 911 - Cum se face.wav" WAVE
    INDEX 01 00:00:00
-- --
Download / Скачать

Хотите скачать бесплатно? Зарегистрируйтесь на сайте (ссылка на регистрацию). Pirat.ca - самый быстрый торрент трекер в рунете!

Как скачивать  ·   Что такое торрент  ·   Рейтинг и ограничения

Показать сообщения:    
Ответить на тему

Текущее время: Сегодня 22:40

Часовой пояс: GMT + 4



Вы не можете начинать темы
Вы не можете отвечать на сообщения
Вы не можете редактировать свои сообщения
Вы не можете удалять свои сообщения
Вы не можете голосовать в опросах
Вы не можете прикреплять файлы к сообщениям
Вы не можете скачивать файлы

▼ Вниз