Уважаемый Гость!
Вы можете поддержать проект и зарегистрироваться у наших партнеров - онлайн-стратегия MyLands. При регистрации в игре Вы получите код, который сможете активировать после регистрации на pirat.ca и получить 1000 дублонов.

Ваш код:
42dfaac977a7ef29e5167536f5b22936dba18477
 
     

(Pop) VA-Radio 538 - Hitzone 67 - 2013, FLAC (image + .cue), lossless

Ответить на тему
 
Автор
Сообщение

Пост 17-Сен-2013 22:47

[Q] 

sergej644

-VA-Radio 538 - Hitzone 67- Страна: Нидерланды
Жанр: Pop
Год выпуска: 2013
Издатель (лейбл): Sony Music
Номер по каталогу: 88883703532
Формат: FLAC (image + .cue)
Битрейт аудио: lossless
Продолжительность: 02:37:55

продолжительность: 01:18:59
01. Daft Punk ft. Pharrell Williams - Get Lucky (04:09)
02. Stromae - Papaoutai (03:53)
03. Imagine Dragons - On Top Of The World (03:12)
04. Bruno Mars - Treasure (02:57)
05. Serebro - Mi Mi Mi (03:14)
06. Martin Garrix - Animals (02:56)
07. The Boxer Rebellion - Diamonds (04:07)
08. John Mayer - Paper Doll (04:02)
09. Alain Clark - Lose Ourselves (02:53)
10. Gavin DeGraw - Best I Ever Had (03:47)
11. Henrik B, Niklas Gustavsson & Peter Johansson - Echoes (03:19)
12. Mumford & Sons - Babel (03:24)
13. Jeroen Van Der Boom - Beter Laat Dan Nooit (03:34)
14. Michel Cleis - Hey Lady Luck (03:06)
15. Cimorelli - Made In America (03:14)
16. Krystl - Undefeatable (03:08)
17. Pitbull ft. Danny Mercer - Outta Nowhere (03:28)
18. Macklemore & Ryan Lewis ft. Mary Lambert - Same Love (05:20)
19. Vengaboys - Hot Hot Hot (03:32)
20. Mkto - Classic (02:55)
21. Ariana Grande - Baby I (03:17)
22. De Jeugd van Tegenwoordig - Een Barkie (05:23)
продолжительность: 01:18:56
01. Pharrell Williams - Happy (from Despicable Me 2) (03:53)
02. Sandra van Nieuwland - Hunter (03:04)
03. Eelke Kleijn - Ein Tag Am Strand (02:47)
04. John Legend - Made To Love (03:53)
05. David Guetta ft. Ne-Yo & Akon - Play Hard (03:29)
06. Capital Cities - Safe And Sound (03:13)
07. Michael Prins - Close To You (04:48)
08. Miley Cyrus - We Can't Stop (03:53)
09. Calvin Harris ft. Ayah Marar - Thinking About You (03:28)
10. Ellie Goulding - Burn (03:52)
11. Maroon 5 - Love Somebody (03:51)
12. Backstreet Boys - In A World Like This (03:40)
13. Lisa Lois - Breaking Away (03:37)
14. Jamie Cullum - You're Not The Only One (04:30)
15. Ninetoes - Finder (03:28)
16. Rudimental ft. Ella Eyre - Waiting All Night (04:54)
17. Maria Mena - I Always Liked That (03:40)
18. Rigby - Lighter (03:49)
19. Acda en de Munnik - Draaien (03:34)
20. Selena Gomez - Come & Get It (03:53)
21. Yellow Claw & LNY TNZ - Last Night Ever (03:29)
-
Код:
Exact Audio Copy V1.0 beta 3 from 29. August 2011
EAC uitlezen log bestand van 13. September 2013, 16:20
- / Hitzone 67 (CD1)
gebruikt loopwerk  : PIONEER DVD-RW  DVR-219L   Adapter: 3  ID: 0
Lees mode   :                : Veilig
Gebruik accurate stream      : Ja
Audio buffer uitgeschakeld   : Neen
Maak gebruik van C2 pointers : Ja
Lees-offset correctie :                        : 6
Overlees in Lead-In en Lead-Out                : Neen
Vul ontbrekende offset samples met stiltes aan : Ja
Wis stilte blokken aan het begin en einde      : Neen
Nul samples gebruikt in CRC berekeningen       : Ja
Gebruikte interface                            : Native Win32 interface voor Win NT & 2000
Gebruik uitgave formaat :  : Interne WAV Routines
Sample formaat             : 44.100 Hz; 16 Bit; Stereo
TOC van de uitgelezen CD
     Track |   Start  |  Lengte  | Start sector | Eind sector
    ----------------------------------------------------------
        1  |  0:00.00 |  4:09.55 |         0    |    18729
        2  |  4:09.55 |  3:53.38 |     18730    |    36242
        3  |  8:03.18 |  3:12.62 |     36243    |    50704
        4  | 11:16.05 |  2:57.27 |     50705    |    64006
        5  | 14:13.32 |  3:14.29 |     64007    |    78585
        6  | 17:27.61 |  2:56.20 |     78586    |    91805
        7  | 20:24.06 |  4:07.15 |     91806    |   110345
        8  | 24:31.21 |  4:02.60 |    110346    |   128555
        9  | 28:34.06 |  2:53.00 |    128556    |   141530
       10  | 31:27.06 |  3:47.34 |    141531    |   158589
       11  | 35:14.40 |  3:19.16 |    158590    |   173530
       12  | 38:33.56 |  3:24.46 |    173531    |   188876
       13  | 41:58.27 |  3:34.06 |    188877    |   204932
       14  | 45:32.33 |  3:06.03 |    204933    |   218885
       15  | 48:38.36 |  3:14.72 |    218886    |   233507
       16  | 51:53.33 |  3:08.56 |    233508    |   247663
       17  | 55:02.14 |  3:28.15 |    247664    |   263278
       18  | 58:30.29 |  5:20.19 |    263279    |   287297
       19  | 63:50.48 |  3:32.02 |    287298    |   303199
       20  | 67:22.50 |  2:55.70 |    303200    |   316394
       21  | 70:18.45 |  3:17.66 |    316395    |   331235
       22  | 73:36.36 |  5:23.05 |    331236    |   355465
Bereikstatus en fouten
Geselecteerd bereik
     Bestands naam F:\POST 2\POST MAP 2\Hitzone 67 (EAC)\CD1\Hitzone 67 (CD1).wav
     Piek niveau 96.6 %
     Uitlees snelheid 10.4 X
     Bereikskwaliteit 99.9 %
     Kopie CRC 0687B2DD
     Kopie OK
Geen fouten opgetreden
AccurateRip samenvatting
Track  1  niet aanwezig in database
Track  2  niet aanwezig in database
Track  3  niet aanwezig in database
Track  4  niet aanwezig in database
Track  5  niet aanwezig in database
Track  6  niet aanwezig in database
Track  7  niet aanwezig in database
Track  8  niet aanwezig in database
Track  9  niet aanwezig in database
Track 10  niet aanwezig in database
Track 11  niet aanwezig in database
Track 12  niet aanwezig in database
Track 13  niet aanwezig in database
Track 14  niet aanwezig in database
Track 15  niet aanwezig in database
Track 16  niet aanwezig in database
Track 17  niet aanwezig in database
Track 18  niet aanwezig in database
Track 19  niet aanwezig in database
Track 20  niet aanwezig in database
Track 21  niet aanwezig in database
Track 22  niet aanwezig in database
Geen enkele Track aanwezig in AccurateRip database
Einde status report
Код:
Exact Audio Copy V1.0 beta 3 from 29. August 2011
EAC uitlezen log bestand van 13. September 2013, 17:45
- / Hitzone 67 (CD2)
gebruikt loopwerk  : PIONEER DVD-RW  DVR-219L   Adapter: 3  ID: 0
Lees mode   :                : Veilig
Gebruik accurate stream      : Ja
Audio buffer uitgeschakeld   : Neen
Maak gebruik van C2 pointers : Ja
Lees-offset correctie :                        : 6
Overlees in Lead-In en Lead-Out                : Neen
Vul ontbrekende offset samples met stiltes aan : Ja
Wis stilte blokken aan het begin en einde      : Neen
Nul samples gebruikt in CRC berekeningen       : Ja
Gebruikte interface                            : Native Win32 interface voor Win NT & 2000
Gebruik uitgave formaat :  : Interne WAV Routines
Sample formaat             : 44.100 Hz; 16 Bit; Stereo
TOC van de uitgelezen CD
     Track |   Start  |  Lengte  | Start sector | Eind sector
    ----------------------------------------------------------
        1  |  0:00.00 |  3:53.68 |         0    |    17542
        2  |  3:53.68 |  3:04.11 |     17543    |    31353
        3  |  6:58.04 |  2:47.61 |     31354    |    43939
        4  |  9:45.65 |  3:53.30 |     43940    |    61444
        5  | 13:39.20 |  3:29.59 |     61445    |    77178
        6  | 17:09.04 |  3:13.55 |     77179    |    91708
        7  | 20:22.59 |  4:48.63 |     91709    |   113371
        8  | 25:11.47 |  3:53.32 |    113372    |   130878
        9  | 29:05.04 |  3:28.54 |    130879    |   146532
       10  | 32:33.58 |  3:52.46 |    146533    |   163978
       11  | 36:26.29 |  3:51.06 |    163979    |   181309
       12  | 40:17.35 |  3:40.17 |    181310    |   197826
       13  | 43:57.52 |  3:37.62 |    197827    |   214163
       14  | 47:35.39 |  4:30.53 |    214164    |   234466
       15  | 52:06.17 |  3:28.39 |    234467    |   250105
       16  | 55:34.56 |  4:54.28 |    250106    |   272183
       17  | 60:29.09 |  3:40.59 |    272184    |   288742
       18  | 64:09.68 |  3:49.60 |    288743    |   305977
       19  | 67:59.53 |  3:34.37 |    305978    |   322064
       20  | 71:34.15 |  3:53.07 |    322065    |   339546
       21  | 75:27.22 |  3:29.41 |    339547    |   355262
Bereikstatus en fouten
Geselecteerd bereik
     Bestands naam F:\POST 2\POST MAP 2\Hitzone 67 (EAC)\CD2\Hitzone 67 (CD2).wav
     Piek niveau 96.6 %
     Uitlees snelheid 6.0 X
     Bereikskwaliteit 100.0 %
     Kopie CRC B07FD6AA
     Kopie OK
Geen fouten opgetreden
AccurateRip samenvatting
Track  1  niet aanwezig in database
Track  2  niet aanwezig in database
Track  3  niet aanwezig in database
Track  4  niet aanwezig in database
Track  5  niet aanwezig in database
Track  6  niet aanwezig in database
Track  7  niet aanwezig in database
Track  8  niet aanwezig in database
Track  9  niet aanwezig in database
Track 10  niet aanwezig in database
Track 11  niet aanwezig in database
Track 12  niet aanwezig in database
Track 13  niet aanwezig in database
Track 14  niet aanwezig in database
Track 15  niet aanwezig in database
Track 16  niet aanwezig in database
Track 17  niet aanwezig in database
Track 18  niet aanwezig in database
Track 19  niet aanwezig in database
Track 20  niet aanwezig in database
Track 21  niet aanwezig in database
Geen enkele Track aanwezig in AccurateRip database
Einde status report
Код:
REM GENRE Top40
REM DATE 2013
REM DISCID 23128316
REM COMMENT ExactAudioCopy v1.0b3
PERFORMER "Various"
TITLE "Radio 538: Hitzone 67"
FILE "Hitzone 67 (CD1).flac" WAVE
  TRACK 01 AUDIO
    TITLE "Get Lucky"
    PERFORMER "Daft Punk ft. Pharrell Williams"
    INDEX 01 00:00:00
  TRACK 02 AUDIO
    TITLE "Papaoutai"
    PERFORMER "Stromae"
    INDEX 00 04:07:55
    INDEX 01 04:09:55
  TRACK 03 AUDIO
    TITLE "On Top Of The World"
    PERFORMER "Imagine Dragons"
    INDEX 00 08:01:18
    INDEX 01 08:03:18
  TRACK 04 AUDIO
    TITLE "Treasure"
    PERFORMER "Bruno Mars"
    INDEX 00 11:14:05
    INDEX 01 11:16:05
  TRACK 05 AUDIO
    TITLE "Mi Mi Mi"
    PERFORMER "Serebro"
    INDEX 00 14:11:32
    INDEX 01 14:13:32
  TRACK 06 AUDIO
    TITLE "Animals"
    PERFORMER "Martin Garrix"
    INDEX 00 17:25:61
    INDEX 01 17:27:61
  TRACK 07 AUDIO
    TITLE "Diamonds"
    PERFORMER "The Boxer Rebellion"
    INDEX 00 20:22:06
    INDEX 01 20:24:06
  TRACK 08 AUDIO
    TITLE "Paper Doll"
    PERFORMER "John Mayer"
    INDEX 00 24:29:21
    INDEX 01 24:31:21
  TRACK 09 AUDIO
    TITLE "Lose Ourselves"
    PERFORMER "Alain Clark"
    INDEX 00 28:32:06
    INDEX 01 28:34:06
  TRACK 10 AUDIO
    TITLE "Best I Ever Had"
    PERFORMER "Gavin DeGraw"
    INDEX 00 31:25:06
    INDEX 01 31:27:06
  TRACK 11 AUDIO
    TITLE "Echoes"
    PERFORMER "Henrik B, Niklas Gustavsson & Peter Johansson"
    INDEX 00 35:12:40
    INDEX 01 35:14:40
  TRACK 12 AUDIO
    TITLE "Babel"
    PERFORMER "Mumford & Sons"
    INDEX 00 38:31:56
    INDEX 01 38:33:56
  TRACK 13 AUDIO
    TITLE "Beter Laat Dan Nooit"
    PERFORMER "Jeroen Van Der Boom"
    INDEX 00 41:56:27
    INDEX 01 41:58:27
  TRACK 14 AUDIO
    TITLE "Hey Lady Luck"
    PERFORMER "Michel Cleis"
    INDEX 00 45:30:33
    INDEX 01 45:32:33
  TRACK 15 AUDIO
    TITLE "Made In America"
    PERFORMER "Cimorelli"
    INDEX 00 48:36:36
    INDEX 01 48:38:36
  TRACK 16 AUDIO
    TITLE "Undefeatable"
    PERFORMER "Krystl"
    INDEX 00 51:51:33
    INDEX 01 51:53:33
  TRACK 17 AUDIO
    TITLE "Outta Nowhere"
    PERFORMER "Pitbull ft. Danny Mercer"
    INDEX 00 55:00:14
    INDEX 01 55:02:14
  TRACK 18 AUDIO
    TITLE "Same Love"
    PERFORMER "Macklemore & Ryan Lewis ft. Mary Lambert"
    INDEX 00 58:28:29
    INDEX 01 58:30:29
  TRACK 19 AUDIO
    TITLE "Hot Hot Hot"
    PERFORMER "Vengaboys"
    INDEX 00 63:48:48
    INDEX 01 63:50:48
  TRACK 20 AUDIO
    TITLE "Classic"
    PERFORMER "Mkto"
    INDEX 00 67:20:50
    INDEX 01 67:22:50
  TRACK 21 AUDIO
    TITLE "Baby I"
    PERFORMER "Ariana Grande"
    INDEX 00 70:16:45
    INDEX 01 70:18:45
  TRACK 22 AUDIO
    TITLE "Een Barkie"
    PERFORMER "De Jeugd van Tegenwoordig"
    INDEX 00 73:34:36
    INDEX 01 73:36:36
Код:
REM GENRE Top40
REM DATE 2013
REM DISCID 2F128015
REM COMMENT ExactAudioCopy v1.0b3
PERFORMER "Various"
TITLE "Radio 538: Hitzone 67"
FILE "Hitzone 67 (CD2).flac" WAVE
  TRACK 01 AUDIO
    TITLE "Happy (from Despicable Me 2)"
    PERFORMER "Pharrell Williams"
    INDEX 01 00:00:00
  TRACK 02 AUDIO
    TITLE "Hunter"
    PERFORMER "Sandra van Nieuwland"
    INDEX 00 03:51:68
    INDEX 01 03:53:68
  TRACK 03 AUDIO
    TITLE "Ein Tag Am Strand"
    PERFORMER "Eelke Kleijn"
    INDEX 00 06:56:04
    INDEX 01 06:58:04
  TRACK 04 AUDIO
    TITLE "Made To Love"
    PERFORMER "John Legend"
    INDEX 00 09:43:65
    INDEX 01 09:45:65
  TRACK 05 AUDIO
    TITLE "Play Hard"
    PERFORMER "David Guetta ft. Ne-Yo & Akon"
    INDEX 00 13:37:20
    INDEX 01 13:39:20
  TRACK 06 AUDIO
    TITLE "Safe And Sound"
    PERFORMER "Capital Cities"
    INDEX 00 17:07:04
    INDEX 01 17:09:04
  TRACK 07 AUDIO
    TITLE "Close To You"
    PERFORMER "Michael Prins"
    INDEX 00 20:20:59
    INDEX 01 20:22:59
  TRACK 08 AUDIO
    TITLE "We Can't Stop"
    PERFORMER "Miley Cyrus"
    INDEX 00 25:09:47
    INDEX 01 25:11:47
  TRACK 09 AUDIO
    TITLE "Thinking About You"
    PERFORMER "Calvin Harris ft. Ayah Marar"
    INDEX 00 29:03:04
    INDEX 01 29:05:04
  TRACK 10 AUDIO
    TITLE "Burn"
    PERFORMER "Ellie Goulding"
    INDEX 00 32:31:58
    INDEX 01 32:33:58
  TRACK 11 AUDIO
    TITLE "Love Somebody"
    PERFORMER "Maroon 5"
    INDEX 00 36:24:29
    INDEX 01 36:26:29
  TRACK 12 AUDIO
    TITLE "In A World Like This"
    PERFORMER "Backstreet Boys"
    INDEX 00 40:15:35
    INDEX 01 40:17:35
  TRACK 13 AUDIO
    TITLE "Breaking Away"
    PERFORMER "Lisa Lois"
    INDEX 00 43:55:52
    INDEX 01 43:57:52
  TRACK 14 AUDIO
    TITLE "You're Not The Only One"
    PERFORMER "Jamie Cullum"
    INDEX 00 47:33:39
    INDEX 01 47:35:39
  TRACK 15 AUDIO
    TITLE "Finder"
    PERFORMER "Ninetoes"
    INDEX 00 52:04:17
    INDEX 01 52:06:17
  TRACK 16 AUDIO
    TITLE "Waiting All Night"
    PERFORMER "Rudimental ft. Ella Eyre"
    INDEX 00 55:32:56
    INDEX 01 55:34:56
  TRACK 17 AUDIO
    TITLE "I Always Liked That"
    PERFORMER "Maria Mena"
    INDEX 00 60:27:09
    INDEX 01 60:29:09
  TRACK 18 AUDIO
    TITLE "Lighter"
    PERFORMER "Rigby"
    INDEX 00 64:07:68
    INDEX 01 64:09:68
  TRACK 19 AUDIO
    TITLE "Draaien"
    PERFORMER "Acda en de Munnik"
    INDEX 00 67:57:53
    INDEX 01 67:59:53
  TRACK 20 AUDIO
    TITLE "Come & Get It"
    PERFORMER "Selena Gomez"
    INDEX 00 71:32:15
    INDEX 01 71:34:15
  TRACK 21 AUDIO
    TITLE "Last Night Ever"
    PERFORMER "Yellow Claw & LNY TNZ"
    INDEX 00 75:25:22
    INDEX 01 75:27:22
-- --
Download / Скачать

Хотите скачать бесплатно? Зарегистрируйтесь на сайте (ссылка на регистрацию). Pirat.ca - самый быстрый торрент трекер в рунете!

Как скачивать  ·   Что такое торрент  ·   Рейтинг и ограничения

Показать сообщения:    
Ответить на тему

Текущее время: Сегодня 22:38

Часовой пояс: GMT + 4



Вы не можете начинать темы
Вы не можете отвечать на сообщения
Вы не можете редактировать свои сообщения
Вы не можете удалять свои сообщения
Вы не можете голосовать в опросах
Вы не можете прикреплять файлы к сообщениям
Вы не можете скачивать файлы

▼ Вниз