Уважаемый Гость!
Вы можете поддержать проект и зарегистрироваться у наших партнеров - онлайн-стратегия MyLands. При регистрации в игре Вы получите код, который сможете активировать после регистрации на pirat.ca и получить 1000 дублонов.

Ваш код:
6e74277781110e9b49c3c0dd24e1bed54391613e
 
     

(Pop) Anastacia - Pieces Of A Dream - 2005 [FLAC, image+.cue, lossless]

Ответить на тему
 
Автор
Сообщение

Пост 29-Сен-2013 11:44

[Q] 

Koralina

Anastacia / Pieces Of A Dream Год издания: 2005
Страна: Germany
Жанр: Pop
Продолжительность: 01.17.03 + 01.15.40
Формат: FLAC
Битрейт аудио: lossless
Тип рипа: image+.cue
Наличие сканов в содержимом раздачи: да
Pieces Of A Dream:
1. I'm Outta Love
2. Not That Kind
3. Cowboys & Kisses
4. Made For Lovin' You
5. Paid My Dues
6. One Day In Your Life
7. Why'd You Lie To Me
8. You'll Never Be Alone
9. Left Outside Alone
10. Sick And Tired
11. Welcome To My Truth
12. Heavy On My Heart
13. Everything Burns (Ben Moody Feat. Anastacia)
14. I Belong To You (Feat. Eros Ramazzotti)
15. Pieces Of A Dream
16. In Your Eyes
17. Club Megamix
Remix Disc:
1. I'm Outta Love (Hex Hector Radio Edit)
2. Left Outside Alone (M*A*S*H Radio Mix)
3. Paid My Dues (The S-Man's Darkstar Mix)
4. Sick And Tired (Jason Nevins Funkrock Remix Edit)
5. Why'd You Lie To Me (Nu Soul DnB Mix)
6. Love Is A Crime (Thunderpuss Club Mix)
7. Not That Kind (Kerri Chandler Mix - Radio Edit)
8. One Day In Your Life (Hex Hector / Mac Quayle Club Mix)
9. Left Outside Alone (Jason Nevins Global Club Edit)
10. Not That Kind (Ric Wake Club Final)
11. Love Is A Crime (Cotto's Doin' The Crime Mix)
12. Boom (Thunderpuss Tribe-a-pella Mix)
13. One Day In Your Life (Almighty Mix)
14. Sick And Tired (Jason Nevins Electrochill Remix Edit)
Код:
[b]EAC-Pieces Of A Dream[/b]
    Exact Audio Copy V0.99 prebeta 4 from 23. January 2008
    Отчёт EAC об извлечении, выполненном 18. декабря 2008, 23:31
    Anastacia / Pieces Of A Dream
    Дисковод: ASUS DRW-1608P Adapter: 0 ID: 0
    Режим чтения : Достоверность
    Использование точного потока : Да
    Отключение кэша аудио : Да
    Использование указателей C2 : Нет
    Коррекция смещения при чтении : 48
    Способность читать области Lead-in и Lead-out : Нет
    Заполнение пропущенных сэмплов тишиной : Да
    Удаление блоков с тишиной в начале и конце : Нет
    При вычислениях CRC использовались нулевые сэмплы : Да
    Интерфейс : Встроенный Win32-интерфейс для Win NT/2000
    Выходной формат : Внутренние WAV-операции
    Формат сэмплов : 44.100 Гц; 16 бит; стерео
    TOC извлечённого CD
    Трек | Старт | Длительность | Начальный сектор | Конечный сектор
    ---------------------------------------------------------------------
    1 | 0:00.00 | 4:05.30 | 0 | 18404
    2 | 4:05.30 | 3:23.36 | 18405 | 33665
    3 | 7:28.66 | 4:38.56 | 33666 | 54571
    4 | 12:07.47 | 3:38.41 | 54572 | 70962
    5 | 15:46.13 | 3:22.59 | 70963 | 86171
    6 | 19:08.72 | 3:29.58 | 86172 | 101904
    7 | 22:38.55 | 3:45.63 | 101905 | 118842
    8 | 26:24.43 | 4:38.63 | 118843 | 139755
    9 | 31:03.31 | 4:18.60 | 139756 | 159165
    10 | 35:22.16 | 3:32.20 | 159166 | 175085
    11 | 38:54.36 | 4:04.65 | 175086 | 193450
    12 | 42:59.26 | 4:28.39 | 193451 | 213589
    13 | 47:27.65 | 3:43.21 | 213590 | 230335
    14 | 51:11.11 | 4:27.31 | 230336 | 250391
    15 | 55:38.42 | 4:03.44 | 250392 | 268660
    16 | 59:42.11 | 4:09.72 | 268661 | 287407
    17 | 63:52.08 | 11:48.55 | 287408 | 340562
    Характеристики диапазона извлечения и сообщения об ошибках
    Выбранный диапазон
    Имя файла E:\Anastacia - Pieces Of A Dream\Anastacia - Pieces Of A Dream.wav
    Пиковый уровень 100.0 %
    Качество диапазона 100.0 %
    CRC теста 75803557
    CRC копии 75803557
    Копирование... OK
    Ошибок не произошло
    AccurateRip: сводка
    Трек 1 точное извлечение (доверие Cool [753A313B]
    Трек 2 точное извлечение (доверие Cool [35FCDB04]
    Трек 3 точное извлечение (доверие Cool [B84487D7]
    Трек 4 точное извлечение (доверие Cool [5D318F00]
    Трек 5 точное извлечение (доверие Cool [82E74247]
    Трек 6 точное извлечение (доверие Cool [9A0F2CD6]
    Трек 7 точное извлечение (доверие Cool [45EA5E02]
    Трек 8 точное извлечение (доверие Cool [70B3EFD3]
    Трек 9 точное извлечение (доверие Cool [DF413EF5]
    Трек 10 точное извлечение (доверие Cool [ABC4FD96]
    Трек 11 точное извлечение (доверие Cool [7290E171]
    Трек 12 точное извлечение (доверие Cool [A238B370]
    Трек 13 точное извлечение (доверие Cool [61D33266]
    Трек 14 точное извлечение (доверие Cool [5856E2DB]
    Трек 15 точное извлечение (доверие Cool [3937116D]
    Трек 16 точное извлечение (доверие Cool [5720F7B0]
    Трек 17 точное извлечение (доверие 5) [D37BB62E]
    Все треки извлечены точно
    Конец отчёта
    [b]EAC Remix Disc[/b]
    Exact Audio Copy V0.99 prebeta 4 from 23. January 2008
    Отчёт EAC об извлечении, выполненном 18. декабря 2008, 23:51
    Anastacia / Pieces Of A Dream CD2
    Дисковод: ASUS DRW-1608P Adapter: 0 ID: 0
    Режим чтения : Достоверность
    Использование точного потока : Да
    Отключение кэша аудио : Да
    Использование указателей C2 : Нет
    Коррекция смещения при чтении : 48
    Способность читать области Lead-in и Lead-out : Нет
    Заполнение пропущенных сэмплов тишиной : Да
    Удаление блоков с тишиной в начале и конце : Нет
    При вычислениях CRC использовались нулевые сэмплы : Да
    Интерфейс : Встроенный Win32-интерфейс для Win NT/2000
    Выходной формат : Внутренние WAV-операции
    Формат сэмплов : 44.100 Гц; 16 бит; стерео
    TOC извлечённого CD
    Трек | Старт | Длительность | Начальный сектор | Конечный сектор
    ---------------------------------------------------------------------
    1 | 0:00.00 | 4:00.17 | 0 | 18016
    2 | 4:00.17 | 3:57.45 | 18017 | 35836
    3 | 7:57.62 | 5:17.20 | 35837 | 59631
    4 | 13:15.07 | 3:24.40 | 59632 | 74971
    5 | 16:39.47 | 6:38.13 | 74972 | 104834
    6 | 23:17.60 | 7:46.62 | 104835 | 139846
    7 | 31:04.47 | 3:45.65 | 139847 | 156786
    8 | 34:50.37 | 8:26.18 | 156787 | 194754
    9 | 43:16.55 | 3:44.50 | 194755 | 211604
    10 | 47:01.30 | 7:05.20 | 211605 | 243499
    11 | 54:06.50 | 6:33.45 | 243500 | 273019
    12 | 60:40.20 | 6:49.47 | 273020 | 303741
    13 | 67:29.67 | 6:07.55 | 303742 | 331321
    14 | 73:37.47 | 3:25.73 | 331322 | 346769
    Характеристики диапазона извлечения и сообщения об ошибках
    Выбранный диапазон
    Имя файла E:\Anastacia - Pieces Of A Dream\Anastacia - Pieces Of A Dream CD2.wav
    Пиковый уровень 100.0 %
    Качество диапазона 100.0 %
    CRC теста 9089F1AA
    CRC копии 9089F1AA
    Копирование... OK
    Ошибок не произошло
    AccurateRip: сводка
    Трек 1 точное извлечение (доверие 6) [09872308]
    Трек 2 точное извлечение (доверие 6) [3A83E4D4]
    Трек 3 точное извлечение (доверие 6) [426D3AEE]
    Трек 4 точное извлечение (доверие 6) [760929D4]
    Трек 5 точное извлечение (доверие 6) [3BC524A7]
    Трек 6 точное извлечение (доверие 6) [F1EC4088]
    Трек 7 точное извлечение (доверие 6) [C65D8564]
    Трек 8 точное извлечение (доверие 6) [B6E3C819]
    Трек 9 точное извлечение (доверие 6) [31890E0D]
    Трек 10 точное извлечение (доверие 6) [D9895463]
    Трек 11 точное извлечение (доверие 6) [EE1301D6]
    Трек 12 точное извлечение (доверие 5) [D282BEDA]
    Трек 13 точное извлечение (доверие 5) [E59A733D]
    Трек 14 точное извлечение (доверие 5) [B4D79A2C]
    Все треки извлечены точно
    Конец отчёта
Код:
[b]    CD1[/b]
    REM GENRE Pop
    REM DATE 2007
    REM DISCID F311BC11
    REM COMMENT "ExactAudioCopy v0.99pb4"
    PERFORMER "Anastacia"
    TITLE "Pieces Of A Dream"
    FILE "Anastacia - Pieces Of A Dream.wav" WAVE
      TRACK 01 AUDIO
        TITLE "Anastacia / I'm Outta Love"
        PERFORMER "Anastacia"
        INDEX 01 00:00:00
      TRACK 02 AUDIO
        TITLE "Anastacia / Not That Kind"
        PERFORMER "Anastacia"
        INDEX 01 04:05:30
      TRACK 03 AUDIO
        TITLE "Anastacia / Cowboys & Kisses"
        PERFORMER "Anastacia"
        INDEX 01 07:28:66
      TRACK 04 AUDIO
        TITLE "Anastacia / Made For Lovin' You"
        PERFORMER "Anastacia"
        INDEX 01 12:07:47
      TRACK 05 AUDIO
        TITLE "Anastacia / Paid My Dues"
        PERFORMER "Anastacia"
        INDEX 01 15:46:13
      TRACK 06 AUDIO
        TITLE "Anastacia / One Day In Your Life"
        PERFORMER "Anastacia"
        INDEX 01 19:08:72
      TRACK 07 AUDIO
        TITLE "Anastacia / Why'd You Lie To Me"
        PERFORMER "Anastacia"
        INDEX 01 22:38:55
      TRACK 08 AUDIO
        TITLE "Anastacia / You'll Never Be Alone"
        PERFORMER "Anastacia"
        INDEX 01 26:24:43
      TRACK 09 AUDIO
        TITLE "Anastacia / Left Outside Alone"
        PERFORMER "Anastacia"
        INDEX 01 31:03:31
      TRACK 10 AUDIO
        TITLE "Anastacia / Sick And Tired"
        PERFORMER "Anastacia"
        INDEX 01 35:22:16
      TRACK 11 AUDIO
        TITLE "Anastacia / Welcome To My Truth"
        PERFORMER "Anastacia"
        INDEX 01 38:54:36
      TRACK 12 AUDIO
        TITLE "Anastacia / Heavy On My Heart"
        PERFORMER "Anastacia"
        INDEX 01 42:59:26
      TRACK 13 AUDIO
        TITLE "Anastacia / Everything Burns"
        PERFORMER "Anastacia"
        INDEX 01 47:27:65
      TRACK 14 AUDIO
        TITLE "Anastacia / I Belong To You (Il Ritmo Della Passione - Feat. Eros)"
        PERFORMER "Anastacia"
        INDEX 01 51:11:11
      TRACK 15 AUDIO
        TITLE "Anastacia / Pieces Of A Dream"
        PERFORMER "Anastacia"
        INDEX 01 55:38:42
      TRACK 16 AUDIO
        TITLE "Anastacia / In Your Eyes"
        PERFORMER "Anastacia"
        INDEX 01 59:42:11
      TRACK 17 AUDIO
        TITLE "Anastacia / Club Megamix"
        PERFORMER "Anastacia"
        INDEX 01 63:52:08
    [b]CD2[/b]
    REM GENRE Pop
    REM DATE 2005
    REM DISCID D2120F0E
    REM COMMENT "ExactAudioCopy v0.99pb4"
    PERFORMER "Anastacia"
    TITLE "Pieces Of A Dream CD2"
    FILE "Anastacia - Pieces Of A Dream CD2.wav" WAVE
      TRACK 01 AUDIO
        TITLE "I'm Outta Love (Hex Hector Radio Edit)"
        PERFORMER "Anastacia"
        INDEX 01 00:00:00
      TRACK 02 AUDIO
        TITLE "Left Outside Alone (M*A*S*H Radio Mix)"
        PERFORMER "Anastacia"
        INDEX 01 04:00:17
      TRACK 03 AUDIO
        TITLE "Paid My Dues (The S-Man's Darkstar Mix)"
        PERFORMER "Anastacia"
        INDEX 01 07:57:62
      TRACK 04 AUDIO
        TITLE "Sick And Tired (Jason Nevins Funkrock Remix Edit)"
        PERFORMER "Anastacia"
        INDEX 01 13:15:07
      TRACK 05 AUDIO
        TITLE "Why'd You Lie To Me (Nu Soul DnB Mix)"
        PERFORMER "Anastacia"
        INDEX 01 16:39:47
      TRACK 06 AUDIO
        TITLE "Love Is A Crime (Thunderpuss Club Mix)"
        PERFORMER "Anastacia"
        INDEX 01 23:17:60
      TRACK 07 AUDIO
        TITLE "Not That Kind (Kerri Chandler Mix - Radio Edit)"
        PERFORMER "Anastacia"
        INDEX 00 31:03:10
        INDEX 01 31:04:47
      TRACK 08 AUDIO
        TITLE "One Day In Your Life (Hex Hector / Mac Quayle Club Mix) "
        PERFORMER "Anastacia"
        INDEX 00 34:49:17
        INDEX 01 34:50:37
      TRACK 09 AUDIO
        TITLE "Left Outside Alone (Jason Nevins Global Club Edit)"
        PERFORMER "Anastacia"
        INDEX 01 43:16:55
      TRACK 10 AUDIO
        TITLE "Not That Kind (Ric Wake Club Final)"
        PERFORMER "Anastacia"
        INDEX 01 47:01:30
      TRACK 11 AUDIO
        TITLE "Love Is A Crime (Cotto's Doin' The Crime Mix)"
        PERFORMER "Anastacia"
        INDEX 01 54:06:50
      TRACK 12 AUDIO
        TITLE "Boom (Thunderpuss Tribe-a-pella Mix)"
        PERFORMER "Anastacia"
        INDEX 01 60:40:20
      TRACK 13 AUDIO
        TITLE "One Day In Your Life (Almighty Mix)"
        PERFORMER "Anastacia"
        INDEX 01 67:29:67
      TRACK 14 AUDIO
        TITLE "Sick And Tired (Jason Nevins Electrochill Remix Edit)"
        PERFORMER "Anastacia"
        INDEX 01 73:37:47
Download / Скачать

Хотите скачать бесплатно? Зарегистрируйтесь на сайте (ссылка на регистрацию). Pirat.ca - самый быстрый торрент трекер в рунете!

Как скачивать  ·   Что такое торрент  ·   Рейтинг и ограничения

Показать сообщения:    
Ответить на тему

Текущее время: Сегодня 13:40

Часовой пояс: GMT + 4



Вы не можете начинать темы
Вы не можете отвечать на сообщения
Вы не можете редактировать свои сообщения
Вы не можете удалять свои сообщения
Вы не можете голосовать в опросах
Вы не можете прикреплять файлы к сообщениям
Вы не можете скачивать файлы

▼ Вниз