Уважаемый Гость!
Вы можете поддержать проект и зарегистрироваться у наших партнеров - онлайн-стратегия MyLands. При регистрации в игре Вы получите код, который сможете активировать после регистрации на pirat.ca и получить 1000 дублонов.

Ваш код:
42dfaac977a7ef29e5167536f5b22936dba18477
 
     

(Dream Pop, Indie Pop, Lo-Fi) Au Revoir Simone - Move in Spectrums - 2013 [FLAC, tracks+.cue, lossless]

Ответить на тему
 
Автор
Сообщение

Пост 10-Окт-2013 01:30

[Q] 

Бром

-Au Revoir Simone / Move in Spectrums-- Год издания: 2013
Страна: USA
Жанр: Dream Pop, Indie Pop, Lo-Fi
Продолжительность: 44:03-Тип альбома: Master
Страна-выпуска диска: EU
Источник (релизер): DarkAngie (AF)-Формат: FLAC
Битрейт аудио: lossless
Тип рипа: tracks+.cue
Наличие сканов в содержимом раздачи: нет-
1. More Than
2. The Lead Is Galloping
3. Crazy
4. We Both Know
5. Just Like a Tree
6. Somebody Who
7. Gravitron
8. Boiling Point
9. Love You Don't Know Me
10. Hand over Hand
11. Let the Night Win
X Lossless Decoder version 20130127 (142.3)
XLD extraction logfile from 2013-09-17 17:08:41 -0400
Au Revoir Simone / Move in Spectrums
Used drive : MATSHITA DVD-R UJ-8A8 (revision HB14)
Media type : Pressed CD
Ripper mode : XLD Secure Ripper
Disable audio cache : OK for the drive with a cache less than 1375KiB
Make use of C2 pointers : NO
Read offset correction : 102
Max retry count : 20
Gap status : Analyzed, Appended (except HTOA)
TOC of the extracted CD
Track | Start | Length | Start sector | End sector
---------------------------------------------------------
1 | 00:00:00 | 04:50:03 | 0 | 21752
2 | 04:50:03 | 02:35:06 | 21753 | 33383
3 | 07:25:09 | 02:58:17 | 33384 | 46750
4 | 10:23:26 | 04:54:09 | 46751 | 68809
5 | 15:17:35 | 04:30:34 | 68810 | 89093
6 | 19:47:69 | 03:28:19 | 89094 | 104712
7 | 23:16:13 | 04:35:05 | 104713 | 125342
8 | 27:51:18 | 04:37:19 | 125343 | 146136
9 | 32:28:37 | 03:00:16 | 146137 | 159652
10 | 35:28:53 | 05:11:48 | 159653 | 183025
11 | 40:40:26 | 05:35:47 | 183026 | 208197
AccurateRip Summary
Disc not found in AccurateRip DB.
All Tracks
Album gain : -7.65 dB
Peak : 1.000000
Statistics
Read error : 0
Jitter error (maybe fixed) : 0
Retry sector count : 0
Damaged sector count : 0
Track 01
Filename : /Users/trevormorrison/Desktop/Torrent Files/Au Revoir Simone - Move in Spectrums (2013) [FLAC]/01 More Than.flac
Pre-gap length : 00:02:00
Track gain : -8.12 dB
Peak : 1.000000
CRC32 hash (test run) : BC689F7F
CRC32 hash : BC689F7F
CRC32 hash (skip zero) : 33D80018
AccurateRip v1 signature : 9DAC8719
AccurateRip v2 signature : 1FFF121E
->Track not present in AccurateRip database.
Statistics
Read error : 0
Jitter error (maybe fixed) : 0
Retry sector count : 0
Damaged sector count : 0
Track 02
Filename : /Users/trevormorrison/Desktop/Torrent Files/Au Revoir Simone - Move in Spectrums (2013) [FLAC]/02 The Lead Is Galloping.flac
Track gain : -8.27 dB
Peak : 0.988617
CRC32 hash (test run) : BB2C3D69
CRC32 hash : BB2C3D69
CRC32 hash (skip zero) : BB8E709C
AccurateRip v1 signature : 98D183A5
AccurateRip v2 signature : 96E3BA36
->Track not present in AccurateRip database.
Statistics
Read error : 0
Jitter error (maybe fixed) : 0
Retry sector count : 0
Damaged sector count : 0
Track 03
Filename : /Users/trevormorrison/Desktop/Torrent Files/Au Revoir Simone - Move in Spectrums (2013) [FLAC]/03 Crazy.flac
Pre-gap length : 00:01:59
Track gain : -9.24 dB
Peak : 0.981415
CRC32 hash (test run) : 5D325430
CRC32 hash : 5D325430
CRC32 hash (skip zero) : 3D46FFC9
AccurateRip v1 signature : 73A66C52
AccurateRip v2 signature : 31FD1C13
->Track not present in AccurateRip database.
Statistics
Read error : 0
Jitter error (maybe fixed) : 0
Retry sector count : 0
Damaged sector count : 0
Track 04
Filename : /Users/trevormorrison/Desktop/Torrent Files/Au Revoir Simone - Move in Spectrums (2013) [FLAC]/04 We Both Know.flac
Pre-gap length : 00:01:40
Track gain : -7.00 dB
Peak : 0.988556
CRC32 hash (test run) : 87B00834
CRC32 hash : 87B00834
CRC32 hash (skip zero) : 49EAFEDE
AccurateRip v1 signature : 36EBF00C
AccurateRip v2 signature : 7B9CA5AB
->Track not present in AccurateRip database.
Statistics
Read error : 0
Jitter error (maybe fixed) : 0
Retry sector count : 0
Damaged sector count : 0
Track 05
Filename : /Users/trevormorrison/Desktop/Torrent Files/Au Revoir Simone - Move in Spectrums (2013) [FLAC]/05 Just Like a Tree.flac
Track gain : -8.63 dB
Peak : 0.988556
CRC32 hash (test run) : 3A9567F2
CRC32 hash : 3A9567F2
CRC32 hash (skip zero) : 15D599A0
AccurateRip v1 signature : 632E729E
AccurateRip v2 signature : D0C29FCD
->Track not present in AccurateRip database.
Statistics
Read error : 0
Jitter error (maybe fixed) : 0
Retry sector count : 0
Damaged sector count : 0
Track 06
Filename : /Users/trevormorrison/Desktop/Torrent Files/Au Revoir Simone - Move in Spectrums (2013) [FLAC]/06 Somebody Who.flac
Track gain : -7.83 dB
Peak : 0.988556
CRC32 hash (test run) : B7B39FA9
CRC32 hash : B7B39FA9
CRC32 hash (skip zero) : 5F725127
AccurateRip v1 signature : 2383DC3B
AccurateRip v2 signature : B1294DAB
->Track not present in AccurateRip database.
Statistics
Read error : 0
Jitter error (maybe fixed) : 0
Retry sector count : 0
Damaged sector count : 0
Track 07
Filename : /Users/trevormorrison/Desktop/Torrent Files/Au Revoir Simone - Move in Spectrums (2013) [FLAC]/07 Gravitron.flac
Track gain : -7.16 dB
Peak : 0.988556
CRC32 hash (test run) : 42CAED66
CRC32 hash : 42CAED66
CRC32 hash (skip zero) : B6F53AA0
AccurateRip v1 signature : E3AD6C5E
AccurateRip v2 signature : FB65CE75
->Track not present in AccurateRip database.
Statistics
Read error : 0
Jitter error (maybe fixed) : 0
Retry sector count : 0
Damaged sector count : 0
Track 08
Filename : /Users/trevormorrison/Desktop/Torrent Files/Au Revoir Simone - Move in Spectrums (2013) [FLAC]/08 Boiling Point.flac
Track gain : -6.13 dB
Peak : 0.988556
CRC32 hash (test run) : 83EB8A37
CRC32 hash : 83EB8A37
CRC32 hash (skip zero) : 6417CBC4
AccurateRip v1 signature : 162C655A
AccurateRip v2 signature : DED38F5A
->Track not present in AccurateRip database.
Statistics
Read error : 0
Jitter error (maybe fixed) : 0
Retry sector count : 0
Damaged sector count : 0
Track 09
Filename : /Users/trevormorrison/Desktop/Torrent Files/Au Revoir Simone - Move in Spectrums (2013) [FLAC]/09 Love You Don't Know Me.flac
Track gain : -7.08 dB
Peak : 0.966064
CRC32 hash (test run) : DCB32E5E
CRC32 hash : DCB32E5E
CRC32 hash (skip zero) : 9BEB3A35
AccurateRip v1 signature : 494052AD
AccurateRip v2 signature : CDC062A7
->Track not present in AccurateRip database.
Statistics
Read error : 0
Jitter error (maybe fixed) : 0
Retry sector count : 0
Damaged sector count : 0
Track 10
Filename : /Users/trevormorrison/Desktop/Torrent Files/Au Revoir Simone - Move in Spectrums (2013) [FLAC]/10 Hand over Hand.flac
Track gain : -6.44 dB
Peak : 0.908417
CRC32 hash (test run) : 7E45ACEE
CRC32 hash : 7E45ACEE
CRC32 hash (skip zero) : B598BB3F
AccurateRip v1 signature : 55D72980
AccurateRip v2 signature : 0A885B7B
->Track not present in AccurateRip database.
Statistics
Read error : 0
Jitter error (maybe fixed) : 0
Retry sector count : 0
Damaged sector count : 0
Track 11
Filename : /Users/trevormorrison/Desktop/Torrent Files/Au Revoir Simone - Move in Spectrums (2013) [FLAC]/11 Let the Night Win.flac
Pre-gap length : 00:01:37
Track gain : -6.78 dB
Peak : 0.988556
CRC32 hash (test run) : 9E7585C3
CRC32 hash : 9E7585C3
CRC32 hash (skip zero) : AA0A1144
AccurateRip v1 signature : 02CB053A
AccurateRip v2 signature : 7C1184BD
->Track not present in AccurateRip database.
Statistics
Read error : 0
Jitter error (maybe fixed) : 0
Retry sector count : 0
Damaged sector count : 0
No errors occurred
End of status report
TITLE "Move in Spectrums"
PERFORMER "Au Revoir Simone"
CATALOG 0885686931523
REM GENRE "Alternative"
REM DATE "2013"
REM DISCNUMBER 1
REM TOTALDISCS 1
REM DISCID 980AD70B
REM REPLAYGAIN_ALBUM_GAIN -7.65 dB
REM REPLAYGAIN_ALBUM_PEAK 1.000000
FILE "01 More Than.flac" WAVE
TRACK 01 AUDIO
TITLE "More Than"
ISRC QMFME1393703
REM REPLAYGAIN_TRACK_GAIN -8.12 dB
REM REPLAYGAIN_TRACK_PEAK 1.000000
INDEX 01 00:00:00
FILE "02 The Lead Is Galloping.flac" WAVE
TRACK 02 AUDIO
TITLE "The Lead Is Galloping"
ISRC QMFME1393704
REM REPLAYGAIN_TRACK_GAIN -8.27 dB
REM REPLAYGAIN_TRACK_PEAK 0.988617
INDEX 01 00:00:00
TRACK 03 AUDIO
TITLE "Crazy"
ISRC QMFME1393705
REM REPLAYGAIN_TRACK_GAIN -9.24 dB
REM REPLAYGAIN_TRACK_PEAK 0.981415
INDEX 00 02:33:22
FILE "03 Crazy.flac" WAVE
INDEX 01 00:00:00
TRACK 04 AUDIO
TITLE "We Both Know"
ISRC QMFME1393706
REM REPLAYGAIN_TRACK_GAIN -7.00 dB
REM REPLAYGAIN_TRACK_PEAK 0.988556
INDEX 00 02:56:52
FILE "04 We Both Know.flac" WAVE
INDEX 01 00:00:00
FILE "05 Just Like a Tree.flac" WAVE
TRACK 05 AUDIO
TITLE "Just Like a Tree"
ISRC QMFME1393707
REM REPLAYGAIN_TRACK_GAIN -8.63 dB
REM REPLAYGAIN_TRACK_PEAK 0.988556
INDEX 01 00:00:00
FILE "06 Somebody Who.flac" WAVE
TRACK 06 AUDIO
TITLE "Somebody Who"
ISRC QMFME1393708
REM REPLAYGAIN_TRACK_GAIN -7.83 dB
REM REPLAYGAIN_TRACK_PEAK 0.988556
INDEX 01 00:00:00
FILE "07 Gravitron.flac" WAVE
TRACK 07 AUDIO
TITLE "Gravitron"
ISRC QMFME1393709
REM REPLAYGAIN_TRACK_GAIN -7.16 dB
REM REPLAYGAIN_TRACK_PEAK 0.988556
INDEX 01 00:00:00
FILE "08 Boiling Point.flac" WAVE
TRACK 08 AUDIO
TITLE "Boiling Point"
ISRC QMFME1393710
REM REPLAYGAIN_TRACK_GAIN -6.13 dB
REM REPLAYGAIN_TRACK_PEAK 0.988556
INDEX 01 00:00:00
FILE "09 Love You Don't Know Me.flac" WAVE
TRACK 09 AUDIO
TITLE "Love You Don't Know Me"
ISRC QMFME1393711
REM REPLAYGAIN_TRACK_GAIN -7.08 dB
REM REPLAYGAIN_TRACK_PEAK 0.966064
INDEX 01 00:00:00
FILE "10 Hand over Hand.flac" WAVE
TRACK 10 AUDIO
TITLE "Hand over Hand"
ISRC QMFME1393712
REM REPLAYGAIN_TRACK_GAIN -6.44 dB
REM REPLAYGAIN_TRACK_PEAK 0.908417
INDEX 01 00:00:00
TRACK 11 AUDIO
TITLE "Let the Night Win"
ISRC QMFME1393713
REM REPLAYGAIN_TRACK_GAIN -6.78 dB
REM REPLAYGAIN_TRACK_PEAK 0.988556
INDEX 00 05:10:11
FILE "11 Let the Night Win.flac" WAVE
INDEX 01 00:00:00
Download / Скачать

Хотите скачать бесплатно? Зарегистрируйтесь на сайте (ссылка на регистрацию). Pirat.ca - самый быстрый торрент трекер в рунете!

Как скачивать  ·   Что такое торрент  ·   Рейтинг и ограничения

Billi Bob

Корсар

566

Пост 10-Окт-2013 20:05 (спустя 18 часов)

[Q] 

Честно. На любителя ( Не впечатлило.
[Профиль]  [ЛС] 

bolobol

Флибустьер

112

Пост 13-Май-2014 08:14 (спустя 7 месяцев 2 дня)

[Q] 

Щас послущаю!!!! Эй, вернитесь на раздачу...

_________________
[Профиль]  [ЛС] 
Показать сообщения:    
Ответить на тему

Текущее время: Сегодня 22:36

Часовой пояс: GMT + 4



Вы не можете начинать темы
Вы не можете отвечать на сообщения
Вы не можете редактировать свои сообщения
Вы не можете удалять свои сообщения
Вы не можете голосовать в опросах
Вы не можете прикреплять файлы к сообщениям
Вы не можете скачивать файлы

▼ Вниз