Уважаемый Гость!
Вы можете поддержать проект и зарегистрироваться у наших партнеров - онлайн-стратегия MyLands. При регистрации в игре Вы получите код, который сможете активировать после регистрации на pirat.ca и получить 1000 дублонов.

Ваш код:
42dfaac977a7ef29e5167536f5b22936dba18477
 
     

(Pop) A-HA - Hunting High And Low (Deluxe Edition) 2CD - 2010, FLAC (image+.cue) , lossless

Ответить на тему
 
Автор
Сообщение

Пост 05-Янв-2012 21:22

[Q] 

Kote Makaradze

A-HA - Hunting High And Low (Deluxe Edition)- -Год выпуска: 2010
Жанр: Pop
Лейбл издания: Warner Bros. Records, Rhino Rec.
Страна-выпуска диска: EU
Номер по каталогу: 8122797953,
Продолжительность: 01:00:58 + 01:13:53
Формат: FLAC
Битрейт аудио: lossless
Тип рипа: image+.cue
Наличие сканов в содержимом раздачи: да

01. Take On Me
02. Train Of Thought
03. Hunting High And Low
04. The Blue Sky
05. Living A Boy's Adventure Tale
06. The Sun Always Shines On T.V.
07. And You Tell Me
08. Love Is Reason
09. Dream Myself Alive
10. Here I Stand And Face The Rain
11. Take On Me – Original 7" Version 1984 - Bonus Track
12. The Sun Always Shines On T.V. – Extended Mix - Bonus Track
13. Train Of Thought – U.S. Mix - Bonus Track
14. Hunting High And Low – Extended Remix - Bonus Track
01. Take On Me - Demo
02. Train Of Thought – Demo*
03. Hunting High And Low – Demo*
04. The Blue Sky – Demo
05. Living A Boy's Adventure Tale – Early Version*
06. The Sun Always Shines on T.V. – Demo*
07. And You Tell Me – Demo
08. Love Is Reason – Demo*
09. I Dream Myself Alive – Demo*
10. Here I Stand And Face The Rain – Demo*
11. Stop And Make Your Mind Up
12. Driftwood
13. Dot The I*
14. The Love Goodbye
15. Nothing To It*
16. Go To Sleep
17. Monday Mourning
18. All The Planes That Come In On The Quiet*
19. Never Never
20. What's That You're Doing To Yourself*
21. You Have Grown Thoughtful Again*
22. Lesson One – Autumn 1982 'Take One Me' Demo*
23. Presenting Lily Mars
* previously unissued
CD-1
Exact Audio Copy V0.99 prebeta 4 from 23. January 2008
EAC extraction logfile from 21. July 2010, 15:23
a-ha / Hunting High And Low (Deluxe Edition) (Disc 1)
Used drive : MATSHITABD-MLT UJ-220S Adapter: 1 ID: 0
Read mode : Secure
Utilize accurate stream : Yes
Defeat audio cache : Yes
Make use of C2 pointers : No
Read offset correction : 102
Overread into Lead-In and Lead-Out : No
Fill up missing offset samples with silence : Yes
Delete leading and trailing silent blocks : No
Null samples used in CRC calculations : Yes
Used interface : Installed external ASPI interface
Used output format : Internal WAV Routines
Sample format : 44.100 Hz; 16 Bit; Stereo
TOC of the extracted CD
Track | Start | Length | Start sector | End sector
---------------------------------------------------------
1 | 0:00.00 | 3:48.39 | 0 | 17138
2 | 3:48.39 | 4:14.03 | 17139 | 36191
3 | 8:02.42 | 3:44.29 | 36192 | 53020
4 | 11:46.71 | 2:36.72 | 53021 | 64792
5 | 14:23.68 | 5:03.20 | 64793 | 87537
6 | 19:27.13 | 5:08.13 | 87538 | 110650
7 | 24:35.26 | 1:52.58 | 110651 | 119108
8 | 26:28.09 | 3:06.36 | 119109 | 133094
9 | 29:34.45 | 3:07.64 | 133095 | 147183
10 | 32:42.34 | 4:41.34 | 147184 | 168292
11 | 37:23.68 | 3:18.28 | 168293 | 183170
12 | 40:42.21 | 7:09.27 | 183171 | 215372
13 | 47:51.48 | 7:03.05 | 215373 | 247102
14 | 54:54.53 | 6:03.22 | 247103 | 274349
Range status and errors
Selected range
Filename D:\CD\a-ha - Hunting High And Low (Deluxe Edition) (Disc 1).wav
Peak level 98.8 %
Range quality 99.9 %
Test CRC 11DA518D
Copy CRC 11DA518D
Copy OK
No errors occurred
AccurateRip summary
Track 1 not present in database
Track 2 not present in database
Track 3 not present in database
Track 4 not present in database
Track 5 not present in database
Track 6 not present in database
Track 7 not present in database
Track 8 not present in database
Track 9 not present in database
Track 10 not present in database
Track 11 not present in database
Track 12 not present in database
Track 13 not present in database
Track 14 not present in database
None of the tracks are present in the AccurateRip database
End of status report
CD-2
Exact Audio Copy V0.99 prebeta 4 from 23. January 2008
EAC extraction logfile from 21. July 2010, 16:46
a-ha / Hunting High And Low (Deluxe Edition) (Disc 2)
Used drive : MATSHITABD-MLT UJ-220S Adapter: 1 ID: 0
Read mode : Secure
Utilize accurate stream : Yes
Defeat audio cache : Yes
Make use of C2 pointers : No
Read offset correction : 102
Overread into Lead-In and Lead-Out : No
Fill up missing offset samples with silence : Yes
Delete leading and trailing silent blocks : No
Null samples used in CRC calculations : Yes
Used interface : Installed external ASPI interface
Used output format : Internal WAV Routines
Sample format : 44.100 Hz; 16 Bit; Stereo
TOC of the extracted CD
Track | Start | Length | Start sector | End sector
---------------------------------------------------------
1 | 0:00.00 | 3:11.71 | 0 | 14395
2 | 3:11.71 | 4:19.38 | 14396 | 33858
3 | 7:31.34 | 3:08.64 | 33859 | 48022
4 | 10:40.23 | 3:17.51 | 48023 | 62848
5 | 13:57.74 | 5:15.28 | 62849 | 86501
6 | 19:13.27 | 4:09.00 | 86502 | 105176
7 | 23:22.27 | 1:54.06 | 105177 | 113732
8 | 25:16.33 | 2:23.69 | 113733 | 124526
9 | 27:40.27 | 3:05.22 | 124527 | 138423
10 | 30:45.49 | 3:54.37 | 138424 | 156010
11 | 34:40.11 | 3:03.05 | 156011 | 169740
12 | 37:43.16 | 3:05.68 | 169741 | 183683
13 | 40:49.09 | 3:22.04 | 183684 | 198837
14 | 44:11.13 | 3:25.12 | 198838 | 214224
15 | 47:36.25 | 3:44.14 | 214225 | 231038
16 | 51:20.39 | 2:13.55 | 231039 | 241068
17 | 53:34.19 | 3:07.60 | 241069 | 255153
18 | 56:42.04 | 3:05.13 | 255154 | 269041
19 | 59:47.17 | 3:17.25 | 269042 | 283841
20 | 63:04.42 | 2:38.69 | 283842 | 295760
21 | 65:43.36 | 2:30.06 | 295761 | 307016
22 | 68:13.42 | 2:41.63 | 307017 | 319154
23 | 70:55.30 | 2:58.03 | 319155 | 332507
Range status and errors
Selected range
Filename D:\CD\a-ha - Hunting High And Low (Deluxe Edition) (Disc 2).wav
Peak level 97.8 %
Range quality 100.0 %
Test CRC B597947A
Copy CRC B597947A
Copy OK
No errors occurred
AccurateRip summary
Track 1 not present in database
Track 2 not present in database
Track 3 not present in database
Track 4 not present in database
Track 5 not present in database
Track 6 not present in database
Track 7 not present in database
Track 8 not present in database
Track 9 not present in database
Track 10 not present in database
Track 11 not present in database
Track 12 not present in database
Track 13 not present in database
Track 14 not present in database
Track 15 not present in database
Track 16 not present in database
Track 17 not present in database
Track 18 not present in database
Track 19 not present in database
Track 20 not present in database
Track 21 not present in database
Track 22 not present in database
Track 23 not present in database
None of the tracks are present in the AccurateRip database
End of status report
CD-1
REM GENRE Pop
REM DATE 2010
REM DISCID D80E4A0E
REM COMMENT "ExactAudioCopy v0.99pb4"
PERFORMER "a-ha"
TITLE "Hunting High And Low (Deluxe Edition) (Disc 1)"
FILE "a-ha - Hunting High And Low (Deluxe Edition) (Disc 1).wav" WAVE
TRACK 01 AUDIO
TITLE "Take On Me"
PERFORMER "a-ha"
INDEX 01 00:00:00
TRACK 02 AUDIO
TITLE "Train Of Thought"
PERFORMER "a-ha"
INDEX 01 03:48:39
TRACK 03 AUDIO
TITLE "Hunting High And Low"
PERFORMER "a-ha"
INDEX 01 08:02:42
TRACK 04 AUDIO
TITLE "The Blue Sky"
PERFORMER "a-ha"
INDEX 01 11:46:71
TRACK 05 AUDIO
TITLE "Living A Boy's Adventure Tale"
PERFORMER "a-ha"
INDEX 01 14:23:68
TRACK 06 AUDIO
TITLE "The Sun Always Shines On TV"
PERFORMER "a-ha"
INDEX 01 19:27:13
TRACK 07 AUDIO
TITLE "And You Tell Me"
PERFORMER "a-ha"
INDEX 00 24:34:12
INDEX 01 24:35:26
TRACK 08 AUDIO
TITLE "Love Is Reason"
PERFORMER "a-ha"
INDEX 01 26:28:09
TRACK 09 AUDIO
TITLE "Dream Myself Alive"
PERFORMER "a-ha"
INDEX 01 29:34:45
TRACK 10 AUDIO
TITLE "Here I Stand And Face The Rain"
PERFORMER "a-ha"
INDEX 00 32:41:21
INDEX 01 32:42:34
TRACK 11 AUDIO
TITLE "Take On Me (Original 7' Version 1984)"
PERFORMER "a-ha"
INDEX 00 37:16:14
INDEX 01 37:23:68
TRACK 12 AUDIO
TITLE "The Sun Always Shines On TV (Extended Mix)"
PERFORMER "a-ha"
INDEX 01 40:42:21
TRACK 13 AUDIO
TITLE "Train Of Thought (U.S. Mix)"
PERFORMER "a-ha"
INDEX 01 47:51:48
TRACK 14 AUDIO
TITLE "Hunting High And Low (Extended Remix)"
PERFORMER "a-ha"
INDEX 01 54:54:53
CD-2
REM GENRE Pop
REM DATE 2010
REM DISCID 5F115117
REM COMMENT "ExactAudioCopy v0.99pb4"
PERFORMER "a-ha"
TITLE "Hunting High And Low (Deluxe Edition) (Disc 2)"
FILE "a-ha - Hunting High And Low (Deluxe Edition) (Disc 2).wav" WAVE
TRACK 01 AUDIO
TITLE "Take On Me (Demo)"
PERFORMER "a-ha"
INDEX 01 00:00:00
TRACK 02 AUDIO
TITLE "Train Of Thought (Demo)"
PERFORMER "a-ha"
INDEX 01 03:11:71
TRACK 03 AUDIO
TITLE "Hunting High And Low (Demo)"
PERFORMER "a-ha"
INDEX 01 07:31:34
TRACK 04 AUDIO
TITLE "The Blue Sky (Demo)"
PERFORMER "a-ha"
INDEX 01 10:40:23
TRACK 05 AUDIO
TITLE "Living A Boy's Adventure Tale (Early Version)"
PERFORMER "a-ha"
INDEX 00 13:56:60
INDEX 01 13:57:74
TRACK 06 AUDIO
TITLE "The Sun Always Shines On TV (Demo)"
PERFORMER "a-ha"
INDEX 01 19:13:27
TRACK 07 AUDIO
TITLE "And You Tell Me (Demo)"
PERFORMER "a-ha"
INDEX 00 23:21:26
INDEX 01 23:22:27
TRACK 08 AUDIO
TITLE "Love Is Reason (Demo)"
PERFORMER "a-ha"
INDEX 01 25:16:33
TRACK 09 AUDIO
TITLE "I Dream Myself Alive (Demo)"
PERFORMER "a-ha"
INDEX 00 27:39:25
INDEX 01 27:40:27
TRACK 10 AUDIO
TITLE "Here I Stand And Face The Rain (Demo)"
PERFORMER "a-ha"
INDEX 00 30:44:28
INDEX 01 30:45:49
TRACK 11 AUDIO
TITLE "Stop! And Make Your Mind Up"
PERFORMER "a-ha"
INDEX 00 34:39:06
INDEX 01 34:40:11
TRACK 12 AUDIO
TITLE "Driftwood"
PERFORMER "a-ha"
INDEX 01 37:43:16
TRACK 13 AUDIO
TITLE "Dot The I"
PERFORMER "a-ha"
INDEX 01 40:49:09
TRACK 14 AUDIO
TITLE "The Love Goodbye"
PERFORMER "a-ha"
INDEX 00 44:09:65
INDEX 01 44:11:13
TRACK 15 AUDIO
TITLE "Nothing To It"
PERFORMER "a-ha"
INDEX 01 47:36:25
TRACK 16 AUDIO
TITLE "Go To Sleep"
PERFORMER "a-ha"
INDEX 00 51:18:25
INDEX 01 51:20:39
TRACK 17 AUDIO
TITLE "Monday Mourning"
PERFORMER "a-ha"
INDEX 00 53:32:55
INDEX 01 53:34:19
TRACK 18 AUDIO
TITLE "All The Planes That Come In On The Quiet"
PERFORMER "a-ha"
INDEX 00 56:40:41
INDEX 01 56:42:04
TRACK 19 AUDIO
TITLE "Never Never"
PERFORMER "a-ha"
INDEX 00 59:45:59
INDEX 01 59:47:17
TRACK 20 AUDIO
TITLE "What's That You're Doing To Yourself In The Pouring Rain"
PERFORMER "a-ha"
INDEX 00 63:03:33
INDEX 01 63:04:42
TRACK 21 AUDIO
TITLE "You Have Grown Thoughtful Again"
PERFORMER "a-ha"
INDEX 01 65:43:36
TRACK 22 AUDIO
TITLE "Lesson One (Autumn 1982 'Take On Me' Demo)"
PERFORMER "a-ha"
INDEX 00 68:12:32
INDEX 01 68:13:42
TRACK 23 AUDIO
TITLE "Presenting Lily Mars"
PERFORMER "a-ha"
INDEX 01 70:55:30
- -
Download / Скачать

Хотите скачать бесплатно? Зарегистрируйтесь на сайте (ссылка на регистрацию). Pirat.ca - самый быстрый торрент трекер в рунете!

Как скачивать  ·   Что такое торрент  ·   Рейтинг и ограничения

Mindphaser

Корсар

Пост 06-Фев-2012 22:49 (спустя 1 месяц 1 день)

[Q] 


_________________
[Профиль]  [ЛС] 
Показать сообщения:    
Ответить на тему

Текущее время: Сегодня 22:36

Часовой пояс: GMT + 4



Вы не можете начинать темы
Вы не можете отвечать на сообщения
Вы не можете редактировать свои сообщения
Вы не можете удалять свои сообщения
Вы не можете голосовать в опросах
Вы не можете прикреплять файлы к сообщениям
Вы не можете скачивать файлы

▼ Вниз