Уважаемый Гость!
Вы можете поддержать проект и зарегистрироваться у наших партнеров - онлайн-стратегия MyLands. При регистрации в игре Вы получите код, который сможете активировать после регистрации на pirat.ca и получить 1000 дублонов.

Ваш код:
42dfaac977a7ef29e5167536f5b22936dba18477
 
     

(Disco, Pop, Instrumental Pop) Tommy Gold - Sunny Guitar Dreams - 1988 [FLAC, image+.cue, lossless]

Ответить на тему
 
Автор
Сообщение

Пост 02-Июл-2014 14:07

[Q] 

шарик-off

-Tommy Gold / Sunny Guitar Dreams-- Год издания: 1988
Страна: Германия
Жанр: Disco, Pop, Instrumental Pop
Продолжительность: 01:01:37-Лейбл издания: Pilz Gold
Тип альбома: CD, Album
Страна-выпуска диска: Германия
Номер по каталогу: CD 75500
Источник (релизер): wzzss12 (собственный диск)-Формат: FLAC
Битрейт аудио: lossless
Тип рипа: image+.cue
Наличие сканов в содержимом раздачи: да-
01. Hello Again
02. Abschied Ist Ein Scharfes Schwert
03. Ich Will Nicht Wissen, Wie Du Heisst
04. Jenseits Von Eden
05. Send Me An Angel
06. Die Fischer Von San Juan
07. Sunny Guitar
08. Moon Of Mataya
09. Self Control
10. Sad Songs
11. Barcarole Vom Abschied
12. Sunshine Reggae
13. By The Old Tom Doo
14. Ule Tamoure
15. Hawaiiyana
16. Tom Tom Matahey
Код:
Exact Audio Copy V1.0 beta 3 from 29. August 2011
Отчёт EAC об извлечении, выполненном 26. августа 2013, 14:58
Tommy Gold / Sunny Guitar Dreams
Дисковод: PIONEER DVD-RW  DVR-215D   Adapter: 1  ID: 0
Режим чтения                 : Достоверность
Использование точного потока : Да
Отключение кэша аудио        : Да
Использование указателей C2  : Нет
Коррекция смещения при чтении                     : 48
Способность читать области Lead-in и Lead-out     : Нет
Заполнение пропущенных сэмплов тишиной            : Да
Удаление блоков с тишиной в начале и конце        : Нет
При вычислениях CRC использовались нулевые сэмплы : Да
Интерфейс                                         : Установленный внешний ASPI-интерфейс
Выходной формат          : Пользовательский кодировщик
Выбранный битрейт        : 128 kBit/s
Качество                 : Высокий
Добавление ID3-тега      : Нет
Утилита сжатия           : C:\Program Files\Exact Audio Copy\Flac\flac.exe
Дополнительные параметры : -V -8 -T "Date=%year%" -T "Genre=%genre%" %source%
TOC извлечённого CD
     Трек |   Старт  | Длительность | Начальный сектор | Конечный сектор
    ---------------------------------------------------------------------
       1  |  0:00.00 |    3:38.45   |           0      |      16394
       2  |  3:38.45 |    3:46.30   |       16395      |      33374
       3  |  7:25.00 |    2:59.20   |       33375      |      46819
       4  | 10:24.20 |    4:22.60   |       46820      |      66529
       5  | 14:47.05 |    3:57.57   |       66530      |      84361
       6  | 18:44.62 |    4:14.03   |       84362      |     103414
       7  | 22:58.65 |    3:12.47   |      103415      |     117861
       8  | 26:11.37 |    3:28.33   |      117862      |     133494
       9  | 29:39.70 |    4:06.45   |      133495      |     151989
      10  | 33:46.40 |    4:19.67   |      151990      |     171481
      11  | 38:06.32 |    4:28.45   |      171482      |     191626
      12  | 42:35.02 |    3:54.33   |      191627      |     209209
      13  | 46:29.35 |    4:00.02   |      209210      |     227211
      14  | 50:29.37 |    3:41.30   |      227212      |     243816
      15  | 54:10.67 |    3:41.43   |      243817      |     260434
      16  | 57:52.35 |    3:44.55   |      260435      |     277289
Характеристики диапазона извлечения и сообщения об ошибках
Выбранный диапазон
     Имя файла C:\Documents and Settings\Admin\Рабочий стол\Tommy Gold - Sunny Guitar Dreams.wav
     Пиковый уровень 100.0 %
     Скорость извлечения 7.5 X
     Качество диапазона 100.0 %
     CRC теста EFD4D4BB
     CRC копии EFD4D4BB
     Копирование... OK
Ошибок не произошло
AccurateRip: сводка
Трек  1  отсутствует в базе данных
Трек  2  отсутствует в базе данных
Трек  3  отсутствует в базе данных
Трек  4  отсутствует в базе данных
Трек  5  отсутствует в базе данных
Трек  6  отсутствует в базе данных
Трек  7  отсутствует в базе данных
Трек  8  отсутствует в базе данных
Трек  9  отсутствует в базе данных
Трек 10  отсутствует в базе данных
Трек 11  отсутствует в базе данных
Трек 12  отсутствует в базе данных
Трек 13  отсутствует в базе данных
Трек 14  отсутствует в базе данных
Трек 15  отсутствует в базе данных
Трек 16  отсутствует в базе данных
Ни одного трека нет в базе AccurateRip
Конец отчёта
==== Контрольная сумма отчёта BD84675A4C9D59BC65CCB52EBB17CA5AF5472EBCD8731E74B384962C369A0950 ====
Код:
REM GENRE "Instrumental Pop"
REM DATE 1988
REM DISCID DE0E7110
REM COMMENT "ExactAudioCopy v1.0b3"
PERFORMER "Tommy Gold"
TITLE "Sunny Guitar Dreams"
FILE "Tommy Gold - Sunny Guitar Dreams.flac" WAVE
  TRACK 01 AUDIO
    TITLE "Hello Again"
    PERFORMER "Tommy Gold"
    INDEX 01 00:00:00
  TRACK 02 AUDIO
    TITLE "Abschied ist ein scharfes Schwert"
    PERFORMER "Tommy Gold"
    INDEX 00 03:34:30
    INDEX 01 03:38:45
  TRACK 03 AUDIO
    TITLE "Ich will nicht wissen, wie du hei.t"
    PERFORMER "Tommy Gold"
    INDEX 00 07:20:47
    INDEX 01 07:25:00
  TRACK 04 AUDIO
    TITLE "Jenseits von Eden"
    PERFORMER "Tommy Gold"
    INDEX 00 10:20:05
    INDEX 01 10:24:20
  TRACK 05 AUDIO
    TITLE "Send Me An Angel"
    PERFORMER "Tommy Gold"
    INDEX 00 14:43:42
    INDEX 01 14:47:05
  TRACK 06 AUDIO
    TITLE "Die Fischer von San Juan"
    PERFORMER "Tommy Gold"
    INDEX 00 18:40:60
    INDEX 01 18:44:62
  TRACK 07 AUDIO
    TITLE "Sunny Guitar"
    PERFORMER "Tommy Gold"
    INDEX 00 22:55:30
    INDEX 01 22:58:65
  TRACK 08 AUDIO
    TITLE "Moon Of Mataya"
    PERFORMER "Tommy Gold"
    INDEX 00 26:08:17
    INDEX 01 26:11:37
  TRACK 09 AUDIO
    TITLE "Self Control"
    PERFORMER "Tommy Gold"
    INDEX 00 29:34:65
    INDEX 01 29:39:70
  TRACK 10 AUDIO
    TITLE "Sad Song"
    PERFORMER "Tommy Gold"
    INDEX 00 33:41:00
    INDEX 01 33:46:40
  TRACK 11 AUDIO
    TITLE "Barcarole vom Abschied"
    PERFORMER "Tommy Gold"
    INDEX 00 38:03:05
    INDEX 01 38:06:32
  TRACK 12 AUDIO
    TITLE "Sunshine Reggae"
    PERFORMER "Tommy Gold"
    INDEX 00 42:31:65
    INDEX 01 42:35:02
  TRACK 13 AUDIO
    TITLE "By The Old Tom Doo"
    PERFORMER "Tommy Gold"
    INDEX 00 46:24:60
    INDEX 01 46:29:35
  TRACK 14 AUDIO
    TITLE "Ule Tamoure"
    PERFORMER "Tommy Gold"
    INDEX 00 50:25:50
    INDEX 01 50:29:37
  TRACK 15 AUDIO
    TITLE "Hawaiiyana"
    PERFORMER "Tommy Gold"
    INDEX 00 54:08:07
    INDEX 01 54:10:67
  TRACK 16 AUDIO
    TITLE "Tom Tom Matahey"
    PERFORMER "Tommy Gold"
    INDEX 00 57:48:22
    INDEX 01 57:52:35
Код:
-----------------------
DON'T MODIFY THIS FILE
-----------------------
PERFORMER: auCDtect Task Manager, ver. 1.0.0 Stable build 1.0.0.0
Copyright (c) 2008, 2009 y-soft. All rights reserved
http://y-soft.110mb.com
ANALYZER: auCDtect: CD records authenticity detector, version 0.8.2
Copyright (c) 2004 Oleg Berngardt. All rights reserved.
Copyright (c) 2004 Alexander Djourik. All rights reserved.
FILE: Tommy Gold - Sunny Guitar Dreams.flac
  Size: 414544942 Hash: 895D13680014A7854D39493F67407BC7 Accuracy: -m0
  Conclusion: CDDA 100%
  Signature: D12BEB02DFE3E422086561CEFEC7D22A06A000EC
Музыка Томми Голда сходна по стилю с произведениями в исполнении Рикки Кинга.
Так же, как и в рассказе про Рикки, где были проведены параллели написания в одном году композиций для Modern Talking и Кинга, здесь можно увидеть, что в 1988 Дитер записывает для Томми Голда альбом Sunny Guitar Dreams, и одновременно с этим выходят композиции Blue System My Bed Is Too Big и Under My Skin. Если рассмотреть музыку этих двух проектов, то становится сложно поверить, что всё это создал один и тот же человек.
Sunny Guitar Dreams - альбом с кавер версиями, а также несколькими инструментальными композициями, написанными Дитером. Примечательны здесь буквально притягивающий звук гитары и мягкие женские голоса. Также интересно, что Дитер переделывает несколько старых композиций тех исполнителей, с которыми он работал в прошлом.
Аранжировки и продюсирование Томми Голда Болен осуществляет совместно с Детлефом Решофтом (Detlef Resho"ft), этот же творческий союз вы наверняка помните по работе в 1983 году над записью сингла Wovon tra"umst du denn для Thomas Anders.
Примечателен и факт упоминания имени некоего/некоей Sauerland, принимавшего(ей) участие в написании некоторых композиций. Это наверняка не псевдоним Дитера Болена, однако, если мы вспомним девичью фамилию первой жены Дитера Болена... хм, это достаточно интересный факт, тем более, что эту же фамилию мы встречаем в произведениях, исполненных Christine Lenz. Итак, значит с большой долей вероятности можно утверждать, что в обоих случаем автором немецких текстов являлась не кто иная, как Ерика Болен!
Как уже отмечалось, альбом Sunny Guitar Dreams включает в себя перепевки некоторых композиций, однако, хоть их оригиналы и исполнены ранее артистами, с которыми работал Дитер Болен, но не все принадлежат его перу:
- Hello Again - эту песню ранее исполнял Howard Carpendale (композиция написана не Дитером);
- Jenseits Von Eden - эту песню пел Nino de Angelo (композиция написана не Дитером);
- Send Me An Angel - в оригинале это песня Real Life, но вспомните, Дитер сделал немецкую версию данной композиции для Thomas Anders;
- Die Fischer Von San Juan - эту песню ранее исполнял Tommy Steiner (композиция написана не Дитером).
Наряду с выше перечисленными композициями также присутствуют и песни, написанные Дитером:
- Sunny Guitar (Bohlen/Styx);
- Moon of Malaya (Benson/Sauerland);
- By the Old Tom Doo (Bohlen);
- Ule Tamoure (Bohlen);
- Hawaiiyana (Bohlen/Styx);
- Tom Tom Matahey (Sauerland).
Download / Скачать

Хотите скачать бесплатно? Зарегистрируйтесь на сайте (ссылка на регистрацию). Pirat.ca - самый быстрый торрент трекер в рунете!

Как скачивать  ·   Что такое торрент  ·   Рейтинг и ограничения

Показать сообщения:    
Ответить на тему

Текущее время: Сегодня 22:32

Часовой пояс: GMT + 4



Вы не можете начинать темы
Вы не можете отвечать на сообщения
Вы не можете редактировать свои сообщения
Вы не можете удалять свои сообщения
Вы не можете голосовать в опросах
Вы не можете прикреплять файлы к сообщениям
Вы не можете скачивать файлы

▼ Вниз