Уважаемый Гость!
Вы можете поддержать проект и зарегистрироваться у наших партнеров - онлайн-стратегия MyLands. При регистрации в игре Вы получите код, который сможете активировать после регистрации на pirat.ca и получить 1000 дублонов.

Ваш код:
42dfaac977a7ef29e5167536f5b22936dba18477
 
     

(Europop, Synth-pop, Ballad, Disco) Dieter Bohlen - Greatest Hits - 2002 [FLAC, image+.cue, lossless]

Ответить на тему
 
Автор
Сообщение

Пост 06-Авг-2014 22:14

[Q] 

шарик-off

-Dieter Bohlen / Greatest Hits-- Год издания: 2002
Страна: Germany
Жанр: Europop, Synth-pop, Ballad, Disco
Продолжительность: 01:05:08-Лейбл издания: Hansa
Тип альбома: CD, Compilation, Copy Protected
Страна-выпуска диска: Germany
Номер по каталогу: 74321 97231 2
Источник (релизер): -Формат: FLAC
Битрейт аудио: lossless
Тип рипа: image+.cue
Наличие сканов в содержимом раздачи: да-
01. Modern Talking - You're My Heart, You're My Soul [03:22]
02. Modern Talking - Cheri Cheri Lady [03:45]
03. Chris Norman - Midnight Lady [04:08]
04. C.C. Catch - Strangers By Night [03:37]
05. C.C. Catch - Heartbreak Hotel [03:34]
06. Blue System - My Bed Is Too Big [03:15]
07. Blue System - Under My Skin [03:32]
08. Nino De Angelo - Samuraj [03:58]
09. Blue System - Magic Symphony [03:36]
10. Bonnie Tyler - Bitterblue [03:48]
11. Blue System - It's All Over [03:54]
12. Bonnie Tyler - Against The Wind (Radio Mix) [03:37]
13. Errol Brown - This Time It's Forever [03:49]
14. Blue System - Laila (Airplay-Mix) [03:26]
15. Touche - This Goodbye Is Not Forever [03:35]
16. Modern Talking - Win The Race [03:35]
17. Millane Fernandez - Boom Boom (Radio Edit) [03:29]
18. Isabel - Will My Heart Survive (Radio Edit) [03:00]
Код:
Exact Audio Copy V0.99 prebeta 5 from 4. May 2009
Отчёт EAC об извлечении, выполненном 15. мая 2009, 14:17
Dieter Bohlen / Greatest Hits
Дисковод: ASUS    DRW-2014S1T   Adapter: 4  ID: 0
Режим чтения                 : Достоверность
Использование точного потока : Да
Отключение кэша аудио        : Да
Использование указателей C2  : Нет
Коррекция смещения при чтении                     : 6
Способность читать области Lead-in и Lead-out     : Нет
Заполнение пропущенных сэмплов тишиной            : Да
Удаление блоков с тишиной в начале и конце        : Нет
При вычислениях CRC использовались нулевые сэмплы : Да
Интерфейс                                         : Установленный внешний ASPI-интерфейс
Выходной формат : Внутренние WAV-операции
Формат сэмплов  : 44.100 Гц; 16 бит; стерео
TOC извлечённого CD
     Трек |   Старт  | Длительность | Начальный сектор | Конечный сектор
    ---------------------------------------------------------------------
       1  |  0:00.32 |    3:23.70   |          32      |      15326
       2  |  3:24.27 |    3:47.13   |       15327      |      32364
       3  |  7:11.40 |    4:10.05   |       32365      |      51119
       4  | 11:21.45 |    3:38.55   |       51120      |      67524
       5  | 15:00.25 |    3:35.35   |       67525      |      83684
       6  | 18:35.60 |    3:16.72   |       83685      |      98456
       7  | 21:52.57 |    3:34.18   |       98457      |     114524
       8  | 25:27.00 |    3:59.07   |      114525      |     132456
       9  | 29:26.07 |    3:37.25   |      132457      |     148756
      10  | 33:03.32 |    3:49.68   |      148757      |     165999
      11  | 36:53.25 |    3:55.37   |      166000      |     183661
      12  | 40:48.62 |    3:39.50   |      183662      |     200136
      13  | 44:28.37 |    3:49.70   |      200137      |     217381
      14  | 48:18.32 |    3:27.50   |      217382      |     232956
      15  | 51:46.07 |    3:37.00   |      232957      |     249231
      16  | 55:23.07 |    3:36.38   |      249232      |     265469
      17  | 58:59.45 |    3:31.02   |      265470      |     281296
      18  | 62:30.47 |    3:00.73   |      281297      |     294869
      19  | 68:03.45 |   11:49.30   |      306270      |     359474
Характеристики диапазона извлечения и сообщения об ошибках
Выбранный диапазон
     Имя файла Z:\Temp\Dieter Bohlen - Greatest Hits.wav
     Пиковый уровень 100.0 %
     Качество диапазона 100.0 %
     CRC теста 07057528
     CRC копии 07057528
     Копирование... OK
Ошибок не произошло
AccurateRip: сводка
Трек  1  нет в базе данных
Трек  2  нет в базе данных
Трек  3  нет в базе данных
Трек  4  нет в базе данных
Трек  5  нет в базе данных
Трек  6  нет в базе данных
Трек  7  нет в базе данных
Трек  8  нет в базе данных
Трек  9  нет в базе данных
Трек 10  нет в базе данных
Трек 11  нет в базе данных
Трек 12  нет в базе данных
Трек 13  нет в базе данных
Трек 14  нет в базе данных
Трек 15  нет в базе данных
Трек 16  нет в базе данных
Трек 17  нет в базе данных
Трек 18  нет в базе данных
Ни одного трека нет в базе AccurateRip
Конец отчёта
Код:
REM GENRE EuroDisco
REM DATE 2002
REM DISCID F812B913
REM COMMENT "ExactAudioCopy v0.99pb5"
PERFORMER "Dieter Bohlen"
TITLE "Greatest Hits"
FILE "Dieter Bohlen - Greatest Hits.flac" WAVE
  TRACK 01 AUDIO
    TITLE "Modern Talking - You're My Heart, You're My Soul"
    PERFORMER "Dieter Bohlen"
    INDEX 00 00:00:00
    INDEX 01 00:00:32
  TRACK 02 AUDIO
    TITLE "Modern Talking - Cheri Cheri Lady"
    PERFORMER "Dieter Bohlen"
    INDEX 00 03:22:70
    INDEX 01 03:24:27
  TRACK 03 AUDIO
    TITLE "Chris Norman - Midnight Lady"
    PERFORMER "Dieter Bohlen"
    INDEX 00 07:09:60
    INDEX 01 07:11:40
  TRACK 04 AUDIO
    TITLE "C.C. Catch - Strangers By Night"
    PERFORMER "Dieter Bohlen"
    INDEX 00 11:20:32
    INDEX 01 11:21:45
  TRACK 05 AUDIO
    TITLE "C.C. Catch - Heartbreak Hotel"
    PERFORMER "Dieter Bohlen"
    INDEX 00 14:59:35
    INDEX 01 15:00:25
  TRACK 06 AUDIO
    TITLE "Blue System - My Bed Is Too Big"
    PERFORMER "Dieter Bohlen"
    INDEX 00 18:34:40
    INDEX 01 18:35:60
  TRACK 07 AUDIO
    TITLE "Blue System - Under My Skin"
    PERFORMER "Dieter Bohlen"
    INDEX 00 21:51:25
    INDEX 01 21:52:57
  TRACK 08 AUDIO
    TITLE "Nino De Angelo - Samuraj"
    PERFORMER "Dieter Bohlen"
    INDEX 00 25:25:02
    INDEX 01 25:27:00
  TRACK 09 AUDIO
    TITLE "Blue System - Magic Symphony"
    PERFORMER "Dieter Bohlen"
    INDEX 00 29:25:02
    INDEX 01 29:26:07
  TRACK 10 AUDIO
    TITLE "Bonnie Tyler - Bitterblue"
    PERFORMER "Dieter Bohlen"
    INDEX 00 33:02:17
    INDEX 01 33:03:32
  TRACK 11 AUDIO
    TITLE "Blue System - It's All Over"
    PERFORMER "Dieter Bohlen"
    INDEX 00 36:52:00
    INDEX 01 36:53:25
  TRACK 12 AUDIO
    TITLE "Bonnie Tyler - Against The Wind (Radio Mix)"
    PERFORMER "Dieter Bohlen"
    INDEX 00 40:47:60
    INDEX 01 40:48:62
  TRACK 13 AUDIO
    TITLE "Errol Brown - This Time It's Forever"
    PERFORMER "Dieter Bohlen"
    INDEX 00 44:26:42
    INDEX 01 44:28:37
  TRACK 14 AUDIO
    TITLE "Blue System - Laila (Airplay-Mix)"
    PERFORMER "Dieter Bohlen"
    INDEX 00 48:17:37
    INDEX 01 48:18:32
  TRACK 15 AUDIO
    TITLE "Touche - This Goodbye Is Not Forever"
    PERFORMER "Dieter Bohlen"
    INDEX 00 51:44:52
    INDEX 01 51:46:07
  TRACK 16 AUDIO
    TITLE "Modern Talking - Win The Race"
    PERFORMER "Dieter Bohlen"
    INDEX 00 55:21:57
    INDEX 01 55:23:07
  TRACK 17 AUDIO
    TITLE "Millane Fernandez - Boom Boom (Radio Edit)"
    PERFORMER "Dieter Bohlen"
    INDEX 00 58:58:37
    INDEX 01 58:59:45
  TRACK 18 AUDIO
    TITLE "Isabel - Will My Heart Survive (Radio Edit)"
    PERFORMER "Dieter Bohlen"
    INDEX 00 62:29:12
    INDEX 01 62:30:47
Код:
-----------------------
DON'T MODIFY THIS FILE
-----------------------
PERFORMER: auCDtect Task Manager, ver. 1.0.1 RC1 build 1.0.1.1
Copyright (c) 2008, 2009 y-soft. All rights reserved
http://y-soft.110mb.com
ANALYZER: auCDtect: CD records authenticity detector, version 0.8.2
Copyright (c) 2004 Oleg Berngardt. All rights reserved.
Copyright (c) 2004 Alexander Djourik. All rights reserved.
FILE: Dieter Bohlen - Greatest Hits.flac
  Size: 506986614 Hash: C1FAE0C019FA9CC7D45A3764F8085973 Accuracy: -m8
  Conclusion: CDDA 100%
  Signature: 68BAABF1E47A6E7DA59A152D519382FAD785682D
-
Download / Скачать

Хотите скачать бесплатно? Зарегистрируйтесь на сайте (ссылка на регистрацию). Pirat.ca - самый быстрый торрент трекер в рунете!

Как скачивать  ·   Что такое торрент  ·   Рейтинг и ограничения

HEDGEHOG932

Корсар

Пост 07-Авг-2014 15:13 (спустя 16 часов)

[Q] 

спасибо послушаем!!!!!!!!!

_________________

[Профиль]  [ЛС] 
Показать сообщения:    
Ответить на тему

Текущее время: Сегодня 22:35

Часовой пояс: GMT + 4



Вы не можете начинать темы
Вы не можете отвечать на сообщения
Вы не можете редактировать свои сообщения
Вы не можете удалять свои сообщения
Вы не можете голосовать в опросах
Вы не можете прикреплять файлы к сообщениям
Вы не можете скачивать файлы

▼ Вниз