Уважаемый Гость!
Вы можете поддержать проект и зарегистрироваться у наших партнеров - онлайн-стратегия MyLands. При регистрации в игре Вы получите код, который сможете активировать после регистрации на pirat.ca и получить 1000 дублонов.

Ваш код:
42dfaac977a7ef29e5167536f5b22936dba18477
 
     

(EuroDisco, Pop) Dieter Bohlen - Best Of - 2012 [FLAC, image+.cue, lossless]

Ответить на тему
 
Автор
Сообщение

Пост 10-Авг-2014 22:33

[Q] 

шарик-off

-Dieter Bohlen / Best Of-- Год издания: 2012
Страна: Germany
Жанр: EuroDisco, Pop
Продолжительность: 01:17:50-Лейбл издания: Sony Music
Тип альбома: CD, Compilation
Страна-выпуска диска: Germany
Номер по каталогу: 88725 47581 2
Источник (релизер):
Формат: FLAC
Битрейт аудио: lossless
Тип рипа: image+.cue
Наличие сканов в содержимом раздачи: да-
01. Monza - Hallo Taxi Nummer 10 (3:50)
02. Monza - Cola Und Rock'n' Roll (4:10)
03. Monza - Hei.E Nacht In Der City (3:10)
04. Monza - Ginny (3:32)
05. Steve Benson - Don't Throw My Love Away (3:16)
06. Steve Benson - I'm In Love With You (3:05)
07. Steve Benson - Love Takes Time (3:42)
08. Steve Benson - Marie-Elaine (3:25)
09. Sunday - Jung Und Frei (3:44)
10. Sunday - Heut' Halt Mich Nichts Zu Haus (3:08)
11. Sunday - Hale, Hey Louise (3:08)
12. Sunday - Worte Aus Glas (3:11)
13. Steve Benson - (You're A Devil With) Angel Blue Eyes (3:48)
14. Steve Benson - Telephone Girl (3:38)
15. Ryan Simmons - Lucky Guy (Radio Version) (3:29)
16. Ryan Simmons - The Night Is Yours, The Night Is Mine (3:53)
17. Ryan Simmons - Lucky Guy (Special-DJ-Mix) (8:19)
18. Ryan Simmons - The Night Is Yours, The Night Is Mine (Long Version) (6:17)
19. Ryan Simmons - Lucky Guy (Instrumental) (3:35)
20. Ryan Simmons - The Night Is Yours, The Night Is Mine (Instrumental) (3:31)
Код:
Exact Audio Copy V1.0 beta 3 from 29. August 2011
Отчёт EAC об извлечении, выполненном 3. марта 2013, 22:38
Dieter Bohlen / Best Of
Дисковод: ASUS    DRW-2014S1T   Adapter: 14  ID: 0
Режим чтения                 : Достоверность
Использование точного потока : Да
Отключение кэша аудио        : Да
Использование указателей C2  : Нет
Коррекция смещения при чтении                     : 6
Способность читать области Lead-in и Lead-out     : Нет
Заполнение пропущенных сэмплов тишиной            : Да
Удаление блоков с тишиной в начале и конце        : Нет
При вычислениях CRC использовались нулевые сэмплы : Да
Интерфейс                                         : Установленный внешний ASPI-интерфейс
Выходной формат : Внутренние WAV-операции
Формат сэмплов  : 44.100 Гц; 16 бит; стерео
TOC извлечённого CD
     Трек |   Старт  | Длительность | Начальный сектор | Конечный сектор
    ---------------------------------------------------------------------
       1  |  0:00.00 |    3:50.04   |           0      |      17253
       2  |  3:50.04 |    4:10.08   |       17254      |      36011
       3  |  8:00.12 |    3:09.55   |       36012      |      50241
       4  | 11:09.67 |    3:31.38   |       50242      |      66104
       5  | 14:41.30 |    3:16.30   |       66105      |      80834
       6  | 17:57.60 |    3:05.22   |       80835      |      94731
       7  | 21:03.07 |    3:41.72   |       94732      |     111378
       8  | 24:45.04 |    3:24.53   |      111379      |     126731
       9  | 28:09.57 |    3:44.09   |      126732      |     143540
      10  | 31:53.66 |    3:08.27   |      143541      |     157667
      11  | 35:02.18 |    3:08.15   |      157668      |     171782
      12  | 38:10.33 |    3:11.02   |      171783      |     186109
      13  | 41:21.35 |    3:48.19   |      186110      |     203228
      14  | 45:09.54 |    3:37.51   |      203229      |     219554
      15  | 48:47.30 |    3:29.21   |      219555      |     235250
      16  | 52:16.51 |    3:52.40   |      235251      |     252690
      17  | 56:09.16 |    8:19.12   |      252691      |     290127
      18  | 64:28.28 |    6:16.43   |      290128      |     318370
      19  | 70:44.71 |    3:34.50   |      318371      |     334470
      20  | 74:19.46 |    3:31.09   |      334471      |     350304
Характеристики диапазона извлечения и сообщения об ошибках
Выбранный диапазон
     Имя файла Z:\Temp\Dieter Bohlen - Best Of.wav
     Пиковый уровень 99.2 %
     Скорость извлечения 9.8 X
     Качество диапазона 100.0 %
     CRC теста 4AD9C7B9
     CRC копии 4AD9C7B9
     Копирование... OK
Ошибок не произошло
AccurateRip: сводка
Трек  1  отсутствует в базе данных
Трек  2  отсутствует в базе данных
Трек  3  отсутствует в базе данных
Трек  4  отсутствует в базе данных
Трек  5  отсутствует в базе данных
Трек  6  отсутствует в базе данных
Трек  7  отсутствует в базе данных
Трек  8  отсутствует в базе данных
Трек  9  отсутствует в базе данных
Трек 10  отсутствует в базе данных
Трек 11  отсутствует в базе данных
Трек 12  отсутствует в базе данных
Трек 13  отсутствует в базе данных
Трек 14  отсутствует в базе данных
Трек 15  отсутствует в базе данных
Трек 16  отсутствует в базе данных
Трек 17  отсутствует в базе данных
Трек 18  отсутствует в базе данных
Трек 19  отсутствует в базе данных
Трек 20  отсутствует в базе данных
Ни одного трека нет в базе AccurateRip
Конец отчёта
---- CUETools DB Plugin V2.1.3
[CTDB TOCID: LUPQR1yFMErb6ZNxGBTjWmbDwFE-] found, Submit result: LUPQR1yFMErb6ZNxGBTjWmbDwFE- has been confirmed
[7744e087] (1/1) Accurately ripped
==== Контрольная сумма отчёта 7AFCB6A991DCF7A780DD1D46C90E37BB408B77DB1F8212BF07616A307D5FF610 ====
Код:
REM GENRE EuroDisco
REM DATE 2012
REM DISCID 23123E14
REM COMMENT "ExactAudioCopy v1.0b3"
CATALOG 0887254758129
PERFORMER "Dieter Bohlen"
TITLE "Best Of"
FILE "Dieter Bohlen - Best Of.flac" WAVE
  TRACK 01 AUDIO
    TITLE "Hallo Taxi Nummer 10"
    PERFORMER "Monza"
    ISRC <cL`41200705
    INDEX 01 00:00:00
  TRACK 02 AUDIO
    TITLE "Cola Und Rock'n' Roll"
    PERFORMER "Monza"
    ISRC <cL`41200706
    INDEX 00 03:49:05
    INDEX 01 03:50:04
  TRACK 03 AUDIO
    TITLE "Hei.E Nacht In Der City"
    PERFORMER "Monza"
    ISRC <cL`41200707
    INDEX 00 07:59:13
    INDEX 01 08:00:12
  TRACK 04 AUDIO
    TITLE "Ginny"
    PERFORMER "Monza"
    ISRC <cL`41200708
    INDEX 00 11:07:68
    INDEX 01 11:09:67
  TRACK 05 AUDIO
    TITLE "Don't Throw My Love Away"
    PERFORMER "Steve Benson"
    INDEX 00 14:40:16
    INDEX 01 14:41:30
  TRACK 06 AUDIO
    TITLE "I'm In Love With You"
    PERFORMER "Steve Benson"
    INDEX 00 17:57:41
    INDEX 01 17:57:60
  TRACK 07 AUDIO
    TITLE "Love Takes Time"
    PERFORMER "Steve Benson"
    INDEX 00 21:02:63
    INDEX 01 21:03:07
  TRACK 08 AUDIO
    TITLE "Marie-Elaine"
    PERFORMER "Steve Benson"
    INDEX 00 24:44:57
    INDEX 01 24:45:04
  TRACK 09 AUDIO
    TITLE "Jung Und Frei"
    PERFORMER "Sunday"
    INDEX 00 28:09:25
    INDEX 01 28:09:57
  TRACK 10 AUDIO
    TITLE "Heut' Halt Mich Nichts Zu Haus"
    PERFORMER "Sunday"
    INDEX 00 31:53:02
    INDEX 01 31:53:66
  TRACK 11 AUDIO
    TITLE "Hale, Hey Louise"
    PERFORMER "Sunday"
    INDEX 01 35:02:18
  TRACK 12 AUDIO
    TITLE "Worte Aus Glas"
    PERFORMER "Sunday"
    INDEX 00 38:10:00
    INDEX 01 38:10:33
  TRACK 13 AUDIO
    TITLE "(You're A Devil With) Angel Blue Eyes"
    PERFORMER "Steve Benson"
    INDEX 01 41:21:35
  TRACK 14 AUDIO
    TITLE "Telephone Girl"
    PERFORMER "Steve Benson"
    INDEX 00 45:09:10
    INDEX 01 45:09:54
  TRACK 15 AUDIO
    TITLE "Lucky Guy (Radio Version)"
    PERFORMER "Ryan Simmons"
    INDEX 00 48:46:71
    INDEX 01 48:47:30
  TRACK 16 AUDIO
    TITLE "The Night Is Yours, The Night Is Mine"
    PERFORMER "Ryan Simmons"
    INDEX 00 52:16:07
    INDEX 01 52:16:51
  TRACK 17 AUDIO
    TITLE "Lucky Guy (Special-DJ-Mix)"
    PERFORMER "Ryan Simmons"
    INDEX 00 56:08:71
    INDEX 01 56:09:16
  TRACK 18 AUDIO
    TITLE "The Night Is Yours, The Night Is Mine (Long Version)"
    PERFORMER "Ryan Simmons"
    INDEX 00 64:28:14
    INDEX 01 64:28:28
  TRACK 19 AUDIO
    TITLE "Lucky Guy (Instrumental)"
    PERFORMER "Ryan Simmons"
    INDEX 00 70:44:41
    INDEX 01 70:44:71
  TRACK 20 AUDIO
    TITLE "The Night Is Yours, The Night Is Mine (Instrumental)"
    PERFORMER "Ryan Simmons"
    INDEX 00 74:18:63
    INDEX 01 74:19:46
-
Download / Скачать

Хотите скачать бесплатно? Зарегистрируйтесь на сайте (ссылка на регистрацию). Pirat.ca - самый быстрый торрент трекер в рунете!

Как скачивать  ·   Что такое торрент  ·   Рейтинг и ограничения

ZiminY

Гроза морей

3268

Пост 16-Авг-2014 15:52 (спустя 5 дней)

[Q] 

Послушаем. Раньше, в 80-е, нравилась его музыка.
Спасибо!!! Лови бочку

_________________
[Профиль]  [ЛС] 

ZiminY

Гроза морей

3268

Пост 17-Авг-2014 13:10 (спустя 21 час)

[Q] 

С тех пор много воды утекло, оказывается... 14 первых композиций никогда бы не определил авторства. Последние 6 - ремиксы на две старые темы.
Разочарован...
Раздающему респект!

_________________
[Профиль]  [ЛС] 

шарик-off ®

3672

Пост 17-Авг-2014 20:55 (спустя 7 часов)

[Q] 

На обложке указано: Дитер до Модерн Токинг. Хиты и раритеты от Монза, Сандей, Стива Бенсона, Райана Симмонса. Всё это Дитер Болен. Впервые на диске. Этого ждали фанаты.

_________________

Ты просто будь - лучом, несущим свет,
Ночным «пока…» и утренним «привет!»
[Профиль]  [ЛС] 

Dr.Аlex

Штурман

Пост 19-Янв-2015 11:24 (спустя 5 месяцев 1 день)

[Q] 

!COOL! Лови бочку

_________________
[Профиль]  [ЛС] 
Показать сообщения:    
Ответить на тему

Текущее время: Сегодня 22:37

Часовой пояс: GMT + 4



Вы не можете начинать темы
Вы не можете отвечать на сообщения
Вы не можете редактировать свои сообщения
Вы не можете удалять свои сообщения
Вы не можете голосовать в опросах
Вы не можете прикреплять файлы к сообщениям
Вы не можете скачивать файлы

▼ Вниз