Уважаемый Гость!
Вы можете поддержать проект и зарегистрироваться у наших партнеров - онлайн-стратегия MyLands. При регистрации в игре Вы получите код, который сможете активировать после регистрации на pirat.ca и получить 1000 дублонов.

Ваш код:
6e74277781110e9b49c3c0dd24e1bed54391613e
 
     

(Pop, dance) VA - NRJ Music Awards 2014 [2CD] - 2014 [FLAC, tracks+.cue, lossless]

Ответить на тему
 
Автор
Сообщение

Пост 15-Дек-2014 21:16

[Q] 

Ворон

-NRJ Music Awards 2014 [2CD]-- Год издания: 2014
Страна: France
Жанр: Pop, dance
Продолжительность: 02:29:07-Лейбл издания: Umsm
Номер по каталогу: B00OSL6W7W
Формат: FLAC
Битрейт аудио: lossless
Тип рипа: tracks+.cue
Наличие сканов в содержимом раздачи: нет-
CD 1:
01. Kendji Girac - Andalouse (2:48)
02. David Guetta ft Sam Martin - Dangerous (Remix) (3:21)
03. One Direction - Steal My Girl (3:47)
04. Maroon 5 - Animals (3:49)
05. Soprano - Cosmo (3:02)
06. Disclosure - Latch (3:29)
07. Clavin Harris - Blame (3:29)
08. Jeremih feat. YG - Don't Tell'Em (4:27)
09. The Avener - Fade Out Lines (3:15)
10. Martin Tungevaag - Wicked Wonderland (3:37)
11. Maska feat. Black M, Docteur Berize - Profiter de ma life (2:59)
12. Charli XCX - Boom Clap (2:48)
13. Stromae - Ta Fete (2:55)
14. Nico & Vinz - Am I Wrong (4:04)
15. Kyo - Le Graal (3:12)
16. Hozier - Take Me To Church (4:01)
17. David Carreira - Viser le K.O. (2:54)
18. ZAZ - Champs Elysees (2:55)
19. H-Magnum - Idem (3:10)
20. Indila - Love Story (3:32)
21. Black M feat. The Shin Sekai & Doomams - Je ne dirai rien (4:15)
22. AVICII - The Days (3:46)
23. Pharell Wiliams - Happy (3:51)
CD 2:
01. Katy Perry - this is how we do (3:23)
02. Sia - Chandelier (3:34)
03. Black M - Je garde le sourire (3:52)
04. Ariana Grande & The Weeknd - Love Me Harder (Album Version) (3:52)
05. M. Pokora - On danse (3:04)
06. Meghan Trainor - All About That Bass (3:09)
07. KEEN'V - J'me bats pour toi (3:23)
08. George Ezra - Budapest (3:22)
09. Kymai feat Edalam & Lee Mashup - La Malice (3:47)
10. Sam Smith - Stay With Me (2:53)
11. Tove Lo Feat. Hippie Sabotage - Habits (Stay High - Hippie Sabotage Remix) (4:17)
12. Fréro Delavega - Sweet darling (2:42)
13. Timmy Trumpet & Savage - Freaks (2:50)
14. Lilly Wood & the Prick - Prayer in C (Robin Schulz Remix) (3:10)
15. Nicki Minaj - Anaconda (4:22)
16. Shaniz (feat. Maitre Gims) - A contre Sens (Original Mix) (3:35)
18. Steve Aoki, Chris Lake & Tujamo - Delirious (Boneless) (3:41)
19. Magic_In_The_Air_feat_Ahmed_Chawki - Magic In The Air (3:52)
20. Emma Louise - My Head Is a Jungle (3:21)
21. ALESSO - Heroes (We Could Be) (3:31)
22. Maude-Romy - A l'attaque (2:39)
23. Coldplay - A Sky Full Of Stars (3:55)
CD1:
Код:
Exact Audio Copy V1.0 beta 3 from 29. August 2011
EAC extraction logfile from 11. December 2014, 0:22
Various Artists / NRJ Music Awards 2014
Used drive  : hp      CDDVDW SN-208DB   Adapter: 0  ID: 0
Read mode               : Secure
Utilize accurate stream : Yes
Defeat audio cache      : Yes
Make use of C2 pointers : No
Read offset correction                      : 6
Overread into Lead-In and Lead-Out          : No
Fill up missing offset samples with silence : Yes
Delete leading and trailing silent blocks   : No
Null samples used in CRC calculations       : Yes
Used interface                              : Native Win32 interface for Win NT & 2000
Gap handling                                : Appended to previous track
Used output format              : User Defined Encoder
Selected bitrate                : 1024 kBit/s
Quality                         : High
Add ID3 tag                     : No
Command line compressor         : C:\Program Files (x86)\Exact Audio Copy\Flac\flac.exe
Additional command line options : -8 -V -T "ARTIST=%artist%" -T "TITLE=%title%" -T "ALBUM=%albumtitle%" -T "DATE=%year%" -T "TRACKNUMBER=%tracknr%" -T "GENRE=%genre%" -T "PERFORMER=%albuminterpret%" -T "COMPOSER=%composer%" %haslyrics%--tag-from-file=LYRICS="%lyricsfile%"%haslyrics% -T "ALBUMARTIST=%albumartist%" -T "DISCNUMBER=%cdnumber%" -T "TOTALDISCS=%totalcds%" -T "TOTALTRACKS=%numtracks%" -T "COMMENT=%comment%" %source% -o %dest%
TOC of the extracted CD
     Track |   Start  |  Length  | Start sector | End sector
    ---------------------------------------------------------
        1  |  0:00.00 |  2:48.08 |         0    |    12607
        2  |  2:48.08 |  3:20.68 |     12608    |    27675
        3  |  6:09.01 |  3:46.67 |     27676    |    44692
        4  |  9:55.68 |  3:49.03 |     44693    |    61870
        5  | 13:44.71 |  3:01.62 |     61871    |    75507
        6  | 16:46.58 |  3:29.09 |     75508    |    91191
        7  | 20:15.67 |  3:29.10 |     91192    |   106876
        8  | 23:45.02 |  4:27.01 |    106877    |   126902
        9  | 28:12.03 |  3:14.47 |    126903    |   141499
       10  | 31:26.50 |  3:37.06 |    141500    |   157780
       11  | 35:03.56 |  2:58.42 |    157781    |   171172
       12  | 38:02.23 |  2:48.07 |    171173    |   183779
       13  | 40:50.30 |  2:55.34 |    183780    |   196938
       14  | 43:45.64 |  4:04.05 |    196939    |   215243
       15  | 47:49.69 |  3:11.64 |    215244    |   229632
       16  | 51:01.58 |  4:01.37 |    229633    |   247744
       17  | 55:03.20 |  2:54.27 |    247745    |   260821
       18  | 57:57.47 |  2:55.07 |    260822    |   273953
       19  | 60:52.54 |  3:09.68 |    273954    |   288196
       20  | 64:02.47 |  3:31.59 |    288197    |   304080
       21  | 67:34.31 |  4:15.29 |    304081    |   323234
       22  | 71:49.60 |  3:46.15 |    323235    |   340199
       23  | 75:36.00 |  3:51.18 |    340200    |   357542
Track  1
     Filename C:\Users\Julien\Music\Nrj 2014\CD1\01 - Kendji Girac - Andalouse.wav
     Pre-gap length  0:00:02.00
     Peak level 97.7 %
     Extraction speed 2.3 X
     Track quality 100.0 %
     Test CRC 5C9BA3EE
     Copy CRC 5C9BA3EE
     Track not present in AccurateRip database
     Copy OK
Track  2
     Filename C:\Users\Julien\Music\Nrj 2014\CD1\02 - David Guetta ft Sam Martin - Dangerous (Remix).wav
     Peak level 97.7 %
     Extraction speed 2.6 X
     Track quality 100.0 %
     Test CRC D13CCFCA
     Copy CRC D13CCFCA
     Track not present in AccurateRip database
     Copy OK
Track  3
     Filename C:\Users\Julien\Music\Nrj 2014\CD1\03 - One Direction - Steal My Girl.wav
     Peak level 97.7 %
     Extraction speed 2.9 X
     Track quality 100.0 %
     Test CRC 78E4F2A9
     Copy CRC 78E4F2A9
     Track not present in AccurateRip database
     Copy OK
Track  4
     Filename C:\Users\Julien\Music\Nrj 2014\CD1\04 - Maroon 5 - Animals.wav
     Peak level 97.7 %
     Extraction speed 2.3 X
     Track quality 99.9 %
     Test CRC E3BE6271
     Copy CRC E3BE6271
     Track not present in AccurateRip database
     Copy OK
Track  5
     Filename C:\Users\Julien\Music\Nrj 2014\CD1\05 - Soprano - Cosmo.wav
     Peak level 97.7 %
     Extraction speed 2.5 X
     Track quality 100.0 %
     Test CRC 32624391
     Copy CRC 32624391
     Track not present in AccurateRip database
     Copy OK
Track  6
     Filename C:\Users\Julien\Music\Nrj 2014\CD1\06 - Disclosure - Latch.wav
     Peak level 97.7 %
     Extraction speed 2.5 X
     Track quality 99.9 %
     Test CRC 20190178
     Copy CRC 20190178
     Track not present in AccurateRip database
     Copy OK
Track  7
     Filename C:\Users\Julien\Music\Nrj 2014\CD1\07 - Clavin Harris - Blame.wav
     Peak level 97.7 %
     Extraction speed 2.2 X
     Track quality 99.9 %
     Test CRC FE5C6F65
     Copy CRC FE5C6F65
     Track not present in AccurateRip database
     Copy OK
Track  8
     Filename C:\Users\Julien\Music\Nrj 2014\CD1\08 - Jeremih feat. YG - Don't Tell'Em.wav
     Peak level 97.7 %
     Extraction speed 3.5 X
     Track quality 100.0 %
     Test CRC ED37BC02
     Copy CRC ED37BC02
     Track not present in AccurateRip database
     Copy OK
Track  9
     Filename C:\Users\Julien\Music\Nrj 2014\CD1\09 - The Avener - Fade Out Lines.wav
     Peak level 97.7 %
     Extraction speed 3.5 X
     Track quality 100.0 %
     Test CRC 75EC15EC
     Copy CRC 75EC15EC
     Track not present in AccurateRip database
     Copy OK
Track 10
     Filename C:\Users\Julien\Music\Nrj 2014\CD1\10 - Martin Tungevaag - Wicked Wonderland.wav
     Peak level 97.7 %
     Extraction speed 3.7 X
     Track quality 100.0 %
     Test CRC DD6E7514
     Copy CRC DD6E7514
     Track not present in AccurateRip database
     Copy OK
Track 11
     Filename C:\Users\Julien\Music\Nrj 2014\CD1\11 - Maska feat. Black M, Docteur Berize - Profiter de ma life.wav
     Peak level 97.7 %
     Extraction speed 3.7 X
     Track quality 100.0 %
     Test CRC 5ACF6130
     Copy CRC 5ACF6130
     Track not present in AccurateRip database
     Copy OK
Track 12
     Filename C:\Users\Julien\Music\Nrj 2014\CD1\12 - Charli XCX - Boom Clap.wav
     Peak level 97.7 %
     Extraction speed 3.7 X
     Track quality 100.0 %
     Test CRC 067685E7
     Copy CRC 067685E7
     Track not present in AccurateRip database
     Copy OK
Track 13
     Filename C:\Users\Julien\Music\Nrj 2014\CD1\13 - Stromae - Ta Fete.wav
     Peak level 97.7 %
     Extraction speed 3.8 X
     Track quality 100.0 %
     Test CRC DB0C696E
     Copy CRC DB0C696E
     Track not present in AccurateRip database
     Copy OK
Track 14
     Filename C:\Users\Julien\Music\Nrj 2014\CD1\14 - Nico & Vinz - Am I Wrong.wav
     Peak level 97.7 %
     Extraction speed 3.2 X
     Track quality 100.0 %
     Test CRC 42E4163D
     Copy CRC 42E4163D
     Track not present in AccurateRip database
     Copy OK
Track 15
     Filename C:\Users\Julien\Music\Nrj 2014\CD1\15 - Kyo - Le Graal.wav
     Peak level 97.2 %
     Extraction speed 3.4 X
     Track quality 100.0 %
     Test CRC 5F902699
     Copy CRC 5F902699
     Track not present in AccurateRip database
     Copy OK
Track 16
     Filename C:\Users\Julien\Music\Nrj 2014\CD1\16 - Hozier - Take Me To Church.wav
     Peak level 97.7 %
     Extraction speed 3.6 X
     Track quality 100.0 %
     Test CRC C96437BE
     Copy CRC C96437BE
     Track not present in AccurateRip database
     Copy OK
Track 17
     Filename C:\Users\Julien\Music\Nrj 2014\CD1\17 - David Carreira - Viser le K.O..wav
     Peak level 97.7 %
     Extraction speed 3.3 X
     Track quality 100.0 %
     Test CRC 08FF0315
     Copy CRC 08FF0315
     Track not present in AccurateRip database
     Copy OK
Track 18
     Filename C:\Users\Julien\Music\Nrj 2014\CD1\18 - ZAZ - Champs Elysees.wav
     Peak level 97.7 %
     Extraction speed 3.3 X
     Track quality 100.0 %
     Test CRC 65F0683D
     Copy CRC 65F0683D
     Track not present in AccurateRip database
     Copy OK
Track 19
     Filename C:\Users\Julien\Music\Nrj 2014\CD1\19 - H-Magnum - Idem.wav
     Peak level 97.7 %
     Extraction speed 2.7 X
     Track quality 99.9 %
     Test CRC 3B9106F9
     Copy CRC 3B9106F9
     Track not present in AccurateRip database
     Copy OK
Track 20
     Filename C:\Users\Julien\Music\Nrj 2014\CD1\20 - Indila - Love Story.wav
     Peak level 97.7 %
     Extraction speed 3.6 X
     Track quality 99.9 %
     Test CRC 0D0B7E2C
     Copy CRC 0D0B7E2C
     Track not present in AccurateRip database
     Copy OK
Track 21
     Filename C:\Users\Julien\Music\Nrj 2014\CD1\21 - Black M feat. The Shin Sekai & Doomams - Je ne dirai rien.wav
     Peak level 97.7 %
     Extraction speed 4.8 X
     Track quality 100.0 %
     Test CRC BED71749
     Copy CRC BED71749
     Track not present in AccurateRip database
     Copy OK
Track 22
     Filename C:\Users\Julien\Music\Nrj 2014\CD1\22 - AVICII - The Days.wav
     Peak level 97.7 %
     Extraction speed 4.7 X
     Track quality 100.0 %
     Test CRC 8617C012
     Copy CRC 8617C012
     Track not present in AccurateRip database
     Copy OK
Track 23
     Filename C:\Users\Julien\Music\Nrj 2014\CD1\23 - Pharell Wiliams - Happy.wav
     Peak level 97.7 %
     Extraction speed 4.9 X
     Track quality 100.0 %
     Test CRC 421A7E19
     Copy CRC 421A7E19
     Track not present in AccurateRip database
     Copy OK
None of the tracks are present in the AccurateRip database
No errors occurred
End of status report
---- CUETools DB Plugin V2.1.3
[CTDB TOCID: 0uob7fyAIHA1fW8hYmkzQahGTJ4-] database access error: Le nom distant n'a pas pu être résolu: 'db.cuetools.net'
==== Log checksum 2AB8943D898627CDF628A50637447EDE711274897107778646640A02C76F979D ====
CD2:
Код:
Exact Audio Copy V1.0 beta 3 from 29. August 2011
EAC extraction logfile from 11. December 2014, 1:29
Various Artists / NRJ Music Awards 2014
Used drive  : hp      CDDVDW SN-208DB   Adapter: 0  ID: 0
Read mode               : Secure
Utilize accurate stream : Yes
Defeat audio cache      : Yes
Make use of C2 pointers : No
Read offset correction                      : 6
Overread into Lead-In and Lead-Out          : No
Fill up missing offset samples with silence : Yes
Delete leading and trailing silent blocks   : No
Null samples used in CRC calculations       : Yes
Used interface                              : Native Win32 interface for Win NT & 2000
Gap handling                                : Appended to previous track
Used output format              : User Defined Encoder
Selected bitrate                : 1024 kBit/s
Quality                         : High
Add ID3 tag                     : No
Command line compressor         : C:\Program Files (x86)\Exact Audio Copy\Flac\flac.exe
Additional command line options : -8 -V -T "ARTIST=%artist%" -T "TITLE=%title%" -T "ALBUM=%albumtitle%" -T "DATE=%year%" -T "TRACKNUMBER=%tracknr%" -T "GENRE=%genre%" -T "PERFORMER=%albuminterpret%" -T "COMPOSER=%composer%" %haslyrics%--tag-from-file=LYRICS="%lyricsfile%"%haslyrics% -T "ALBUMARTIST=%albumartist%" -T "DISCNUMBER=%cdnumber%" -T "TOTALDISCS=%totalcds%" -T "TOTALTRACKS=%numtracks%" -T "COMMENT=%comment%" %source% -o %dest%
TOC of the extracted CD
     Track |   Start  |  Length  | Start sector | End sector
    ---------------------------------------------------------
        1  |  0:00.00 |  3:23.03 |         0    |    15227
        2  |  3:23.03 |  3:34.26 |     15228    |    31303
        3  |  6:57.29 |  3:51.41 |     31304    |    48669
        4  | 10:48.70 |  3:52.30 |     48670    |    66099
        5  | 14:41.25 |  3:03.72 |     66100    |    79896
        6  | 17:45.22 |  3:08.72 |     79897    |    94068
        7  | 20:54.19 |  3:22.53 |     94069    |   109271
        8  | 24:16.72 |  3:22.22 |    109272    |   124443
        9  | 27:39.19 |  3:47.12 |    124444    |   141480
       10  | 31:26.31 |  2:52.38 |    141481    |   154418
       11  | 34:18.69 |  4:17.04 |    154419    |   173697
       12  | 38:35.73 |  2:42.00 |    173698    |   185847
       13  | 41:17.73 |  2:49.38 |    185848    |   198560
       14  | 44:07.36 |  3:10.04 |    198561    |   212814
       15  | 47:17.40 |  4:21.46 |    212815    |   232435
       16  | 51:39.11 |  3:35.30 |    232436    |   248590
       17  | 55:14.41 |  3:13.53 |    248591    |   263118
       18  | 58:28.19 |  3:41.32 |    263119    |   279725
       19  | 62:09.51 |  3:52.34 |    279726    |   297159
       20  | 66:02.10 |  3:21.27 |    297160    |   312261
       21  | 69:23.37 |  3:30.64 |    312262    |   328075
       22  | 72:54.26 |  2:38.47 |    328076    |   339972
       23  | 75:32.73 |  3:55.08 |    339973    |   357605
Track  1
     Filename C:\Users\Julien\Music\Nrj 2014\CD2\01 - Katy Perry - this is how we do.wav
     Pre-gap length  0:00:02.00
     Peak level 97.7 %
     Extraction speed 2.5 X
     Track quality 100.0 %
     Test CRC DFD49D61
     Copy CRC DFD49D61
     Track not present in AccurateRip database
     Copy OK
Track  2
     Filename C:\Users\Julien\Music\Nrj 2014\CD2\02 - Sia - Chandelier.wav
     Peak level 97.5 %
     Extraction speed 2.7 X
     Track quality 100.0 %
     Test CRC 601EBBB4
     Copy CRC 601EBBB4
     Track not present in AccurateRip database
     Copy OK
Track  3
     Filename C:\Users\Julien\Music\Nrj 2014\CD2\03 - Black M - Je garde le sourire.wav
     Peak level 97.7 %
     Extraction speed 2.9 X
     Track quality 100.0 %
     Test CRC 2B253763
     Copy CRC 2B253763
     Track not present in AccurateRip database
     Copy OK
Track  4
     Filename C:\Users\Julien\Music\Nrj 2014\CD2\04 - Ariana Grande & The Weeknd - Love Me Harder (Album Version) [1542479].wav
     Peak level 97.2 %
     Extraction speed 2.4 X
     Track quality 99.9 %
     Test CRC 93323D15
     Copy CRC 93323D15
     Track not present in AccurateRip database
     Copy OK
Track  5
     Filename C:\Users\Julien\Music\Nrj 2014\CD2\05 - M. Pokora - On danse.wav
     Peak level 95.4 %
     Extraction speed 3.0 X
     Track quality 100.0 %
     Test CRC 06E46C32
     Copy CRC 06E46C32
     Track not present in AccurateRip database
     Copy OK
Track  6
     Filename C:\Users\Julien\Music\Nrj 2014\CD2\06 - Meghan Trainor - All About That Bass.wav
     Peak level 97.7 %
     Extraction speed 3.2 X
     Track quality 100.0 %
     Test CRC A4F8367C
     Copy CRC A4F8367C
     Track not present in AccurateRip database
     Copy OK
Track  7
     Filename C:\Users\Julien\Music\Nrj 2014\CD2\07 - KEEN'V - J'me bats pour toi.wav
     Peak level 97.7 %
     Extraction speed 3.3 X
     Track quality 100.0 %
     Test CRC FFE31C14
     Copy CRC FFE31C14
     Track not present in AccurateRip database
     Copy OK
Track  8
     Filename C:\Users\Julien\Music\Nrj 2014\CD2\08 - George Ezra - Budapest.wav
     Peak level 97.7 %
     Extraction speed 3.5 X
     Track quality 100.0 %
     Test CRC C77B0E33
     Copy CRC C77B0E33
     Track not present in AccurateRip database
     Copy OK
Track  9
     Filename C:\Users\Julien\Music\Nrj 2014\CD2\09 - Kymai feat Edalam & Lee Mashup - La Malice.wav
     Peak level 97.7 %
     Extraction speed 3.3 X
     Track quality 100.0 %
     Test CRC EFC95D36
     Copy CRC EFC95D36
     Track not present in AccurateRip database
     Copy OK
Track 10
     Filename C:\Users\Julien\Music\Nrj 2014\CD2\10 - Sam Smith - Stay With Me.wav
     Peak level 97.7 %
     Extraction speed 3.0 X
     Track quality 100.0 %
     Test CRC 5FA87203
     Copy CRC 5FA87203
     Track not present in AccurateRip database
     Copy OK
Track 11
     Filename C:\Users\Julien\Music\Nrj 2014\CD2\11 - Tove Lo Feat. Hippie Sabotage - Habits (Stay High - Hippie Sabotage Remix).wav
     Peak level 97.7 %
     Extraction speed 3.9 X
     Track quality 100.0 %
     Test CRC BDADC210
     Copy CRC BDADC210
     Track not present in AccurateRip database
     Copy OK
Track 12
     Filename C:\Users\Julien\Music\Nrj 2014\CD2\12 - Fréro Delavega - Sweet darling.wav
     Peak level 97.7 %
     Extraction speed 2.7 X
     Track quality 99.9 %
     Test CRC C2390654
     Copy CRC C2390654
     Track not present in AccurateRip database
     Copy OK
Track 13
     Filename C:\Users\Julien\Music\Nrj 2014\CD2\13 - Timmy Trumpet & Savage - Freaks.wav
     Peak level 90.0 %
     Extraction speed 3.8 X
     Track quality 100.0 %
     Test CRC 3FB1CBA8
     Copy CRC 3FB1CBA8
     Track not present in AccurateRip database
     Copy OK
Track 14
     Filename C:\Users\Julien\Music\Nrj 2014\CD2\14 - Lilly Wood & the Prick - Prayer in C (Robin Schulz Remix).wav
     Peak level 97.7 %
     Extraction speed 3.8 X
     Track quality 100.0 %
     Test CRC F52CE4B1
     Copy CRC F52CE4B1
     Track not present in AccurateRip database
     Copy OK
Track 15
     Filename C:\Users\Julien\Music\Nrj 2014\CD2\15 - Nicki Minaj - Anaconda.wav
     Peak level 97.7 %
     Extraction speed 3.5 X
     Track quality 99.9 %
     Test CRC E99516A6
     Copy CRC E99516A6
     Track not present in AccurateRip database
     Copy OK
Track 16
     Filename C:\Users\Julien\Music\Nrj 2014\CD2\16 - Shaniz (feat. Maitre Gims) - A contre Sens (Original Mix).wav
     Peak level 97.7 %
     Extraction speed 4.2 X
     Track quality 100.0 %
     Test CRC A3256604
     Copy CRC A3256604
     Track not present in AccurateRip database
     Copy OK
Track 17
     Filename C:\Users\Julien\Music\Nrj 2014\CD2\17 - Kymai feat Edalam - Qui donne ça (Radio Edit).wav
     Peak level 97.7 %
     Extraction speed 3.6 X
     Track quality 100.0 %
     Test CRC 436AF96C
     Copy CRC 436AF96C
     Track not present in AccurateRip database
     Copy OK
Track 18
     Filename C:\Users\Julien\Music\Nrj 2014\CD2\18 - Steve Aoki, Chris Lake & Tujamo - Delirious (Boneless).wav
     Peak level 93.4 %
     Extraction speed 3.5 X
     Track quality 99.9 %
     Test CRC DD700C2C
     Copy CRC DD700C2C
     Track not present in AccurateRip database
     Copy OK
Track 19
     Filename C:\Users\Julien\Music\Nrj 2014\CD2\19 - Magic_In_The_Air_feat_Ahmed_Chawki - Magic In The Air.wav
     Peak level 97.5 %
     Extraction speed 4.7 X
     Track quality 100.0 %
     Test CRC 6C66BDBC
     Copy CRC 6C66BDBC
     Track not present in AccurateRip database
     Copy OK
Track 20
     Filename C:\Users\Julien\Music\Nrj 2014\CD2\20 - Emma Louise - My Head Is a Jungle.wav
     Peak level 97.7 %
     Extraction speed 4.0 X
     Track quality 100.0 %
     Test CRC A600FF53
     Copy CRC A600FF53
     Track not present in AccurateRip database
     Copy OK
Track 21
     Filename C:\Users\Julien\Music\Nrj 2014\CD2\21 - ALESSO - Heroes (We Could Be).wav
     Peak level 97.7 %
     Extraction speed 4.7 X
     Track quality 100.0 %
     Test CRC CF2498E9
     Copy CRC CF2498E9
     Track not present in AccurateRip database
     Copy OK
Track 22
     Filename C:\Users\Julien\Music\Nrj 2014\CD2\22 - Maude-Romy - A l'attaque.wav
     Peak level 96.6 %
     Extraction speed 4.6 X
     Track quality 100.0 %
     Test CRC 3EC8167A
     Copy CRC 3EC8167A
     Track not present in AccurateRip database
     Copy OK
Track 23
     Filename C:\Users\Julien\Music\Nrj 2014\CD2\23 - Coldplay - A Sky Full Of Stars.wav
     Peak level 97.7 %
     Extraction speed 3.9 X
     Track quality 100.0 %
     Test CRC 37249F75
     Copy CRC 37249F75
     Track not present in AccurateRip database
     Copy OK
None of the tracks are present in the AccurateRip database
No errors occurred
End of status report
---- CUETools DB Plugin V2.1.3
[CTDB TOCID: 00Hg7opIHKO3AkafGgSWD4EwNzM-] found, Submit result: 00Hg7opIHKO3AkafGgSWD4EwNzM- has been confirmed
[4cbeeb8c] (1/1) Accurately ripped
==== Log checksum 9304E704535B2ECB328047D28B62F0333E74165B2388F99702F48DEE05F0D029 ====
CD1:
Код:
REM GENRE Pop
REM DATE 2014
REM DISCID 5412A017
REM COMMENT "ExactAudioCopy v1.0b3"
CATALOG 0600753568774
PERFORMER "Various Artists"
TITLE "NRJ Music Awards 2014 CD2"
FILE "01 - Katy Perry - this is how we do.flac" WAVE
  TRACK 01 AUDIO
    TITLE "this is how we do"
    PERFORMER "Katy Perry"
    ISRC USUM71311297
    FLAGS DCP
    INDEX 01 00:00:00
FILE "02 - Sia - Chandelier.flac" WAVE
  TRACK 02 AUDIO
    TITLE "Chandelier"
    PERFORMER "Sia"
    ISRC USRC11400498
    FLAGS DCP
    INDEX 01 00:00:00
FILE "03 - Black M - Je garde le sourire.flac" WAVE
  TRACK 03 AUDIO
    TITLE "Je garde le sourire"
    PERFORMER "Black M"
    ISRC FR7U61400530
    FLAGS DCP
    INDEX 01 00:00:00
FILE "04 - Ariana Grande & The Weeknd - Love Me Harder (Album Version).flac" WAVE
  TRACK 04 AUDIO
    TITLE "Love Me Harder (Album Version) [1542479]"
    PERFORMER "Ariana Grande & The Weeknd"
    ISRC USUM71409728
    FLAGS DCP
    INDEX 01 00:00:00
FILE "05 - M. Pokora - On danse.flac" WAVE
  TRACK 05 AUDIO
    TITLE "On danse"
    PERFORMER "M. Pokora"
    ISRC FRZ111400902
    FLAGS DCP
    INDEX 01 00:00:00
FILE "06 - Meghan Trainor - All About That Bass.flac" WAVE
  TRACK 06 AUDIO
    TITLE "All About That Bass"
    PERFORMER "Meghan Trainor"
    ISRC USSM11401317
    FLAGS DCP
    INDEX 01 00:00:00
FILE "07 - KEEN'V - J'me bats pour toi.flac" WAVE
  TRACK 07 AUDIO
    TITLE "J'me bats pour toi"
    PERFORMER "KEEN'V"
    ISRC FR5Q71400012
    FLAGS DCP
    INDEX 01 00:00:00
FILE "08 - George Ezra - Budapest.flac" WAVE
  TRACK 08 AUDIO
    TITLE "Budapest"
    PERFORMER "George Ezra"
    ISRC GBARL1400477
    FLAGS DCP
    INDEX 01 00:00:00
FILE "09 - Kymai feat Edalam & Lee Mashup - La Malice.flac" WAVE
  TRACK 09 AUDIO
    TITLE "La Malice"
    PERFORMER "Kymai feat Edalam & Lee Mashup"
    ISRC FRZ041400428
    FLAGS DCP
    INDEX 01 00:00:00
FILE "10 - Sam Smith - Stay With Me.flac" WAVE
  TRACK 10 AUDIO
    TITLE "Stay With Me"
    PERFORMER "Sam Smith"
    ISRC GBUM71308833
    FLAGS DCP
    INDEX 01 00:00:00
FILE "11 - Tove Lo Feat. Hippie Sabotage - Habits (Stay High - Hippie Sabotage Remix).flac" WAVE
  TRACK 11 AUDIO
    TITLE "Habits (Stay High - Hippie Sabotage Remix)"
    PERFORMER "Tove Lo Feat. Hippie Sabotage"
    ISRC SEUM71400257
    FLAGS DCP
    INDEX 01 00:00:00
FILE "12 - Frero Delavega - Sweet darling.flac" WAVE
  TRACK 12 AUDIO
    TITLE "Sweet darling"
    PERFORMER "Frйro Delavega"
    ISRC FRUM71400696
    FLAGS DCP
    INDEX 01 00:00:00
FILE "13 - Timmy Trumpet & Savage - Freaks.flac" WAVE
  TRACK 13 AUDIO
    TITLE "Freaks"
    PERFORMER "Timmy Trumpet & Savage"
    ISRC AUNV01400450
    FLAGS DCP
    INDEX 01 00:00:00
FILE "14 - Lilly Wood & the Prick - Prayer in C (Robin Schulz Remix).flac" WAVE
  TRACK 14 AUDIO
    TITLE "Prayer in C (Robin Schulz Remix)"
    PERFORMER "Lilly Wood & the Prick"
    ISRC DEA621400286
    FLAGS DCP
    INDEX 01 00:00:00
FILE "15 - Nicki Minaj - Anaconda.flac" WAVE
  TRACK 15 AUDIO
    TITLE "Anaconda"
    PERFORMER "Nicki Minaj"
    ISRC USCM51400260
    FLAGS DCP
    INDEX 01 00:00:00
FILE "16 - Shaniz (feat. Maitre Gims) - A contre Sens (Original Mix).flac" WAVE
  TRACK 16 AUDIO
    TITLE "A contre Sens (Original Mix)"
    PERFORMER "Shaniz (feat. Maitre Gims)"
    ISRC FR2PY1404600
    FLAGS DCP
    INDEX 01 00:00:00
FILE "17 - Kymai feat Edalam - Qui donne зa (Radio Edit).flac" WAVE
  TRACK 17 AUDIO
    TITLE "Qui donne зa (Radio Edit)"
    PERFORMER "Kymai feat Edalam"
    ISRC FR4HD1400201
    FLAGS DCP
    INDEX 01 00:00:00
FILE "18 - Steve Aoki, Chris Lake & Tujamo - Delirious (Boneless).flac" WAVE
  TRACK 18 AUDIO
    TITLE "Delirious (Boneless)"
    PERFORMER "Steve Aoki, Chris Lake & Tujamo"
    ISRC USUS11202723
    FLAGS DCP
    INDEX 01 00:00:00
FILE "19 - Magic_In_The_Air_feat_Ahmed_Chawki - Magic In The Air.flac" WAVE
  TRACK 19 AUDIO
    TITLE "Magic In The Air"
    PERFORMER "Magic_In_The_Air_feat_Ahmed_Chawki"
    ISRC FRZ111400243
    FLAGS DCP
    INDEX 01 00:00:00
FILE "20 - Emma Louise - My Head Is a Jungle.flac" WAVE
  TRACK 20 AUDIO
    TITLE "My Head Is a Jungle"
    PERFORMER "Emma Louise"
    ISRC AUM221100014
    FLAGS DCP
    INDEX 01 00:00:00
FILE "21 - ALESSO - Heroes (We Could Be).flac" WAVE
  TRACK 21 AUDIO
    TITLE "Heroes (We Could Be)"
    PERFORMER "ALESSO"
    ISRC USUM71411636
    FLAGS DCP
    INDEX 01 00:00:00
FILE "22 - Maude-Romy - A l'attaque.flac" WAVE
  TRACK 22 AUDIO
    TITLE "A l'attaque"
    PERFORMER "Maude-Romy"
    ISRC FR2PY1405100
    FLAGS DCP
    INDEX 01 00:00:00
FILE "23 - Coldplay - A Sky Full Of Stars.flac" WAVE
  TRACK 23 AUDIO
    TITLE "A Sky Full Of Stars"
    PERFORMER "Coldplay"
    ISRC FR2PY1405100
    FLAGS DCP
    INDEX 01 00:00:00
CD2:
Код:
REM GENRE Pop
REM DATE 2014
REM DISCID 5412A017
REM COMMENT "ExactAudioCopy v1.0b3"
CATALOG 0600753568774
PERFORMER "Various Artists"
TITLE "NRJ Music Awards 2014 CD2"
FILE "01 - Katy Perry - this is how we do.flac" WAVE
  TRACK 01 AUDIO
    TITLE "this is how we do"
    PERFORMER "Katy Perry"
    ISRC USUM71311297
    FLAGS DCP
    INDEX 01 00:00:00
FILE "02 - Sia - Chandelier.flac" WAVE
  TRACK 02 AUDIO
    TITLE "Chandelier"
    PERFORMER "Sia"
    ISRC USRC11400498
    FLAGS DCP
    INDEX 01 00:00:00
FILE "03 - Black M - Je garde le sourire.flac" WAVE
  TRACK 03 AUDIO
    TITLE "Je garde le sourire"
    PERFORMER "Black M"
    ISRC FR7U61400530
    FLAGS DCP
    INDEX 01 00:00:00
FILE "04 - Ariana Grande & The Weeknd - Love Me Harder (Album Version).flac" WAVE
  TRACK 04 AUDIO
    TITLE "Love Me Harder (Album Version) [1542479]"
    PERFORMER "Ariana Grande & The Weeknd"
    ISRC USUM71409728
    FLAGS DCP
    INDEX 01 00:00:00
FILE "05 - M. Pokora - On danse.flac" WAVE
  TRACK 05 AUDIO
    TITLE "On danse"
    PERFORMER "M. Pokora"
    ISRC FRZ111400902
    FLAGS DCP
    INDEX 01 00:00:00
FILE "06 - Meghan Trainor - All About That Bass.flac" WAVE
  TRACK 06 AUDIO
    TITLE "All About That Bass"
    PERFORMER "Meghan Trainor"
    ISRC USSM11401317
    FLAGS DCP
    INDEX 01 00:00:00
FILE "07 - KEEN'V - J'me bats pour toi.flac" WAVE
  TRACK 07 AUDIO
    TITLE "J'me bats pour toi"
    PERFORMER "KEEN'V"
    ISRC FR5Q71400012
    FLAGS DCP
    INDEX 01 00:00:00
FILE "08 - George Ezra - Budapest.flac" WAVE
  TRACK 08 AUDIO
    TITLE "Budapest"
    PERFORMER "George Ezra"
    ISRC GBARL1400477
    FLAGS DCP
    INDEX 01 00:00:00
FILE "09 - Kymai feat Edalam & Lee Mashup - La Malice.flac" WAVE
  TRACK 09 AUDIO
    TITLE "La Malice"
    PERFORMER "Kymai feat Edalam & Lee Mashup"
    ISRC FRZ041400428
    FLAGS DCP
    INDEX 01 00:00:00
FILE "10 - Sam Smith - Stay With Me.flac" WAVE
  TRACK 10 AUDIO
    TITLE "Stay With Me"
    PERFORMER "Sam Smith"
    ISRC GBUM71308833
    FLAGS DCP
    INDEX 01 00:00:00
FILE "11 - Tove Lo Feat. Hippie Sabotage - Habits (Stay High - Hippie Sabotage Remix).flac" WAVE
  TRACK 11 AUDIO
    TITLE "Habits (Stay High - Hippie Sabotage Remix)"
    PERFORMER "Tove Lo Feat. Hippie Sabotage"
    ISRC SEUM71400257
    FLAGS DCP
    INDEX 01 00:00:00
FILE "12 - Frero Delavega - Sweet darling.flac" WAVE
  TRACK 12 AUDIO
    TITLE "Sweet darling"
    PERFORMER "Frйro Delavega"
    ISRC FRUM71400696
    FLAGS DCP
    INDEX 01 00:00:00
FILE "13 - Timmy Trumpet & Savage - Freaks.flac" WAVE
  TRACK 13 AUDIO
    TITLE "Freaks"
    PERFORMER "Timmy Trumpet & Savage"
    ISRC AUNV01400450
    FLAGS DCP
    INDEX 01 00:00:00
FILE "14 - Lilly Wood & the Prick - Prayer in C (Robin Schulz Remix).flac" WAVE
  TRACK 14 AUDIO
    TITLE "Prayer in C (Robin Schulz Remix)"
    PERFORMER "Lilly Wood & the Prick"
    ISRC DEA621400286
    FLAGS DCP
    INDEX 01 00:00:00
FILE "15 - Nicki Minaj - Anaconda.flac" WAVE
  TRACK 15 AUDIO
    TITLE "Anaconda"
    PERFORMER "Nicki Minaj"
    ISRC USCM51400260
    FLAGS DCP
    INDEX 01 00:00:00
FILE "16 - Shaniz (feat. Maitre Gims) - A contre Sens (Original Mix).flac" WAVE
  TRACK 16 AUDIO
    TITLE "A contre Sens (Original Mix)"
    PERFORMER "Shaniz (feat. Maitre Gims)"
    ISRC FR2PY1404600
    FLAGS DCP
    INDEX 01 00:00:00
FILE "17 - Kymai feat Edalam - Qui donne зa (Radio Edit).flac" WAVE
  TRACK 17 AUDIO
    TITLE "Qui donne зa (Radio Edit)"
    PERFORMER "Kymai feat Edalam"
    ISRC FR4HD1400201
    FLAGS DCP
    INDEX 01 00:00:00
FILE "18 - Steve Aoki, Chris Lake & Tujamo - Delirious (Boneless).flac" WAVE
  TRACK 18 AUDIO
    TITLE "Delirious (Boneless)"
    PERFORMER "Steve Aoki, Chris Lake & Tujamo"
    ISRC USUS11202723
    FLAGS DCP
    INDEX 01 00:00:00
FILE "19 - Magic_In_The_Air_feat_Ahmed_Chawki - Magic In The Air.flac" WAVE
  TRACK 19 AUDIO
    TITLE "Magic In The Air"
    PERFORMER "Magic_In_The_Air_feat_Ahmed_Chawki"
    ISRC FRZ111400243
    FLAGS DCP
    INDEX 01 00:00:00
FILE "20 - Emma Louise - My Head Is a Jungle.flac" WAVE
  TRACK 20 AUDIO
    TITLE "My Head Is a Jungle"
    PERFORMER "Emma Louise"
    ISRC AUM221100014
    FLAGS DCP
    INDEX 01 00:00:00
FILE "21 - ALESSO - Heroes (We Could Be).flac" WAVE
  TRACK 21 AUDIO
    TITLE "Heroes (We Could Be)"
    PERFORMER "ALESSO"
    ISRC USUM71411636
    FLAGS DCP
    INDEX 01 00:00:00
FILE "22 - Maude-Romy - A l'attaque.flac" WAVE
  TRACK 22 AUDIO
    TITLE "A l'attaque"
    PERFORMER "Maude-Romy"
    ISRC FR2PY1405100
    FLAGS DCP
    INDEX 01 00:00:00
FILE "23 - Coldplay - A Sky Full Of Stars.flac" WAVE
  TRACK 23 AUDIO
    TITLE "A Sky Full Of Stars"
    PERFORMER "Coldplay"
    ISRC FR2PY1405100
    FLAGS DCP
    INDEX 01 00:00:00
-    
Download / Скачать

Хотите скачать бесплатно? Зарегистрируйтесь на сайте (ссылка на регистрацию). Pirat.ca - самый быстрый торрент трекер в рунете!

Как скачивать  ·   Что такое торрент  ·   Рейтинг и ограничения

Dr.Аlex

Штурман

Пост 19-Янв-2015 11:15 (спустя 1 месяц 3 дня)

[Q] 

Спасибо Саша! Если побольше lossless, то я покачаю и по раздаю Одобрямс! Лови бочку

_________________
[Профиль]  [ЛС] 
Показать сообщения:    
Ответить на тему

Текущее время: Сегодня 13:41

Часовой пояс: GMT + 4



Вы не можете начинать темы
Вы не можете отвечать на сообщения
Вы не можете редактировать свои сообщения
Вы не можете удалять свои сообщения
Вы не можете голосовать в опросах
Вы не можете прикреплять файлы к сообщениям
Вы не можете скачивать файлы

▼ Вниз