Уважаемый Гость!
Вы можете поддержать проект и зарегистрироваться у наших партнеров - онлайн-стратегия MyLands. При регистрации в игре Вы получите код, который сможете активировать после регистрации на pirat.ca и получить 1000 дублонов.

Ваш код:
42dfaac977a7ef29e5167536f5b22936dba18477
 
     

(Disco, Euro Disco) Boney M. - Diamonds (40th Anniversary Edition) - 2015 [FLAC, image+.cue+covers, lossless] (3CD Box)

Ответить на тему
 
Автор
Сообщение

Пост 04-Апр-2015 14:47

[Q] 

TRECA

Флибустьер

-Boney M. / Diamonds (40th Anniversary Edition) (3CD Box)-- Год издания: 2015
Страна: Германия
Жанр: Disco, Euro Disco
Продолжительность: 03:42:44-Лейбл издания: Sony Music
Тип альбома: студийная запись
Страна-выпуска диска: Германия
Номер по каталогу: 88875076512
Источник (релизер): ALLexxess-Формат: FLAC
Битрейт аудио: lossless
Тип рипа: image+.cue+covers
Наличие сканов в содержимом раздачи: да-
Треклист:
01. Baby Do You Wanna Bump, Part 1 (7’’ Version)
02. Daddy Cool (7’’ Version / Album Version)
03. No Woman No Cry (Album Version)
04. Sunny (7’’ Version / Album Version)
05. Ma Baker (7’’ Version / 1st Pressing / Unreleased Version)
06. Belfast (7’’ Version / Album Version)
07. Rivers Of Babylon (7’’ Version / Italy / Unreleased Version)
08. Brown Girl In The Ring (with Extra Verse) (7’’ Version / 1st Pressing / Unreleased Version)
09. Rasputin (7’’ Version)
10. Painter Man (7’’ Version / Album Version)
11. Mary’s Boy Child / Oh My Lord (Album Version)
12. Dancing In The Streets (7’’ Album Version)
13. Hooray! Hooray! It’s A Holi-Holiday (7’’ Version)
14. Gotta Go Home (7’’ Version)
15. El Lute (7’’ Version)
16. Bahama Mama (7’’ Version)
17. I’m Born Again (7’’ Version)
18. I See A Boat On The River (7’’ Version)
19. My Friend Jack (7’’ Version)
Продолжительноcть: 01:21:15
Exact Audio Copy V1.0 beta 4 from 7. December 2014
EAC extraction logfile from 1. April 2015, 21:50
Boney M / Diamonds CD1
Used drive : PLEXTOR BD-R PX-B950SA Adapter: 1 ID: 1
Read mode : Secure
Utilize accurate stream : Yes
Defeat audio cache : Yes
Make use of C2 pointers : No
Read offset correction : 6
Overread into Lead-In and Lead-Out : No
Fill up missing offset samples with silence : Yes
Delete leading and trailing silent blocks : No
Null samples used in CRC calculations : Yes
Used interface : Native Win32 interface for Win NT & 2000
Used output format : Internal WAV Routines
Sample format : 44.100 Hz; 16 Bit; Stereo
TOC of the extracted CD
Track | Start | Length | Start sector | End sector
---------------------------------------------------------
1 | 0:00.00 | 3:41.38 | 0 | 16612
2 | 3:41.38 | 3:28.50 | 16613 | 32262
3 | 7:10.13 | 4:59.05 | 32263 | 54692
4 | 12:09.18 | 4:02.05 | 54693 | 72847
5 | 16:11.23 | 4:52.43 | 72848 | 94790
6 | 21:03.66 | 3:30.28 | 94791 | 110568
7 | 24:34.19 | 4:07.38 | 110569 | 129131
8 | 28:41.57 | 4:22.74 | 129132 | 148855
9 | 33:04.56 | 4:44.56 | 148856 | 170211
10 | 37:49.37 | 3:11.66 | 170212 | 184602
11 | 41:01.28 | 5:43.48 | 184603 | 210375
12 | 46:45.01 | 3:59.02 | 210376 | 228302
13 | 50:44.03 | 3:57.33 | 228303 | 246110
14 | 54:41.36 | 4:01.33 | 246111 | 264218
15 | 58:42.69 | 5:10.31 | 264219 | 287499
16 | 63:53.25 | 3:36.48 | 287500 | 303747
17 | 67:29.73 | 4:22.38 | 303748 | 323435
18 | 71:52.36 | 4:41.49 | 323436 | 344559
19 | 76:34.10 | 4:41.44 | 344560 | 365678
Range status and errors
Selected range
Filename C:\Users\Meijin\Desktop\Lossless Galaxy ALLexxess\Boney M\2015 Diamonds (3CD + DVD + LP Super Deluxe Box Set Sony Music)\CD1\Boney M - Diamonds CD1.wav
Peak level 99.9 %
Extraction speed 8.5 X
Range quality 99.9 %
Test CRC 4DE6E4D5
Copy CRC 4DE6E4D5
Copy OK
No errors occurred
AccurateRip summary
Track 1 not present in database
Track 2 not present in database
Track 3 not present in database
Track 4 not present in database
Track 5 not present in database
Track 6 not present in database
Track 7 not present in database
Track 8 not present in database
Track 9 not present in database
Track 10 not present in database
Track 11 not present in database
Track 12 not present in database
Track 13 not present in database
Track 14 not present in database
Track 15 not present in database
Track 16 not present in database
Track 17 not present in database
Track 18 not present in database
Track 19 not present in database
None of the tracks are present in the AccurateRip database
End of status report
---- CUETools DB Plugin V2.1.4
[CTDB TOCID: 6TqnxwpqQKaY7dz9t5vemxf2q2g-] found
Submit result: 6TqnxwpqQKaY7dz9t5vemxf2q2g- has been confirmed
Track | CTDB Status
1 | (6/6) Accurately ripped
2 | (6/6) Accurately ripped
3 | (6/6) Accurately ripped
4 | (6/6) Accurately ripped
5 | (6/6) Accurately ripped
6 | (6/6) Accurately ripped
7 | (6/6) Accurately ripped
8 | (6/6) Accurately ripped
9 | (6/6) Accurately ripped
10 | (6/6) Accurately ripped
11 | (6/6) Accurately ripped
12 | (6/6) Accurately ripped
13 | (6/6) Accurately ripped
14 | (6/6) Accurately ripped
15 | (6/6) Accurately ripped
16 | (6/6) Accurately ripped
17 | (6/6) Accurately ripped
18 | (6/6) Accurately ripped
19 | (6/6) Accurately ripped
==== Log checksum 35A6E43BDA0148A9AF58D2697740ABF2531228987DE5C4BFBAD7143C465FA8ED ====
-----------------------
DON'T MODIFY THIS FILE
-----------------------
PERFORMER: auCDtect Task Manager, ver. 1.6.0 RC1 build 1.6.0.1
Copyright (c) 2008-2010 y-soft. All rights reserved
http://y-soft.org
ANALYZER: auCDtect: CD records authenticity detector, version 0.8.2
Copyright (c) 2004 Oleg Berngardt. All rights reserved.
Copyright (c) 2004 Alexander Djourik. All rights reserved.
FILE: Boney M - Diamonds CD1.flac
Size: 587888491 Hash: 39B296A5925CB7FEFABA83C4C3A6C170 Accuracy: -m8
Conclusion: CDDA 100%
Signature: 060847C55B49D5B01414BD2E77CBD26383EF831A
REM GENRE "Pop / Disco"
REM DATE 2015
REM DISCID 0E130B13
REM COMMENT "ExactAudioCopy v1.0b4"
PERFORMER "Boney M"
TITLE "Diamonds CD1"
FILE "Boney M - Diamonds CD1.flac" WAVE
TRACK 01 AUDIO
TITLE "Baby Do You Wanna Bump, Part 1 (7’’ Version)"
PERFORMER "Boney M"
INDEX 01 00:00:00
TRACK 02 AUDIO
TITLE "Daddy Cool (7’’ Version / Album Version)"
PERFORMER "Boney M"
INDEX 00 03:41:20
INDEX 01 03:41:38
TRACK 03 AUDIO
TITLE "No Woman No Cry (Album Version)"
PERFORMER "Boney M"
INDEX 00 07:08:70
INDEX 01 07:10:13
TRACK 04 AUDIO
TITLE "Sunny (7’’ Version / Album Version)"
PERFORMER "Boney M"
INDEX 01 12:09:18
TRACK 05 AUDIO
TITLE "Ma Baker (7’’ Version / 1st Pressing / Unreleased Version)"
PERFORMER "Boney M"
INDEX 00 16:11:10
INDEX 01 16:11:23
TRACK 06 AUDIO
TITLE "Belfast (7’’ Version / Album Version)"
PERFORMER "Boney M"
INDEX 00 21:01:26
INDEX 01 21:03:66
TRACK 07 AUDIO
TITLE "Rivers Of Babylon (7’’ Version / Italy / Unreleased Version)"
PERFORMER "Boney M"
INDEX 00 24:33:64
INDEX 01 24:34:19
TRACK 08 AUDIO
TITLE "Brown Girl In The Ring (with Extra Verse) (7’’ Version / 1st Pressing / Unre..."
PERFORMER "Boney M"
INDEX 00 28:41:36
INDEX 01 28:41:57
TRACK 09 AUDIO
TITLE "Rasputin (7’’ Version)"
PERFORMER "Boney M"
INDEX 00 33:02:26
INDEX 01 33:04:56
TRACK 10 AUDIO
TITLE "Painter Man (7’’ Version / Album Version)"
PERFORMER "Boney M"
INDEX 00 37:48:14
INDEX 01 37:49:37
TRACK 11 AUDIO
TITLE "Mary’s Boy Child / Oh My Lord (Album Version)"
PERFORMER "Boney M"
INDEX 00 40:59:67
INDEX 01 41:01:28
TRACK 12 AUDIO
TITLE "Dancing In The Streets (7’’ Album Version)"
PERFORMER "Boney M"
INDEX 00 46:44:21
INDEX 01 46:45:01
TRACK 13 AUDIO
TITLE "Hooray! Hooray! It’s A Holi-Holiday (7’’ Version)"
PERFORMER "Boney M"
INDEX 00 50:43:55
INDEX 01 50:44:03
TRACK 14 AUDIO
TITLE "Gotta Go Home (7’’ Version)"
PERFORMER "Boney M"
INDEX 00 54:39:43
INDEX 01 54:41:36
TRACK 15 AUDIO
TITLE "El Lute (7’’ Version)"
PERFORMER "Boney M"
INDEX 00 58:41:06
INDEX 01 58:42:69
TRACK 16 AUDIO
TITLE "Bahama Mama (7’’ Version)"
PERFORMER "Boney M"
INDEX 01 63:53:25
TRACK 17 AUDIO
TITLE "I'm Born Again (7’’ Version)"
PERFORMER "Boney M"
INDEX 00 67:29:13
INDEX 01 67:29:73
TRACK 18 AUDIO
TITLE "I See A Boat On The River (7’’ Version)"
PERFORMER "Boney M"
INDEX 00 71:51:29
INDEX 01 71:52:36
TRACK 19 AUDIO
TITLE "My Friend Jack (7’’ Version)"
PERFORMER "Boney M"
INDEX 00 76:32:43
INDEX 01 76:34:10
Треклист:
01. Children Of Paradise (7’’ Version)
02. Gadda Da Vida (7’’ Version)
03. Felicidad (Margherita) (7’’ Version)
04. Malaika (Early Version / Unreleased Version)
05. Consuela Biaz (Early Version / Unreleased Version)
06. We Kill The World (Don’t Kill The World) (UK 7’’ Version)
07. The Carnival Is Over (Goodbye True Lover) (Early Single Mix / Unreleased Version)
08. Going Back West (7’’ Version)
09. Jambo - Hakuna Matata (No Problems) (7’’ Version)
10. Somewhere In The World (7’’ Version)
11. Exodus (Noah’s Ark 2001) (7’’ Version)
12. Kalimba De Luna (7’’ Version)
13. Happy Song (7’’ Version)
14. My Cherie Amour (7’’ Version / Album Version)
15. Young, Free & Single (7’’ Version / Album Version)
16. Bang Bang Lulu (7’’ Version)
17. Stories (7’’ Version)
18. Papa Chico (Rap Version)
19. Barbra Streisand (The Most Wanted Woman) (7’’ Version)
Продолжительноcть: 01:22:14
Exact Audio Copy V1.0 beta 4 from 7. December 2014
EAC extraction logfile from 1. April 2015, 21:16
Boney M / Diamonds CD2
Used drive : PLEXTOR BD-R PX-B950SA Adapter: 1 ID: 1
Read mode : Secure
Utilize accurate stream : Yes
Defeat audio cache : Yes
Make use of C2 pointers : No
Read offset correction : 6
Overread into Lead-In and Lead-Out : No
Fill up missing offset samples with silence : Yes
Delete leading and trailing silent blocks : No
Null samples used in CRC calculations : Yes
Used interface : Native Win32 interface for Win NT & 2000
Used output format : Internal WAV Routines
Sample format : 44.100 Hz; 16 Bit; Stereo
TOC of the extracted CD
Track | Start | Length | Start sector | End sector
---------------------------------------------------------
1 | 0:00.00 | 4:29.59 | 0 | 20233
2 | 4:29.59 | 5:05.48 | 20234 | 43156
3 | 9:35.32 | 4:33.24 | 43157 | 63655
4 | 14:08.56 | 3:27.17 | 63656 | 79197
5 | 17:35.73 | 5:07.22 | 79198 | 102244
6 | 22:43.20 | 4:31.11 | 102245 | 122580
7 | 27:14.31 | 4:48.64 | 122581 | 144244
8 | 32:03.20 | 4:16.02 | 144245 | 163446
9 | 36:19.22 | 3:40.04 | 163447 | 179950
10 | 39:59.26 | 4:26.25 | 179951 | 199925
11 | 44:25.51 | 4:38.56 | 199926 | 220831
12 | 49:04.32 | 4:33.19 | 220832 | 241325
13 | 53:37.51 | 4:20.61 | 241326 | 260886
14 | 57:58.37 | 4:05.13 | 260887 | 279274
15 | 62:03.50 | 4:19.66 | 279275 | 298765
16 | 66:23.41 | 3:32.56 | 298766 | 314721
17 | 69:56.22 | 4:20.24 | 314722 | 334245
18 | 74:16.46 | 4:43.56 | 334246 | 355526
19 | 79:00.27 | 3:13.45 | 355527 | 370046
Range status and errors
Selected range
Filename C:\Users\Meijin\Desktop\Lossless Galaxy ALLexxess\Boney M\2015 Diamonds (3CD + DVD + LP Super Deluxe Box Set Sony Music)\CD2\Boney M - Diamonds CD2.wav
Peak level 99.5 %
Extraction speed 8.6 X
Range quality 100.0 %
Test CRC 5F2356CD
Copy CRC 5F2356CD
Copy OK
No errors occurred
AccurateRip summary
Track 1 not present in database
Track 2 not present in database
Track 3 not present in database
Track 4 not present in database
Track 5 not present in database
Track 6 not present in database
Track 7 not present in database
Track 8 not present in database
Track 9 not present in database
Track 10 not present in database
Track 11 not present in database
Track 12 not present in database
Track 13 not present in database
Track 14 not present in database
Track 15 not present in database
Track 16 not present in database
Track 17 not present in database
Track 18 not present in database
Track 19 not present in database
None of the tracks are present in the AccurateRip database
End of status report
---- CUETools DB Plugin V2.1.4
[CTDB TOCID: 4qKSTpOCgl8EdJQF44k46n8LCK4-] found
Submit result: 4qKSTpOCgl8EdJQF44k46n8LCK4- has been confirmed
Track | CTDB Status
1 | (6/6) Accurately ripped
2 | (6/6) Accurately ripped
3 | (6/6) Accurately ripped
4 | (6/6) Accurately ripped
5 | (6/6) Accurately ripped
6 | (6/6) Accurately ripped
7 | (6/6) Accurately ripped
8 | (6/6) Accurately ripped
9 | (6/6) Accurately ripped
10 | (6/6) Accurately ripped
11 | (6/6) Accurately ripped
12 | (6/6) Accurately ripped
13 | (6/6) Accurately ripped
14 | (6/6) Accurately ripped
15 | (6/6) Accurately ripped
16 | (6/6) Accurately ripped
17 | (6/6) Accurately ripped
18 | (6/6) Accurately ripped
19 | (6/6) Accurately ripped
==== Log checksum 44E1800AF292935D5B539EEA08162ABD23E139505E6301CC5D86523F1801BA78 ====
-----------------------
DON'T MODIFY THIS FILE
-----------------------
PERFORMER: auCDtect Task Manager, ver. 1.6.0 RC1 build 1.6.0.1
Copyright (c) 2008-2010 y-soft. All rights reserved
http://y-soft.org
ANALYZER: auCDtect: CD records authenticity detector, version 0.8.2
Copyright (c) 2004 Oleg Berngardt. All rights reserved.
Copyright (c) 2004 Alexander Djourik. All rights reserved.
FILE: Boney M - Diamonds CD2.flac
Size: 588449076 Hash: B0DAECA9997AEF540F2104AF68805794 Accuracy: -m8
Conclusion: CDDA 100%
Signature: DF5A1285FEDF51DBF15822E4ECCF5E4F93A773D0
REM GENRE "Pop / Disco"
REM DATE 2015
REM DISCID 2B134513
REM COMMENT "ExactAudioCopy v1.0b4"
PERFORMER "Boney M"
TITLE "Diamonds CD2"
FILE "Boney M - Diamonds CD2.flac" WAVE
TRACK 01 AUDIO
TITLE "Children Of Paradise (7’’ Version)"
PERFORMER "Boney M"
INDEX 01 00:00:00
TRACK 02 AUDIO
TITLE "Gadda Da Vida (7’’ Version)"
PERFORMER "Boney M"
INDEX 00 04:29:18
INDEX 01 04:29:59
TRACK 03 AUDIO
TITLE "Felicidad (Margherita) (7’’ Version)"
PERFORMER "Boney M"
INDEX 00 09:34:06
INDEX 01 09:35:32
TRACK 04 AUDIO
TITLE "Malaika (Early Version / Unreleased Version)"
PERFORMER "Boney M"
INDEX 00 14:08:48
INDEX 01 14:08:56
TRACK 05 AUDIO
TITLE "Consuela Biaz (Early Version / Unreleased Version)"
PERFORMER "Boney M"
INDEX 00 17:34:73
INDEX 01 17:35:73
TRACK 06 AUDIO
TITLE "We Kill The World (Don’t Kill The World) (UK 7’’ Version)"
PERFORMER "Boney M"
INDEX 00 22:41:11
INDEX 01 22:43:20
TRACK 07 AUDIO
TITLE "The Carnival Is Over (Goodbye True Lover) (Early Single Mix / Unreleased Vers..."
PERFORMER "Boney M"
INDEX 00 27:13:23
INDEX 01 27:14:31
TRACK 08 AUDIO
TITLE "Going Back West (7’’ Version)"
PERFORMER "Boney M"
INDEX 00 32:02:55
INDEX 01 32:03:20
TRACK 09 AUDIO
TITLE "Jambo - Hakuna Matata (No Problems) (7’’ Version)"
PERFORMER "Boney M"
INDEX 00 36:18:29
INDEX 01 36:19:22
TRACK 10 AUDIO
TITLE "Somewhere In The World (7’’ Version)"
PERFORMER "Boney M"
INDEX 00 39:58:71
INDEX 01 39:59:26
TRACK 11 AUDIO
TITLE "Exodus (Noah’s Ark 2001) (7’’ Version)"
PERFORMER "Boney M"
INDEX 00 44:25:20
INDEX 01 44:25:51
TRACK 12 AUDIO
TITLE "Kalimba De Luna (7’’ Version)"
PERFORMER "Boney M"
INDEX 00 49:03:54
INDEX 01 49:04:32
TRACK 13 AUDIO
TITLE "Happy Song (7’’ Version)"
PERFORMER "Boney M"
INDEX 00 53:36:74
INDEX 01 53:37:51
TRACK 14 AUDIO
TITLE "My Cherie Amour (7’’ Version / Album Version)"
PERFORMER "Boney M"
INDEX 00 57:57:17
INDEX 01 57:58:37
TRACK 15 AUDIO
TITLE "Young, Free & Single (7’’ Version / Album Version)"
PERFORMER "Boney M"
INDEX 00 62:03:22
INDEX 01 62:03:50
TRACK 16 AUDIO
TITLE "Bang Bang Lulu (7’’ Version)"
PERFORMER "Boney M"
INDEX 00 66:22:39
INDEX 01 66:23:41
TRACK 17 AUDIO
TITLE "Stories (7’’ Version)"
PERFORMER "Boney M"
INDEX 00 69:55:39
INDEX 01 69:56:22
TRACK 18 AUDIO
TITLE "Papa Chico (Rap Version)"
PERFORMER "Boney M"
INDEX 00 74:15:24
INDEX 01 74:16:46
TRACK 19 AUDIO
TITLE "Barbra Streisand (The Most Wanted Woman) (7’’ Version)"
PERFORMER "Boney M"
INDEX 00 79:00:03
INDEX 01 79:00:27
Треклист:
01. Song Of Joy (Single Edit / Boney M. Feat. Liz Mitchell)
02. Running Man (Frankie’s On The Run) (Boney M. Feat. Guyana)
03. Sunny (John Munich & Thorsten Skringer Sax Radio Edit)
04. Nightflight To Venus (Blank & Jones Remix)
05. Ma Baker (Blank & Jones Radio Remix)
06. Daddy Cool (Nick Raider Radio-Mix)
07. Kalimba De Luna (Bass Flow De Luna Mix)
08. Rasputin (Bass Mix Flow 4.0)
09. Rivers Of Babylon (Depth Sounder Fox Mix)
10. Daddy Cool (Jay Frog Remix & Amfree)
11. Sunny (John Munich & Thorsten Skringer Extended Sax Mix)
12. Sunny (Blank & Jones Summer Vibe Remix)
13. Rivers Of Babylon (Nick Raider Club Party Mix)
14. Kalimba De Luna (Bass Flow De Luna Instrumental Mix)
15. Rasputin (Bass Flow 4.0 Mix / Instrumental)
Продолжительноcть: 00:59:15
Exact Audio Copy V1.0 beta 4 from 7. December 2014
EAC extraction logfile from 1. April 2015, 20:41
Boney M / Diamonds CD3
Used drive : PLEXTOR BD-R PX-B950SA Adapter: 1 ID: 1
Read mode : Secure
Utilize accurate stream : Yes
Defeat audio cache : Yes
Make use of C2 pointers : No
Read offset correction : 6
Overread into Lead-In and Lead-Out : No
Fill up missing offset samples with silence : Yes
Delete leading and trailing silent blocks : No
Null samples used in CRC calculations : Yes
Used interface : Native Win32 interface for Win NT & 2000
Used output format : Internal WAV Routines
Sample format : 44.100 Hz; 16 Bit; Stereo
TOC of the extracted CD
Track | Start | Length | Start sector | End sector
---------------------------------------------------------
1 | 0:00.00 | 4:36.72 | 0 | 20771
2 | 4:36.72 | 3:21.33 | 20772 | 35879
3 | 7:58.30 | 3:46.22 | 35880 | 52851
4 | 11:44.52 | 4:43.58 | 52852 | 74134
5 | 16:28.35 | 3:08.72 | 74135 | 88306
6 | 19:37.32 | 3:28.47 | 88307 | 103953
7 | 23:06.04 | 3:27.47 | 103954 | 119525
8 | 26:33.51 | 3:39.19 | 119526 | 135969
9 | 30:12.70 | 3:44.02 | 135970 | 152771
10 | 33:56.72 | 5:17.21 | 152772 | 176567
11 | 39:14.18 | 6:10.27 | 176568 | 204344
12 | 45:24.45 | 3:18.17 | 204345 | 219211
13 | 48:42.62 | 3:24.46 | 219212 | 234557
14 | 52:07.33 | 3:27.58 | 234558 | 250140
15 | 55:35.16 | 3:39.59 | 250141 | 266624
Range status and errors
Selected range
Filename C:\Users\Meijin\Desktop\Lossless Galaxy ALLexxess\Boney M\2015 Diamonds (3CD + DVD + LP Super Deluxe Box Set Sony Music)\CD3\Boney M - Diamonds CD3.wav
Peak level 99.4 %
Extraction speed 7.3 X
Range quality 100.0 %
Test CRC 7E2649FA
Copy CRC 7E2649FA
Copy OK
No errors occurred
AccurateRip summary
Track 1 not present in database
Track 2 not present in database
Track 3 not present in database
Track 4 not present in database
Track 5 not present in database
Track 6 not present in database
Track 7 not present in database
Track 8 not present in database
Track 9 not present in database
Track 10 not present in database
Track 11 not present in database
Track 12 not present in database
Track 13 not present in database
Track 14 not present in database
Track 15 not present in database
None of the tracks are present in the AccurateRip database
End of status report
---- CUETools DB Plugin V2.1.4
[CTDB TOCID: Tcjz1MWRW5NjBqjk_6Rl6OhXGqs-] found
Submit result: Tcjz1MWRW5NjBqjk_6Rl6OhXGqs- has been confirmed
Track | CTDB Status
1 | (7/7) Accurately ripped
2 | (7/7) Accurately ripped
3 | (7/7) Accurately ripped
4 | (7/7) Accurately ripped
5 | (7/7) Accurately ripped
6 | (7/7) Accurately ripped
7 | (7/7) Accurately ripped
8 | (7/7) Accurately ripped
9 | (7/7) Accurately ripped
10 | (7/7) Accurately ripped
11 | (7/7) Accurately ripped
12 | (7/7) Accurately ripped
13 | (7/7) Accurately ripped
14 | (7/7) Accurately ripped
15 | (7/7) Accurately ripped
==== Log checksum 11CFB9F3F585B4F1541FA991688A35BCF971D26B06C505D915F51294972B26F1 ====
-----------------------
DON'T MODIFY THIS FILE
-----------------------
PERFORMER: auCDtect Task Manager, ver. 1.6.0 RC1 build 1.6.0.1
Copyright (c) 2008-2010 y-soft. All rights reserved
http://y-soft.org
ANALYZER: auCDtect: CD records authenticity detector, version 0.8.2
Copyright (c) 2004 Oleg Berngardt. All rights reserved.
Copyright (c) 2004 Alexander Djourik. All rights reserved.
FILE: Boney M - Diamonds CD3.flac
Size: 430435054 Hash: E6C27A5F1E29467F61A1A808CDA39936 Accuracy: -m8
Conclusion: CDDA 100%
Signature: A26B5E5F29075DC3542300D6857FF6A6A7C603AB
REM GENRE "Pop / Disco"
REM DATE 2015
REM DISCID E40DE30F
REM COMMENT "ExactAudioCopy v1.0b4"
PERFORMER "Boney M"
TITLE "Diamonds CD3"
FILE "Boney M - Diamonds CD3.flac" WAVE
TRACK 01 AUDIO
TITLE "Song Of Joy (Single Edit / Boney M. Feat. Liz Mitchell)"
PERFORMER "Boney M"
INDEX 01 00:00:00
TRACK 02 AUDIO
TITLE "Running Man (Frankie’s On The Run) (Boney M. Feat. Guyana)"
PERFORMER "Boney M"
INDEX 00 04:35:65
INDEX 01 04:36:72
TRACK 03 AUDIO
TITLE "Sunny (John Munich & Thorsten Skringer Radio Sax Edit)"
PERFORMER "Boney M"
INDEX 00 07:56:67
INDEX 01 07:58:30
TRACK 04 AUDIO
TITLE "Nightflight To Venus (Blank & Jones Remix)"
PERFORMER "Boney M"
INDEX 00 11:43:44
INDEX 01 11:44:52
TRACK 05 AUDIO
TITLE "Ma Baker (Blank & Jones Radio Remix)"
PERFORMER "Boney M"
INDEX 00 16:27:04
INDEX 01 16:28:35
TRACK 06 AUDIO
TITLE "Daddy Cool (Nick Raider Radio-Mix)"
PERFORMER "Boney M"
INDEX 00 19:36:51
INDEX 01 19:37:32
TRACK 07 AUDIO
TITLE "Kalimba De Luna (Bassflow De Luna Mix)"
PERFORMER "Boney M"
INDEX 01 23:06:04
TRACK 08 AUDIO
TITLE "Rasputin (Bassflow 4.0 Mix)"
PERFORMER "Boney M"
INDEX 01 26:33:51
TRACK 09 AUDIO
TITLE "Rivers Of Babylon (Echolot Fox Mix)"
PERFORMER "Boney M"
INDEX 00 30:12:36
INDEX 01 30:12:70
TRACK 10 AUDIO
TITLE "Daddy Cool (Jay Frog & Amfree Remix) / Bonus Track"
PERFORMER "Boney M"
INDEX 00 33:55:03
INDEX 01 33:56:72
TRACK 11 AUDIO
TITLE "Sunny (John Munich & Thorsten Skringer Extended Sax Mix) / Bonus Track"
PERFORMER "Boney M"
INDEX 00 39:13:54
INDEX 01 39:14:18
TRACK 12 AUDIO
TITLE "Sunny (Blank & Jones Summer Vibe Remix) / Bonus Track"
PERFORMER "Boney M"
INDEX 00 45:24:31
INDEX 01 45:24:45
TRACK 13 AUDIO
TITLE "Rivers Of Babylon (Nick Raider Club Party Mix) / Bonus Track"
PERFORMER "Boney M"
INDEX 00 48:42:32
INDEX 01 48:42:62
TRACK 14 AUDIO
TITLE "Kalimba De Luna (Bass Flow De Luna Instrumental Mix) / Bonus Track"
PERFORMER "Boney M"
INDEX 00 52:06:51
INDEX 01 52:07:33
TRACK 15 AUDIO
TITLE "Rasputin (Bass Flow 4.0 Mix / Instrumental) / Bonus Track"
PERFORMER "Boney M"
INDEX 00 55:34:05
INDEX 01 55:35:16
Феерическая биография Boney M. началась в 1975 году, когда Франк Фариан (Франц Ройтер) организовав кастинг, отобрал для своей будущей группы экзотический чернокожий квартет, в состав которого вошли эмигранты, являвшиеся коренными жителями Карибских островов. В первом составе Boney M. "засветились" Шейла Бонник, Мэйзи Уильямс, Натали и Майк. Впоследствии участниками Boney M. становились разные исполнители, однако неизменная пропорция "3+1" (три женщины и один мужчина) традиционно продолжала соблюдаться.
Официальной датой создания Boney M. принято считать 1976 год. В этом году в так называемом "золотом составе" (Лиз Митчелл, Майзи Уильяме, Марсия Барретт и Бобби Фаррелл) был записан первый крупный хит "Daddy Сool". В этом же году вышел альбом "Take The Heat Off Me", ставший первым среди восьми существующих. Вошедшие в него песни Boney M. "Daddy Cool" и "Sunny" буквально "взорвали" хит-парады Швеции, Норвегии, Австрии и, конечно же, Германии. Спустя некоторое время их уже знала вся Европа. Однако подлинный пик популярности Boney M. пришелся на 1978 год, когда сингл "Rivers Of Babylon" / "Brown Girl In The Ring" занял в Англии первое место, в общей сложности провел в британских чартах 40 недель и стал третьей по продаваемости пластинкой за всю истории британского хит-парада. Именно в 1978 году состоялось знаменитое выступление Boney M. в Москве. Это событие имело не только культурный, но и политический характер, так как западная музыка в СССР долгие годы поддавалась строгой цензуре. Десять незабываемых концертов Boney M., с аншлагом прошедших в зале "Россия", сыграли немаловажную роль в ослаблении "железного занавеса". Советские гастроли Boney M. стали настоящей мировой сенсацией и освещались многими информационными зарубежными изданиями, включая американский Time.
Но шоу-бизнес живёт по своим законам, и за громкой славой в скором времени последовал оглушительный скандал. Как оказалось, основными солистами Boney M. были всего лишь два человека - сам Франк Фариан и Лиза Митчелл. Остальные участники, включая любимца публики Бобби Фаррелла, служили ярким фоном группы и не более того. С этого момента внутри коллектива стали нарастать проблемы, повлёкшие за собой конфликт "Фариан-Фаррелл".
В 1979 году мир увидел очередной альбом Boney M. "Oceans Of Fantasy", который стал платиновым, а уже в 1981 Бобби Фаррелл был вынужден покинуть группу, уступив место новому участнику - высокопрофессиональному певцу, продюсеру и музыканту Рэджи Тсибо. Однако публика привыкла видеть в составе Boney M. харизматичного Бобби Фаррелла, что заставило впоследствии Фариана вернуть его в коллектив в середине 1984 года. Два последующих альбома "Boonoonoonoos" и "Ten Thousand Lightyears" уже не смогли достичь прежних высот, и популярность группы пошла на спад. Последний альбом группы под названием "Eye Dance" вышел в 1985 году, а в январе 1986 года состоялся прощальный концерт Boney M.
В настоящее время участники распавшейся "золотой четвёрки" (кроме Рэджи Тсибо и Бобби Фарелла - артист скончался от сердечного приступа во время концертного тура в отеле Ambassador в Санкт-Петербурге в ночь с 29 на 30 декабря 2010 года) продолжают выступать со своим составом бэк-вокалистов, именуя себя Boney M. Однако основатель и владелец прав на марку Boney M. Франк Фариан признаёт только состав группы во главе с Лиз Митчелл, исполнившей 80% женских вокальных партий во время записей на диски. Благодаря "хитовому" репертуару и высокому качеству выступлений, бывшие солистки легендарной группы до сих пор имеют большую занятость, выступая во всех частях мира, и особенно часто в городах Росси и СНГ.
По некоторым оценкам, легальные тиражи альбомов и синглов Boney M. превысили 200 миллионов копий, в то время как сам Фариан заявляет о 120 миллионах (без учёта продаж многочисленных сборников). По уточнённым данным ряда СМИ (март 2014) официальные продажи составили более 159 миллионов копий. Количество нелегальных копий, выпущенных во всём мире, оценивается, как минимум, ещё в 300 миллионов. До сих пор это одна из самых издаваемых поп-групп в мире. Коллектив вошёл в Книгу рекордов Гиннесса, как реализовавший наибольшее количество синглов в Великобритании (3 сингла группы находятся в первой десятке бестселлеров XX века). В Германии Boney M. до сих пор удерживают лидерство по времени пребывания на пиковой позиции национального сингл-чарта. Суперхит "Rivers of Babylon" был #1 в течение 17 недель в официальном Germany Top 50 Singles. Подобный же статус "Rivers of Babylon" удерживала в Новой Зеландии в течение 33 лет.
В феврале 2015 года исполнилось ровно 40 лет с момента публикации первого сингла проекта Boney M. В связи с юбилеем рекорд-компания Фрэнка Фариана MCI и Sony Music 27 марта 2015 выпустили беспрецедентное издание группы под маркой Diamonds. Релиз поступил в продажу в трёх различных версиях: 3CD Box, 3DVD Box и Fan Box (LP+3CD+DVD+футболка+наклейки). Специальное подарочное 3-х-дисковое издание содержит все хиты группы, расположенные в хронологическом порядке + редкие альтернативные и неизданные версии песен. Третий диск в этом комплекте является сборником бонус-треков с ремиксами бестселлеров Boney M. от модных DJ и микс-мастеров. Кроме того, на диске опубликовано две новых композиции, одна из которых записана Фрэнком Фарианом с Лиз Митчелл, а вторая представляет собой посвящение Фрэнку Фариану, исполненное американской звездой хип-хопа Guyana.
Liz Mitchell - lead and backing vocals (1976-1986, 1987-1989, 1989, 1992-1994)
Marcia Barrett - lead and backing vocals (1975-1986, 1987, 1988-1989)
Maizie Williams - dancer, live vocals (1975-1986, 1987-1989)
Bobby Farrell - dancer, rap, live vocals (1975-81, 1984-1986, 1987, 1988-1989; died 2010)
Reggie Tsiboe - lead and backing vocals (1982-1986, 1989)
Download / Скачать

Хотите скачать бесплатно? Зарегистрируйтесь на сайте (ссылка на регистрацию). Pirat.ca - самый быстрый торрент трекер в рунете!

Как скачивать  ·   Что такое торрент  ·   Рейтинг и ограничения



Последний раз редактировалось: TRECA (2015-04-04 14:53), всего редактировалось 1 раз

TRECA ®

Флибустьер

1796

Пост 04-Апр-2015 14:49 (спустя 1 минута)

[Q] 

Всем приятного прослушивания!
Надеюсь что оформил правильно, согласно правилам ресурса!

_________________
не надо кричать,лучше скажи - дешевле станет
[Профиль]  [ЛС] 

Purshun

Морской Волк

123

Пост 05-Апр-2015 01:40 (спустя 10 часов)

[Q] 

Спасибо TRECA!!!
Автору респект!!! Лови бочку

_________________
[Профиль]  [ЛС] 

pdb08

Легенда

72

Пост 05-Апр-2015 02:27 (спустя 46 минут)

[Q] 

Спасибо за труды Автору респект!!! Раздающему респект!

_________________
[Профиль]  [ЛС] 

kucha11

Корсар

Пост 05-Апр-2015 05:42 (спустя 3 часа)

[Q] 

Спасибо!!! Лови бочку
[Профиль]  [ЛС] 
Показать сообщения:    
Ответить на тему

Текущее время: Сегодня 22:28

Часовой пояс: GMT + 4



Вы не можете начинать темы
Вы не можете отвечать на сообщения
Вы не можете редактировать свои сообщения
Вы не можете удалять свои сообщения
Вы не можете голосовать в опросах
Вы не можете прикреплять файлы к сообщениям
Вы не можете скачивать файлы

▼ Вниз