Уважаемый Гость!
Вы можете поддержать проект и зарегистрироваться у наших партнеров - онлайн-стратегия MyLands. При регистрации в игре Вы получите код, который сможете активировать после регистрации на pirat.ca и получить 1000 дублонов.

Ваш код:
6e74277781110e9b49c3c0dd24e1bed54391613e
 
     

(Pop Rock, Synthpop, New Wave, Electronic) a-ha - Cast In Steel [2CD Deluxe Edition] - 2015 [FLAC, tracks+.cue, Lossless]

Ответить на тему
 
Автор
Сообщение

Пост 04-Сен-2015 23:37

[Q] 

Ворон

-a-ha
Cast In Steel
[2CD Deluxe Edition]
--
Год издания: 2015
Страна: Norway
Лейбл: UMC
Жанр: Pop Rock, Synthpop, New Wave, Electronic
Продолжительность: 01:13:59
Номер по каталогу: B0128Y8Y9E
Формат: FLAC
Битрейт аудио: Lossless
Тип рипа: tracks+.cue
Наличие сканов в содержимом раздачи: нет-Трэклист:
CD 1
01. Cast In Steel [3:51]
02. Under The Makeup [3:25]
03. The Wake [3:45]
04. Forest Fire [3:56]
05. Objects In The Mirror [4:14]
06. Door Ajar [3:46]
07. Living At The End Of The World [4:06]
08. Mythomania [3:50]
09. She’s Humming A Tune [4:02]
10. Shadow Endeavors [4:22]
11. Giving Up The Ghost [4:16]
12. Goodbye Thompson [3:36]
Код:
Exact Audio Copy V1.1 from 23. June 2015
EAC extraction logfile from 4. September 2015, 13:53
a-ha / Cast In Steel
Used drive  : HL-DT-STDVDRAM GHB0N   Adapter: 1  ID: 0
Read mode               : Secure
Utilize accurate stream : Yes
Defeat audio cache      : Yes
Make use of C2 pointers : No
Read offset correction                      : 6
Overread into Lead-In and Lead-Out          : No
Fill up missing offset samples with silence : Yes
Delete leading and trailing silent blocks   : No
Null samples used in CRC calculations       : Yes
Used interface                              : Native Win32 interface for Win NT & 2000
Gap handling                                : Appended to previous track
Used output format              : User Defined Encoder
Selected bitrate                : 768 kBit/s
Quality                         : High
Add ID3 tag                     : No
Command line compressor         : C:\Program Files (x86)\Exact Audio Copy\FLAC\FLAC.EXE
Additional command line options : -6 -V -T "ARTIST=%artist%" -T "TITLE=%title%" -T "ALBUM=%albumtitle%" -T "DATE=%year%" -T "TRACKNUMBER=%tracknr%" -T "GENRE=%genre%" -T "COMMENT=%comment%" -T "BAND=%albuminterpret%" -T "ALBUMARTIST=%albuminterpret%" -T "COMPOSER=%composer%" %haslyrics%--tag-from-file=LYRICS="%lyricsfile%"%haslyrics% -T "DISCNUMBER=%cdnumber%" -T "TOTALDISCS=%totalcds%" -T "TOTALTRACKS=%numtracks%" %hascover%--picture="%coverfile%"%hascover% %source% -o %dest%
TOC of the extracted CD
     Track |   Start  |  Length  | Start sector | End sector
    ---------------------------------------------------------
        1  |  0:00.00 |  3:51.23 |         0    |    17347
        2  |  3:51.23 |  3:23.36 |     17348    |    32608
        3  |  7:14.59 |  3:45.34 |     32609    |    49517
        4  | 11:00.18 |  3:56.02 |     49518    |    67219
        5  | 14:56.20 |  4:14.10 |     67220    |    86279
        6  | 19:10.30 |  3:46.01 |     86280    |   103230
        7  | 22:56.31 |  4:06.37 |    103231    |   121717
        8  | 27:02.68 |  3:49.63 |    121718    |   138955
        9  | 30:52.56 |  4:02.23 |    138956    |   157128
       10  | 34:55.04 |  4:22.06 |    157129    |   176784
       11  | 39:17.10 |  4:16.04 |    176785    |   195988
       12  | 43:33.14 |  3:35.55 |    195989    |   212168
Track  1
     Filename C:\Users\Neil\Downloads\Cast In Steel\Disc 1\01 Cast In Steel.wav
     Pre-gap length  0:00:02.00
     Peak level 99.7 %
     Extraction speed 1.0 X
     Track quality 100.0 %
     Test CRC 02E45996
     Copy CRC 02E45996
     Track not present in AccurateRip database
     Copy OK
Track  2
     Filename C:\Users\Neil\Downloads\Cast In Steel\Disc 1\02 Under The Makeup.wav
     Peak level 90.1 %
     Extraction speed 0.9 X
     Track quality 99.9 %
     Test CRC EB14CE80
     Copy CRC EB14CE80
     Track not present in AccurateRip database
     Copy OK
Track  3
     Filename C:\Users\Neil\Downloads\Cast In Steel\Disc 1\03 The Wake.wav
     Peak level 99.1 %
     Extraction speed 1.1 X
     Track quality 99.9 %
     Test CRC B3C42C78
     Copy CRC B3C42C78
     Track not present in AccurateRip database
     Copy OK
Track  4
     Filename C:\Users\Neil\Downloads\Cast In Steel\Disc 1\04 Forest Fire.wav
     Peak level 98.8 %
     Extraction speed 1.1 X
     Track quality 99.9 %
     Test CRC 5E9D8B42
     Copy CRC 5E9D8B42
     Track not present in AccurateRip database
     Copy OK
Track  5
     Filename C:\Users\Neil\Downloads\Cast In Steel\Disc 1\05 Objects In The Mirror.wav
     Peak level 98.8 %
     Extraction speed 1.4 X
     Track quality 100.0 %
     Test CRC 381A5625
     Copy CRC 381A5625
     Track not present in AccurateRip database
     Copy OK
Track  6
     Filename C:\Users\Neil\Downloads\Cast In Steel\Disc 1\06 Door Ajar.wav
     Peak level 98.4 %
     Extraction speed 1.5 X
     Track quality 100.0 %
     Test CRC 00861702
     Copy CRC 00861702
     Track not present in AccurateRip database
     Copy OK
Track  7
     Filename C:\Users\Neil\Downloads\Cast In Steel\Disc 1\07 Living At The End Of The World.wav
     Peak level 98.4 %
     Extraction speed 1.6 X
     Track quality 100.0 %
     Test CRC DB5574A7
     Copy CRC DB5574A7
     Track not present in AccurateRip database
     Copy OK
Track  8
     Filename C:\Users\Neil\Downloads\Cast In Steel\Disc 1\08 Mythomania.wav
     Peak level 99.1 %
     Extraction speed 1.6 X
     Track quality 100.0 %
     Test CRC D9FFF876
     Copy CRC D9FFF876
     Track not present in AccurateRip database
     Copy OK
Track  9
     Filename C:\Users\Neil\Downloads\Cast In Steel\Disc 1\09 She's Humming A Tune.wav
     Peak level 98.5 %
     Extraction speed 1.7 X
     Track quality 100.0 %
     Test CRC 64119688
     Copy CRC 64119688
     Track not present in AccurateRip database
     Copy OK
Track 10
     Filename C:\Users\Neil\Downloads\Cast In Steel\Disc 1\10 Shadow Endeavours.wav
     Peak level 95.7 %
     Extraction speed 1.8 X
     Track quality 100.0 %
     Test CRC 91B31D97
     Copy CRC 91B31D97
     Track not present in AccurateRip database
     Copy OK
Track 11
     Filename C:\Users\Neil\Downloads\Cast In Steel\Disc 1\11 Giving Up The Ghost.wav
     Peak level 99.7 %
     Extraction speed 1.9 X
     Track quality 100.0 %
     Test CRC 047CCBEE
     Copy CRC 047CCBEE
     Track not present in AccurateRip database
     Copy OK
Track 12
     Filename C:\Users\Neil\Downloads\Cast In Steel\Disc 1\12 Goodbye Thompson.wav
     Peak level 100.0 %
     Extraction speed 1.9 X
     Track quality 100.0 %
     Test CRC 22DBE82B
     Copy CRC 22DBE82B
     Track not present in AccurateRip database
     Copy OK
None of the tracks are present in the AccurateRip database
No errors occurred
End of status report
---- CUETools DB Plugin V2.1.6
[CTDB TOCID: l_aa4NRIakdFlB.t2gBOTua2yOg-] found
Submit result: l_aa4NRIakdFlB.t2gBOTua2yOg- has been confirmed
Track | CTDB Status
  1   | (1/1) Accurately ripped
  2   | (1/1) Accurately ripped
  3   | (1/1) Accurately ripped
  4   | (1/1) Accurately ripped
  5   | (1/1) Accurately ripped
  6   | (1/1) Accurately ripped
  7   | (1/1) Accurately ripped
  8   | (1/1) Accurately ripped
  9   | (1/1) Accurately ripped
10   | (1/1) Accurately ripped
11   | (1/1) Accurately ripped
12   | (1/1) Accurately ripped
==== Log checksum 1936ABA8D37719958FC52BCFD0AC946DDF517F5EB3962CDECC630C1296CF2A4A ====
Код:
REM GENRE Pop
REM DATE 2015
REM DISCID AC0B0C0C
REM COMMENT "ExactAudioCopy v1.1"
CATALOG 0602547436122
PERFORMER "a-ha"
TITLE "Cast In Steel"
FILE "01 Cast In Steel.wav" WAVE
  TRACK 01 AUDIO
    TITLE "Cast In Steel"
    PERFORMER "a-ha"
    ISRC DEUM71501726
    INDEX 01 00:00:00
FILE "02 Under The Makeup.wav" WAVE
  TRACK 02 AUDIO
    TITLE "Under The Makeup"
    PERFORMER "a-ha"
    ISRC DEUM71502151
    INDEX 01 00:00:00
FILE "03 The Wake.wav" WAVE
  TRACK 03 AUDIO
    TITLE "The Wake"
    PERFORMER "a-ha"
    ISRC DEUM71501731
    INDEX 01 00:00:00
FILE "04 Forest Fire.wav" WAVE
  TRACK 04 AUDIO
    TITLE "Forest Fire"
    PERFORMER "a-ha"
    ISRC DEUM71501736
    INDEX 01 00:00:00
FILE "05 Objects In The Mirror.wav" WAVE
  TRACK 05 AUDIO
    TITLE "Objects In The Mirror"
    PERFORMER "a-ha"
    ISRC DEUM71501737
    INDEX 01 00:00:00
FILE "06 Door Ajar.wav" WAVE
  TRACK 06 AUDIO
    TITLE "Door Ajar"
    PERFORMER "a-ha"
    ISRC DEUM71501738
    INDEX 01 00:00:00
FILE "07 Living At The End Of The World.wav" WAVE
  TRACK 07 AUDIO
    TITLE "Living At The End Of The World"
    PERFORMER "a-ha"
    ISRC DEUM71501739
    INDEX 01 00:00:00
FILE "08 Mythomania.wav" WAVE
  TRACK 08 AUDIO
    TITLE "Mythomania"
    PERFORMER "a-ha"
    ISRC DEUM71501740
    INDEX 01 00:00:00
FILE "09 She's Humming A Tune.wav" WAVE
  TRACK 09 AUDIO
    TITLE "She's Humming A Tune"
    PERFORMER "a-ha"
    ISRC DEUM71501741
    INDEX 01 00:00:00
FILE "10 Shadow Endeavours.wav" WAVE
  TRACK 10 AUDIO
    TITLE "Shadow Endeavours"
    PERFORMER "a-ha"
    ISRC DEUM71501742
    INDEX 01 00:00:00
FILE "11 Giving Up The Ghost.wav" WAVE
  TRACK 11 AUDIO
    TITLE "Giving Up The Ghost"
    PERFORMER "a-ha"
    ISRC DEUM71501742
    INDEX 01 00:00:00
FILE "12 Goodbye Thompson.wav" WAVE
  TRACK 12 AUDIO
    TITLE "Goodbye Thompson"
    PERFORMER "a-ha"
    ISRC DEUM71501744
    INDEX 01 00:00:00
CD 2
01. The End Of The Affair [3:32]
02. Mother Nature Goes To Heaven [4:34]
03. Nothing Is Keeping You Here [4:43]
04. Shadowside (Demo Version) [4:18]
05. Start The Simulator (Stereophonic Mix) [5:20]
06. Foot Of The Mountain (Mark Saunders Remix) [4:20]
Код:
Exact Audio Copy V1.1 from 23. June 2015
EAC extraction logfile from 4. September 2015, 12:13
a-ha / Cast In Steel
Used drive  : HL-DT-STDVDRAM GHB0N   Adapter: 1  ID: 0
Read mode               : Secure
Utilize accurate stream : Yes
Defeat audio cache      : Yes
Make use of C2 pointers : No
Read offset correction                      : 6
Overread into Lead-In and Lead-Out          : No
Fill up missing offset samples with silence : Yes
Delete leading and trailing silent blocks   : No
Null samples used in CRC calculations       : Yes
Used interface                              : Native Win32 interface for Win NT & 2000
Gap handling                                : Appended to previous track
Used output format              : User Defined Encoder
Selected bitrate                : 768 kBit/s
Quality                         : High
Add ID3 tag                     : No
Command line compressor         : C:\Program Files (x86)\Exact Audio Copy\FLAC\FLAC.EXE
Additional command line options : -6 -V -T "ARTIST=%artist%" -T "TITLE=%title%" -T "ALBUM=%albumtitle%" -T "DATE=%year%" -T "TRACKNUMBER=%tracknr%" -T "GENRE=%genre%" -T "COMMENT=%comment%" -T "BAND=%albuminterpret%" -T "ALBUMARTIST=%albuminterpret%" -T "COMPOSER=%composer%" %haslyrics%--tag-from-file=LYRICS="%lyricsfile%"%haslyrics% -T "DISCNUMBER=%cdnumber%" -T "TOTALDISCS=%totalcds%" -T "TOTALTRACKS=%numtracks%" %hascover%--picture="%coverfile%"%hascover% %source% -o %dest%
TOC of the extracted CD
     Track |   Start  |  Length  | Start sector | End sector
    ---------------------------------------------------------
        1  |  0:00.00 |  3:32.29 |         0    |    15928
        2  |  3:32.29 |  4:33.72 |     15929    |    36475
        3  |  8:06.26 |  4:43.28 |     36476    |    57728
        4  | 12:49.54 |  4:17.63 |     57729    |    77066
        5  | 17:07.42 |  5:19.46 |     77067    |   101037
        6  | 22:27.13 |  4:19.45 |    101038    |   120507
Track  1
     Filename C:\Users\Neil\Downloads\Cast In Steel\Disc 2\01 The End Of The Affair.wav
     Pre-gap length  0:00:02.00
     Peak level 98.8 %
     Extraction speed 1.0 X
     Track quality 100.0 %
     Test CRC 5F29C18C
     Copy CRC 5F29C18C
     Track not present in AccurateRip database
     Copy OK
Track  2
     Filename C:\Users\Neil\Downloads\Cast In Steel\Disc 2\02 Mother Nature Goes To Heaven (Original Version).wav
     Peak level 95.5 %
     Extraction speed 1.1 X
     Track quality 100.0 %
     Test CRC A3114C76
     Copy CRC A3114C76
     Track not present in AccurateRip database
     Copy OK
Track  3
     Filename C:\Users\Neil\Downloads\Cast In Steel\Disc 2\03 Nothing Is Keeping You Here (Original Version).wav
     Peak level 88.0 %
     Extraction speed 1.3 X
     Track quality 100.0 %
     Test CRC 8AEA9EA5
     Copy CRC 8AEA9EA5
     Track not present in AccurateRip database
     Copy OK
Track  4
     Filename C:\Users\Neil\Downloads\Cast In Steel\Disc 2\04 Shadowside (Demo Version).wav
     Peak level 98.8 %
     Extraction speed 1.4 X
     Track quality 100.0 %
     Test CRC 951B02BB
     Copy CRC 951B02BB
     Track not present in AccurateRip database
     Copy OK
Track  5
     Filename C:\Users\Neil\Downloads\Cast In Steel\Disc 2\05 Start The Simulator (Stereophonic Mix).wav
     Peak level 97.2 %
     Extraction speed 1.5 X
     Track quality 100.0 %
     Test CRC 60C0C09D
     Copy CRC 60C0C09D
     Track not present in AccurateRip database
     Copy OK
Track  6
     Filename C:\Users\Neil\Downloads\Cast In Steel\Disc 2\06 Foot Of The Mountain (Mark Saunders Remix).wav
     Peak level 98.8 %
     Extraction speed 1.4 X
     Track quality 99.9 %
     Test CRC 2E7BEF9B
     Copy CRC 2E7BEF9B
     Track not present in AccurateRip database
     Copy OK
None of the tracks are present in the AccurateRip database
No errors occurred
End of status report
---- CUETools DB Plugin V2.1.6
[CTDB TOCID: FIexymJ5BM.rLCqDVfeMcaqkleo-] disk not present in database
Submit result: FIexymJ5BM.rLCqDVfeMcaqkleo- has been uploaded
==== Log checksum 84A7E01BB188634E77F3EFB422B87376BF72B2656EE23C31BFA66734D6FADBCA ====
Код:
REM GENRE Pop
REM DATE 2015
REM DISCID 49064606
REM COMMENT "ExactAudioCopy v1.1"
CATALOG 0602547498434
PERFORMER "a-ha"
TITLE "Cast In Steel "
FILE "01 The End Of The Affair.wav" WAVE
  TRACK 01 AUDIO
    TITLE "The End Of The Affair"
    PERFORMER "a-ha"
    ISRC DEUM71502257
    INDEX 01 00:00:00
FILE "02 Mother Nature Goes To Heaven (Original Version).wav" WAVE
  TRACK 02 AUDIO
    TITLE "Mother Nature Goes To Heaven (Original Version)"
    PERFORMER "a-ha"
    ISRC DEUM71502296
    INDEX 01 00:00:00
FILE "03 Nothing Is Keeping You Here (Original Version).wav" WAVE
  TRACK 03 AUDIO
    TITLE "Nothing Is Keeping You Here (Original Version)"
    PERFORMER "a-ha"
    ISRC DEUM71502296
    INDEX 01 00:00:00
FILE "04 Shadowside (Demo Version).wav" WAVE
  TRACK 04 AUDIO
    TITLE "Shadowside (Demo Version)"
    PERFORMER "a-ha"
    ISRC DEUM71502298
    INDEX 01 00:00:00
FILE "05 Start The Simulator (Stereophonic Mix).wav" WAVE
  TRACK 05 AUDIO
    TITLE "Start The Simulator (Stereophonic Mix)"
    PERFORMER "a-ha"
    ISRC DEUM71502298
    INDEX 01 00:00:00
FILE "06 Foot Of The Mountain (Mark Saunders Remix).wav" WAVE
  TRACK 06 AUDIO
    TITLE "Foot Of The Mountain (Mark Saunders Remix)"
    PERFORMER "a-ha"
    ISRC DEUM71502300
    INDEX 01 00:00:00
-    
Download / Скачать

Хотите скачать бесплатно? Зарегистрируйтесь на сайте (ссылка на регистрацию). Pirat.ca - самый быстрый торрент трекер в рунете!

Как скачивать  ·   Что такое торрент  ·   Рейтинг и ограничения

sositechlen

Лоцман

Пост 05-Сен-2015 23:05 (спустя 23 часа)

[Q] 

Бочку)) автору)))
[Профиль]  [ЛС] 

pvm

Флибустьер

Пост 02-Мар-2017 03:51 (спустя 1 год 5 месяцев)

[Q] 

А альбом-то получился очень даже хорошим.
[Профиль]  [ЛС] 
Показать сообщения:    
Ответить на тему

Текущее время: Сегодня 13:41

Часовой пояс: GMT + 4



Вы не можете начинать темы
Вы не можете отвечать на сообщения
Вы не можете редактировать свои сообщения
Вы не можете удалять свои сообщения
Вы не можете голосовать в опросах
Вы не можете прикреплять файлы к сообщениям
Вы не можете скачивать файлы

▼ Вниз