Уважаемый Гость!
Вы можете поддержать проект и зарегистрироваться у наших партнеров - онлайн-стратегия MyLands. При регистрации в игре Вы получите код, который сможете активировать после регистрации на pirat.ca и получить 1000 дублонов.

Ваш код:
42dfaac977a7ef29e5167536f5b22936dba18477
 
     

(Disco) Cerrone - Red Lips - 2016 [FLAC, image +.cue, lossless]

Ответить на тему
 
Автор
Сообщение

Пост 10-Ноя-2016 19:44

[Q] 

sergej644

-Cerrone - Red Lips--
Год издания: 20106
Страна: France
Жанр: Disco
Продолжительность: 00:53:47-Лейбл издания: Imports
Страна-выпуска диска: France
Номер по каталогу: BEC5156643-Формат: FLAC
Битрейт аудио: Lossless
Тип рипа: image +.cue
Наличие сканов в содержимом раздачи: да
-

01.Therapy(3:39)
02.Move Me(3:37)
03.Illuminate Me(3:17)
04.Ain't No Party (Like Monday Night)(4:11)
05.Take Over(3:23)
06.C'est Bon(3:51)
07.Red Lips(3:52)
08.Kiss It Better(3:22)
09.You Only Live Once(3:50)
10.Steal Your Love(4:10)
11.Jane(4:07)
12.I Want(4:00)
13.Time Machine(4:52)
14.2nd Chance(3:36)
-
Код:
Exact Audio Copy V1.1 from 23. June 2015
EAC extraction logfile from 8. November 2016, 18:00
Cerrone / Red Lips
Used drive  : Pioneer BDR-209DBK   Adapter: 0  ID: 0
Read mode               : Secure
Utilize accurate stream : Yes
Defeat audio cache      : Yes
Make use of C2 pointers : No
Read offset correction                      : 6
Overread into Lead-In and Lead-Out          : No
Fill up missing offset samples with silence : Yes
Delete leading and trailing silent blocks   : No
Null samples used in CRC calculations       : Yes
Used interface                              : Installed external ASPI interface
Used output format : Internal WAV Routines
Sample format      : 44.100 Hz; 16 Bit; Stereo
TOC of the extracted CD
     Track |   Start  |  Length  | Start sector | End sector
    ---------------------------------------------------------
        1  |  0:00.00 |  3:39.34 |         0    |    16458
        2  |  3:39.34 |  3:37.07 |     16459    |    32740
        3  |  7:16.41 |  3:17.12 |     32741    |    47527
        4  | 10:33.53 |  4:11.30 |     47528    |    66382
        5  | 14:45.08 |  3:23.08 |     66383    |    81615
        6  | 18:08.16 |  3:50.45 |     81616    |    98910
        7  | 21:58.61 |  3:52.07 |     98911    |   116317
        8  | 25:50.68 |  3:21.46 |    116318    |   131438
        9  | 29:12.39 |  3:49.64 |    131439    |   148677
       10  | 33:02.28 |  4:09.69 |    148678    |   167421
       11  | 37:12.22 |  4:06.72 |    167422    |   185943
       12  | 41:19.19 |  3:59.38 |    185944    |   203906
       13  | 45:18.57 |  4:52.20 |    203907    |   225826
       14  | 50:11.02 |  3:36.18 |    225827    |   242044
Range status and errors
Selected range
     Filename H:\Spotnet\Cerrone - Red Lips (EAC)\Cerrone - Red Lips.wav
     Peak level 100.0 %
     Extraction speed 7.0 X
     Range quality 100.0 %
     Test CRC 0FA82BF8
     Copy CRC 0FA82BF8
     Copy OK
No errors occurred
AccurateRip summary
Track  1  not present in database
Track  2  not present in database
Track  3  not present in database
Track  4  not present in database
Track  5  not present in database
Track  6  not present in database
Track  7  not present in database
Track  8  not present in database
Track  9  not present in database
Track 10  not present in database
Track 11  not present in database
Track 12  not present in database
Track 13  not present in database
Track 14  not present in database
None of the tracks are present in the AccurateRip database
End of status report
Код:
REM GENRE Disco
REM DATE 2016
REM DISCID AB0C9B0E
REM COMMENT "ExactAudioCopy v1.1"
PERFORMER "Cerrone"
TITLE "Red Lips"
FILE "Cerrone - Red Lips.flac" WAVE
  TRACK 01 AUDIO
    TITLE "Therapy"
    PERFORMER "Cerrone"
    INDEX 01 00:00:00
  TRACK 02 AUDIO
    TITLE "Move Me"
    PERFORMER "Cerrone"
    INDEX 00 03:38:34
    INDEX 01 03:39:34
  TRACK 03 AUDIO
    TITLE "Illuminate Me"
    PERFORMER "Cerrone"
    INDEX 00 07:15:41
    INDEX 01 07:16:41
  TRACK 04 AUDIO
    TITLE "Ain't No Party (Like Monday Night)"
    PERFORMER "Cerrone"
    INDEX 00 10:32:54
    INDEX 01 10:33:53
  TRACK 05 AUDIO
    TITLE "Take Over"
    PERFORMER "Cerrone"
    INDEX 00 14:44:09
    INDEX 01 14:45:08
  TRACK 06 AUDIO
    TITLE "C'est Bon"
    PERFORMER "Cerrone"
    INDEX 00 18:07:17
    INDEX 01 18:08:16
  TRACK 07 AUDIO
    TITLE "Red Lips"
    PERFORMER "Cerrone"
    INDEX 00 21:57:62
    INDEX 01 21:58:61
  TRACK 08 AUDIO
    TITLE "Kiss It Better"
    PERFORMER "Cerrone"
    INDEX 00 25:49:69
    INDEX 01 25:50:68
  TRACK 09 AUDIO
    TITLE "You Only Live Once"
    PERFORMER "Cerrone"
    INDEX 00 29:11:40
    INDEX 01 29:12:39
  TRACK 10 AUDIO
    TITLE "Steal Your Love"
    PERFORMER "Cerrone"
    INDEX 00 33:01:29
    INDEX 01 33:02:28
  TRACK 11 AUDIO
    TITLE "Jane"
    PERFORMER "Cerrone"
    INDEX 00 37:11:23
    INDEX 01 37:12:22
  TRACK 12 AUDIO
    TITLE "I Want"
    PERFORMER "Cerrone"
    INDEX 00 41:18:19
    INDEX 01 41:19:19
  TRACK 13 AUDIO
    TITLE "Time Machine"
    PERFORMER "Cerrone"
    INDEX 00 45:17:58
    INDEX 01 45:18:57
  TRACK 14 AUDIO
    TITLE "2nd Chance"
    PERFORMER "Cerrone"
    INDEX 00 50:10:03
    INDEX 01 50:11:02
Это первый официальный альбом Cerrone за последние семь лет. В работе над пластинкой приняли участие такие выдающиеся музыканты, как Найл Роджерс, Алексис Тейлор из Hot Chip и Aloe Blacc. Человек, на чьем счету несколько премий «Грэмми» и хитовый альбом «Supernature», проданный числом более 8 миллионов копий, продолжает радовать нас новинками, сохраняющими в себе настроение и дух золотых дней диско. «Red Lips» мог бы стать саундтреком к любой вечеринке в Studio 54 – клубе, где Cerrone был постоянным гостем.--
Download / Скачать

Хотите скачать бесплатно? Зарегистрируйтесь на сайте (ссылка на регистрацию). Pirat.ca - самый быстрый торрент трекер в рунете!

Как скачивать  ·   Что такое торрент  ·   Рейтинг и ограничения

Показать сообщения:    
Ответить на тему

Текущее время: Сегодня 22:32

Часовой пояс: GMT + 4



Вы не можете начинать темы
Вы не можете отвечать на сообщения
Вы не можете редактировать свои сообщения
Вы не можете удалять свои сообщения
Вы не можете голосовать в опросах
Вы не можете прикреплять файлы к сообщениям
Вы не можете скачивать файлы

▼ Вниз