Уважаемый Гость!
Вы можете поддержать проект и зарегистрироваться у наших партнеров - онлайн-стратегия MyLands. При регистрации в игре Вы получите код, который сможете активировать после регистрации на pirat.ca и получить 1000 дублонов.

Ваш код:
6e74277781110e9b49c3c0dd24e1bed54391613e
 
     

(Europop, Disco) Sandra - The Very Best Of Sandra (2CD) - 2016 [FLAC, image +.cue, lossless]

Ответить на тему
 
Автор
Сообщение

Пост 15-Ноя-2016 16:14

[Q] 

sergej644

-Sandra The Very Best Of Sandra (2CD)--
Год издания: 2016
Страна: Germany
Жанр: Europop, Disco
Продолжительность: 02:13:40-Лейбл издания: Polydor
Страна-выпуска диска: EU
Номер по каталогу: # 4790173-Формат: FLAC
Битрейт аудио: Lossless
Тип рипа: image +.cue
Наличие сканов в содержимом раздачи: да
-

01.(I'll Never Be) Maria Magdalena(3:58)
02.Everlasting Love(3:42)
03.We'll Be Together(3:46)
04.In The Heat Of The Night(3:57)
05.Hiroshima(4:13)
06.Little Girl(3:10)
07.Hi! Hi! Hi!(4:11)
08.One More Night(4:03)
09.Such A Shame(4:18)
10.Maybe Tonight(3:07)
11.Sandra featuring Thomas Anders - The Night Is Still Young(3:21)
12.All You Zombies(4:59)
13.La Vista De Luna(3:42)
14.Don't Be Aggressive(4:22)
15.Innocent Love(3:52)
16.Japan ist weit(3:50)
17.Sekunden(3:28)

01.Secret Land (1988)(4:40)
02.Stop For A Minute (1987)(4:04)
03.Heaven Can Wait (1988)(4:02)
04.Johnny Wanna Live (single version) (1992)(3:48)
05.Loreen (1986)(4:13)
06.Around My Heart (1988)(3:16)
07.You And I (edit) (1985)(4:02)
08.Infinite Kiss (2012)(2:53)
09.Forever (2001)(3:45)
10.Nights In White Satin (1995)(3:34)
11.Stay In Touch (2012)(3:50)
12.You'll Be Mine (1986)(4:26)
13.Just Like Diamonds (1988)(5:32)
14.(Life May Be) A Big Insanity (1990)(4:27)
15.Midnight Man (1986)(3:07)
16.DJ Bobo & Sandra / Secrets Of Love (club mix radio edit) (2006)(3:59)
17.In The Heat Of The Night (Tropical Future masQraider Remix) (2016)(4:04)
-
Код:
Exact Audio Copy V1.0 beta 3 from 29. August 2011
EAC extraction logfile from 29. October 2016, 22:03
Sandra / The Very Best Of Sandra - CD1
Used drive  : PIONEER BD-RW   BDR-TD03   Adapter: 0  ID: 1
Read mode               : Secure
Utilize accurate stream : Yes
Defeat audio cache      : Yes
Make use of C2 pointers : No
Read offset correction                      : 667
Overread into Lead-In and Lead-Out          : No
Fill up missing offset samples with silence : Yes
Delete leading and trailing silent blocks   : No
Null samples used in CRC calculations       : Yes
Used interface                              : Native Win32 interface for Win NT & 2000
Used output format              : User Defined Encoder
Selected bitrate                : 768 kBit/s
Quality                         : High
Add ID3 tag                     : No
Command line compressor         : C:\Program Files (x86)\Exact Audio Copy\FLAC\FLAC.EXE
Additional command line options : -6 -V -T "ARTIST=%artist%" -T "TITLE=%title%" -T "ALBUM=%albumtitle%" -T "DATE=%year%" -T "TRACKNUMBER=%tracknr%" -T "GENRE=%genre%" -T "COMMENT=%comment%" -T "BAND=%albuminterpret%" -T "ALBUMARTIST=%albuminterpret%" -T "COMPOSER=%composer%" %haslyrics%--tag-from-file=LYRICS="%lyricsfile%"%haslyrics% -T "DISCNUMBER=%cdnumber%" -T "TOTALDISCS=%totalcds%" -T "TOTALTRACKS=%numtracks%" %hascover%--picture="%coverfile%"%hascover% %source% -o %dest%
TOC of the extracted CD
     Track |   Start  |  Length  | Start sector | End sector
    ---------------------------------------------------------
        1  |  0:00.00 |  3:57.71 |         0    |    17845
        2  |  3:57.71 |  3:42.31 |     17846    |    34526
        3  |  7:40.27 |  3:46.20 |     34527    |    51496
        4  | 11:26.47 |  3:56.62 |     51497    |    69258
        5  | 15:23.34 |  4:12.59 |     69259    |    88217
        6  | 19:36.18 |  3:10.31 |     88218    |   102498
        7  | 22:46.49 |  4:10.48 |    102499    |   121296
        8  | 26:57.22 |  4:02.39 |    121297    |   139485
        9  | 30:59.61 |  4:17.53 |    139486    |   158813
       10  | 35:17.39 |  3:07.01 |    158814    |   172839
       11  | 38:24.40 |  3:21.14 |    172840    |   187928
       12  | 41:45.54 |  4:58.68 |    187929    |   210346
       13  | 46:44.47 |  3:41.72 |    210347    |   226993
       14  | 50:26.44 |  4:22.25 |    226994    |   246668
       15  | 54:48.69 |  3:51.45 |    246669    |   264038
       16  | 58:40.39 |  3:49.40 |    264039    |   281253
       17  | 62:30.04 |  3:27.39 |    281254    |   296817
Range status and errors
Selected range
     Filename C:\Users\Deris\Desktop\kpnemo.eu\Sa-dra\CD1\Sandra - The Very Best Of Sandra - CD1.wav
     Peak level 98.5 %
     Extraction speed 1.8 X
     Range quality 100.0 %
     Test CRC 3F5E9ACB
     Copy CRC 3F5E9ACB
     Copy OK
No errors occurred
AccurateRip summary
Track  1  accurately ripped (confidence 4)  [D3F255E9]  (AR v2)
Track  2  accurately ripped (confidence 4)  [74FB5FEC]  (AR v2)
Track  3  accurately ripped (confidence 4)  [A87C1405]  (AR v2)
Track  4  accurately ripped (confidence 4)  [F6F47F60]  (AR v2)
Track  5  accurately ripped (confidence 4)  [88CCB5C2]  (AR v2)
Track  6  accurately ripped (confidence 4)  [C44DA078]  (AR v2)
Track  7  accurately ripped (confidence 4)  [D216307A]  (AR v2)
Track  8  accurately ripped (confidence 4)  [2EB92FB0]  (AR v2)
Track  9  accurately ripped (confidence 4)  [2BA8BC48]  (AR v2)
Track 10  accurately ripped (confidence 4)  [1AC902E3]  (AR v2)
Track 11  accurately ripped (confidence 4)  [A41D29EE]  (AR v2)
Track 12  accurately ripped (confidence 4)  [C92E7310]  (AR v2)
Track 13  accurately ripped (confidence 4)  [6DFDBFD2]  (AR v2)
Track 14  accurately ripped (confidence 4)  [01E5DE92]  (AR v2)
Track 15  accurately ripped (confidence 4)  [ED97C384]  (AR v2)
Track 16  accurately ripped (confidence 4)  [A11B6806]  (AR v2)
Track 17  accurately ripped (confidence 4)  [6C1E86CD]  (AR v2)
All tracks accurately ripped
End of status report
---- CUETools DB Plugin V2.1.3
[CTDB TOCID: RoVk_YH.YtGFtE_Df6iU1cO9BvY-] found, Submit result: RoVk_YH.YtGFtE_Df6iU1cO9BvY- has been confirmed
[1108b467] (21/22) Accurately ripped
[152f3bee] (01/22) No match
Код:
Exact Audio Copy V1.0 beta 3 from 29. August 2011
EAC extraction logfile from 31. October 2016, 23:38
SANDRA / The Very Best Of... (CD2)
Used drive  : PIONEER BD-RW   BDR-TD03   Adapter: 0  ID: 1
Read mode               : Secure
Utilize accurate stream : Yes
Defeat audio cache      : Yes
Make use of C2 pointers : No
Read offset correction                      : 667
Overread into Lead-In and Lead-Out          : No
Fill up missing offset samples with silence : Yes
Delete leading and trailing silent blocks   : No
Null samples used in CRC calculations       : Yes
Used interface                              : Native Win32 interface for Win NT & 2000
Used output format              : User Defined Encoder
Selected bitrate                : 768 kBit/s
Quality                         : High
Add ID3 tag                     : No
Command line compressor         : C:\Program Files (x86)\Exact Audio Copy\FLAC\FLAC.EXE
Additional command line options : -6 -V -T "ARTIST=%artist%" -T "TITLE=%title%" -T "ALBUM=%albumtitle%" -T "DATE=%year%" -T "TRACKNUMBER=%tracknr%" -T "GENRE=%genre%" -T "COMMENT=%comment%" -T "BAND=%albuminterpret%" -T "ALBUMARTIST=%albuminterpret%" -T "COMPOSER=%composer%" %haslyrics%--tag-from-file=LYRICS="%lyricsfile%"%haslyrics% -T "DISCNUMBER=%cdnumber%" -T "TOTALDISCS=%totalcds%" -T "TOTALTRACKS=%numtracks%" %hascover%--picture="%coverfile%"%hascover% %source% -o %dest%
TOC of the extracted CD
     Track |   Start  |  Length  | Start sector | End sector
    ---------------------------------------------------------
        1  |  0:00.00 |  4:40.24 |         0    |    21023
        2  |  4:40.24 |  4:04.37 |     21024    |    39360
        3  |  8:44.61 |  4:01.53 |     39361    |    57488
        4  | 12:46.39 |  3:48.03 |     57489    |    74591
        5  | 16:34.42 |  4:12.54 |     74592    |    93545
        6  | 20:47.21 |  3:16.27 |     93546    |   108272
        7  | 24:03.48 |  4:01.70 |    108273    |   126417
        8  | 28:05.43 |  2:52.66 |    126418    |   139383
        9  | 30:58.34 |  3:45.01 |    139384    |   156259
       10  | 34:43.35 |  3:34.15 |    156260    |   172324
       11  | 38:17.50 |  3:50.07 |    172325    |   189581
       12  | 42:07.57 |  4:25.55 |    189582    |   209511
       13  | 46:33.37 |  5:32.28 |    209512    |   234439
       14  | 52:05.65 |  4:26.47 |    234440    |   254436
       15  | 56:32.37 |  3:06.73 |    254437    |   268459
       16  | 59:39.35 |  3:58.51 |    268460    |   286360
       17  | 63:38.11 |  4:04.19 |    286361    |   304679
Range status and errors
Selected range
     Filename C:\Users\Deris\Desktop\kpnemo.eu\Sa-dra\cD2\SANDRA - The Very Best Of... (CD2).wav
     Peak level 98.5 %
     Extraction speed 4.9 X
     Range quality 99.9 %
     Test CRC CCDB465F
     Copy CRC CCDB465F
     Copy OK
No errors occurred
AccurateRip summary
Track  1  accurately ripped (confidence 4)  [2479DDDD]  (AR v2)
Track  2  accurately ripped (confidence 4)  [D98A182B]  (AR v2)
Track  3  accurately ripped (confidence 4)  [D791C445]  (AR v2)
Track  4  accurately ripped (confidence 4)  [A8A0BE9A]  (AR v2)
Track  5  accurately ripped (confidence 4)  [C05140AF]  (AR v2)
Track  6  accurately ripped (confidence 4)  [D1CC5B37]  (AR v2)
Track  7  accurately ripped (confidence 4)  [FC47C086]  (AR v2)
Track  8  accurately ripped (confidence 4)  [F8B40C83]  (AR v2)
Track  9  accurately ripped (confidence 4)  [9221A7E9]  (AR v2)
Track 10  accurately ripped (confidence 4)  [E56C55B6]  (AR v2)
Track 11  accurately ripped (confidence 4)  [C019A449]  (AR v2)
Track 12  accurately ripped (confidence 4)  [076A4957]  (AR v2)
Track 13  accurately ripped (confidence 4)  [FD987D2B]  (AR v2)
Track 14  accurately ripped (confidence 4)  [FFA1D728]  (AR v2)
Track 15  accurately ripped (confidence 4)  [AFBB51CC]  (AR v2)
Track 16  accurately ripped (confidence 4)  [B0755C9A]  (AR v2)
Track 17  accurately ripped (confidence 4)  [1FE54D46]  (AR v2)
All tracks accurately ripped
End of status report
---- CUETools DB Plugin V2.1.3
[CTDB TOCID: PLMAYwUBhQkYNJCee7nEIwenIjA-] found, Submit result: PLMAYwUBhQkYNJCee7nEIwenIjA- has been confirmed
[bf1066ce] (19/20) Accurately ripped
[32818d92] (01/20) No match
Код:
REM GENRE Pop
REM DATE 2016
REM DISCID F40F7511
REM COMMENT "ExactAudioCopy v1.0b3"
PERFORMER "Sandra"
TITLE "The Very Best Of Sandra - CD1"
FILE "Sandra - The Very Best Of Sandra - CD1.flac" WAVE
  TRACK 01 AUDIO
    TITLE "(I'll Never Be) Maria Magdalena"
    PERFORMER "Sandra"
    INDEX 01 00:00:00
  TRACK 02 AUDIO
    TITLE "Everlasting Love"
    PERFORMER "Sandra"
    INDEX 00 03:57:02
    INDEX 01 03:57:71
  TRACK 03 AUDIO
    TITLE "We'll Be Together"
    PERFORMER "Sandra"
    INDEX 00 07:39:42
    INDEX 01 07:40:27
  TRACK 04 AUDIO
    TITLE "In The Heat Of The Night"
    PERFORMER "Sandra"
    INDEX 00 11:25:53
    INDEX 01 11:26:47
  TRACK 05 AUDIO
    TITLE "Hiroshima"
    PERFORMER "Sandra"
    INDEX 00 15:22:43
    INDEX 01 15:23:34
  TRACK 06 AUDIO
    TITLE "Little Girl"
    PERFORMER "Sandra"
    INDEX 00 19:35:09
    INDEX 01 19:36:18
  TRACK 07 AUDIO
    TITLE "Hi! Hi! Hi!"
    PERFORMER "Sandra"
    INDEX 00 22:45:63
    INDEX 01 22:46:49
  TRACK 08 AUDIO
    TITLE "One More Night"
    PERFORMER "Sandra"
    INDEX 00 26:56:36
    INDEX 01 26:57:22
  TRACK 09 AUDIO
    TITLE "Such A Shame"
    PERFORMER "Sandra"
    INDEX 00 30:58:56
    INDEX 01 30:59:61
  TRACK 10 AUDIO
    TITLE "Maybe Tonight"
    PERFORMER "Sandra"
    INDEX 00 35:16:47
    INDEX 01 35:17:39
  TRACK 11 AUDIO
    TITLE "The Night Is Still Young"
    PERFORMER "Sandra featuring Thomas Anders"
    INDEX 00 38:22:64
    INDEX 01 38:24:40
  TRACK 12 AUDIO
    TITLE "All You Zombies"
    PERFORMER "Sandra"
    INDEX 00 41:44:29
    INDEX 01 41:45:54
  TRACK 13 AUDIO
    TITLE "La Vista De Luna"
    PERFORMER "Sandra"
    INDEX 00 46:43:35
    INDEX 01 46:44:47
  TRACK 14 AUDIO
    TITLE "Don't Be Aggressive "
    PERFORMER "Sandra"
    INDEX 00 50:25:43
    INDEX 01 50:26:44
  TRACK 15 AUDIO
    TITLE "Innocent Love "
    PERFORMER "Sandra"
    INDEX 00 54:47:54
    INDEX 01 54:48:69
  TRACK 16 AUDIO
    TITLE "Japan ist weit"
    PERFORMER "Sandra"
    INDEX 00 58:36:59
    INDEX 01 58:40:39
  TRACK 17 AUDIO
    TITLE "Sekunden"
    PERFORMER "Sandra"
    INDEX 00 62:28:71
    INDEX 01 62:30:04
Код:
REM GENRE Pop
REM DATE 2016
REM DISCID 180FDE11
REM COMMENT "ExactAudioCopy v1.0b3"
PERFORMER "SANDRA"
TITLE "The Very Best Of... (CD2)"
FILE "SANDRA - The Very Best Of... (CD2).flac" WAVE
  TRACK 01 AUDIO
    TITLE "Secret Land (1988)"
    PERFORMER "SANDRA"
    INDEX 01 00:00:00
  TRACK 02 AUDIO
    TITLE "Stop For A Minute (1987)"
    PERFORMER "SANDRA"
    INDEX 00 04:39:10
    INDEX 01 04:40:24
  TRACK 03 AUDIO
    TITLE "Heaven Can Wait (1988)"
    PERFORMER "SANDRA"
    INDEX 00 08:44:03
    INDEX 01 08:44:61
  TRACK 04 AUDIO
    TITLE "Johnny Wanna Live (single version) (1992)"
    PERFORMER "SANDRA"
    INDEX 00 12:45:13
    INDEX 01 12:46:39
  TRACK 05 AUDIO
    TITLE "Loreen (1986)"
    PERFORMER "SANDRA"
    INDEX 00 16:33:28
    INDEX 01 16:34:42
  TRACK 06 AUDIO
    TITLE "Around My Heart (1988)"
    PERFORMER "SANDRA"
    INDEX 00 20:46:21
    INDEX 01 20:47:21
  TRACK 07 AUDIO
    TITLE "You And I (edit) (1985)"
    PERFORMER "SANDRA"
    INDEX 00 24:02:35
    INDEX 01 24:03:48
  TRACK 08 AUDIO
    TITLE "Infinite Kiss (2012)"
    PERFORMER "SANDRA"
    INDEX 00 28:04:34
    INDEX 01 28:05:43
  TRACK 09 AUDIO
    TITLE "Forever (2001)"
    PERFORMER "SANDRA"
    INDEX 00 30:57:06
    INDEX 01 30:58:34
  TRACK 10 AUDIO
    TITLE "Nights In White Satin (1995)"
    PERFORMER "SANDRA"
    INDEX 00 34:42:41
    INDEX 01 34:43:35
  TRACK 11 AUDIO
    TITLE "Stay In Touch (2012)"
    PERFORMER "SANDRA"
    INDEX 00 38:16:58
    INDEX 01 38:17:50
  TRACK 12 AUDIO
    TITLE "You'll Be Mine (1986)"
    PERFORMER "SANDRA"
    INDEX 00 42:06:32
    INDEX 01 42:07:57
  TRACK 13 AUDIO
    TITLE "Just Like Diamonds (1988)"
    PERFORMER "SANDRA"
    INDEX 00 46:32:13
    INDEX 01 46:33:37
  TRACK 14 AUDIO
    TITLE "(Life May Be) A Big Insanity (1990)"
    PERFORMER "SANDRA"
    INDEX 00 52:04:32
    INDEX 01 52:05:65
  TRACK 15 AUDIO
    TITLE "Midnight Man (1986)"
    PERFORMER "SANDRA"
    INDEX 00 56:31:38
    INDEX 01 56:32:37
  TRACK 16 AUDIO
    TITLE "DJ Bobo & Sandra / Secrets Of Love (club mix radio edit) (2006)"
    PERFORMER "SANDRA"
    INDEX 00 59:36:03
    INDEX 01 59:39:35
  TRACK 17 AUDIO
    TITLE "In The Heat Of The Night (Tropical Future masQraider Remix) (2016)"
    PERFORMER "SANDRA"
    INDEX 00 63:36:68
    INDEX 01 63:38:11
--
Download / Скачать

Хотите скачать бесплатно? Зарегистрируйтесь на сайте (ссылка на регистрацию). Pirat.ca - самый быстрый торрент трекер в рунете!

Как скачивать  ·   Что такое торрент  ·   Рейтинг и ограничения

Показать сообщения:    
Ответить на тему

Текущее время: Сегодня 13:43

Часовой пояс: GMT + 4



Вы не можете начинать темы
Вы не можете отвечать на сообщения
Вы не можете редактировать свои сообщения
Вы не можете удалять свои сообщения
Вы не можете голосовать в опросах
Вы не можете прикреплять файлы к сообщениям
Вы не можете скачивать файлы

▼ Вниз