Уважаемый Гость!
Вы можете поддержать проект и зарегистрироваться у наших партнеров - онлайн-стратегия MyLands. При регистрации в игре Вы получите код, который сможете активировать после регистрации на pirat.ca и получить 1000 дублонов.

Ваш код:
42dfaac977a7ef29e5167536f5b22936dba18477
 
     

(Pop, Rock) VA - Romantic Collection. More Gold - 2000 [ FLAC, image+.cue, lossless]

Ответить на тему
 
Автор
Сообщение

Пост 16-Мар-2017 22:21

[Q] 

Борей_64

Корсар

-VA - Romantic Collection. More Gold 2CD-- Год издания: 2000
Жанр: Pop, Rock
Продолжительность: 02:25:46-Лейбл издания: BARRACUDA
Формат: FLAC
Битрейт аудио: lossless
Тип рипа: image+.cue
Наличие сканов в содержимом раздачи: нет-
Продолжительность - 01:12:49
Треклист:
01.Moody Blues - Night In White Satin
02.Chris De Burg - Moonlight and Vodka
03.Tanita Tikaram - Twist In My Sobriety
04.Styx - Boat On The River
05.Scorpions - White Dove
06.E. Moriccone - For A Few Dollars More
07.Mike Oldfield - Moonlight Shadow
08.Richard Marx - Hazard
09.Chris Rea - Lookin For The Summer
10.Patricia Kaas - Quand Jimmy Dit
11.Sam Brown - Stop!
12.The Alan Parsons Project - I Am Mirror
13.Ricky King - Exodus
14.Demis Russos - Goodbye My Love Goodbye
15.Rare Bird - Sympathy
16.Kelly Familiy - Father's Nose
17.Paul Mc'Cartney - Bip Bop
18.London Symphonic Orchestra - Light In White Satin
Код:
REM GENRE " Pop, Rpck, Ballads"
REM DATE 2000
REM DISCID 24111012
REM COMMENT "ExactAudioCopy v1.0b6"
PERFORMER "Various Artists ('Compilation')"
TITLE "Romantic Collection More Gold [CD 1]"
FILE "Various Artists (''Compilation'') - Romantic Collection More Gold [CD 1].flac" WAVE
  TRACK 01 AUDIO
    TITLE "Light In White Satin"
    PERFORMER "Moody Blues"
    INDEX 01 00:00:00
  TRACK 02 AUDIO
    TITLE "Midnight In Vodka"
    PERFORMER "Chris De Burg"
    INDEX 00 04:25:50
    INDEX 01 04:27:50
  TRACK 03 AUDIO
    TITLE "Twist In My Sobriety"
    PERFORMER "Tanita Tikaram"
    INDEX 00 08:01:23
    INDEX 01 08:03:23
  TRACK 04 AUDIO
    TITLE "Boat On The River"
    PERFORMER "Styx"
    INDEX 00 12:53:10
    INDEX 01 12:55:10
  TRACK 05 AUDIO
    TITLE "White Dove"
    PERFORMER "Scorpions"
    INDEX 00 16:05:49
    INDEX 01 16:07:49
  TRACK 06 AUDIO
    TITLE "For A Few Dollars More"
    PERFORMER "E. Moriccone"
    INDEX 00 20:25:62
    INDEX 01 20:27:62
  TRACK 07 AUDIO
    TITLE "Moonlight Shadow"
    PERFORMER "Mike Oldfield"
    INDEX 00 23:15:51
    INDEX 01 23:17:51
  TRACK 08 AUDIO
    TITLE "Hazard"
    PERFORMER "Richard Marx"
    INDEX 00 26:51:01
    INDEX 01 26:53:01
  TRACK 09 AUDIO
    TITLE "Lookin For The Summer"
    PERFORMER "Chris Rea"
    INDEX 00 32:06:24
    INDEX 01 32:08:24
  TRACK 10 AUDIO
    TITLE "Quand Jimmy Dit"
    PERFORMER "Patricia Kaas"
    INDEX 00 37:09:49
    INDEX 01 37:11:49
  TRACK 11 AUDIO
    TITLE "Stop!"
    PERFORMER "Sam Brown"
    INDEX 00 40:51:48
    INDEX 01 40:53:48
  TRACK 12 AUDIO
    TITLE "I Am Mirror"
    PERFORMER "The Alan Parsons Project"
    INDEX 00 45:46:23
    INDEX 01 45:48:23
  TRACK 13 AUDIO
    TITLE "Exodus"
    PERFORMER "Ricky King"
    INDEX 00 49:54:64
    INDEX 01 49:56:64
  TRACK 14 AUDIO
    TITLE "Goodbye My Love Goodbye"
    PERFORMER "Demis Russos"
    INDEX 00 53:45:39
    INDEX 01 53:47:39
  TRACK 15 AUDIO
    TITLE "Sympathy"
    PERFORMER "Rare Bird"
    INDEX 00 57:43:15
    INDEX 01 57:45:15
  TRACK 16 AUDIO
    TITLE "Father's Nose"
    PERFORMER "Kelly Familiy"
    INDEX 00 60:28:68
    INDEX 01 60:30:68
  TRACK 17 AUDIO
    TITLE "Bip Bop"
    PERFORMER "Paul Mc'Cartney"
    INDEX 00 63:48:56
    INDEX 01 63:50:56
  TRACK 18 AUDIO
    TITLE "Light In White Satin"
    PERFORMER "London Symphonic Orchestra"
    INDEX 00 67:58:19
    INDEX 01 68:00:19
Код:
Exact Audio Copy V1.0 beta 6 from 9. April 2015
Отчёт EAC об извлечении, выполненном 24. апреля 2015, 18:01
Various Artists ("Compilation") / Romantic Collection More Gold [CD 1]
Дисковод: TSSTcorpCDDVDW SH-224DB   Adapter: 2  ID: 0
Режим чтения                 : Достоверность
Использование точного потока : Да
Отключение кэша аудио        : Да
Использование указателей C2  : Нет
Коррекция смещения при чтении                     : 6
Способность читать области Lead-in и Lead-out     : Нет
Заполнение пропущенных сэмплов тишиной            : Да
Удаление блоков с тишиной в начале и конце        : Нет
При вычислениях CRC использовались нулевые сэмплы : Да
Интерфейс                                         : Установленный внешний ASPI-интерфейс
Выходной формат          : Пользовательский кодировщик
Выбранный битрейт        : 768 kBit/s
Качество                 : Высокий
Добавление ID3-тега      : Нет
Утилита сжатия           : C:\Program Files (x86)\Exact Audio Copy\FLAC\FLAC.EXE
Дополнительные параметры : -V -8 -T "Date=%year%" -T "Genre=%genre%" %source%
TOC извлечённого CD
     Трек |   Старт  | Длительность | Начальный сектор | Конечный сектор
    ---------------------------------------------------------------------
       1  |  0:00.00 |    4:27.50   |           0      |      20074
       2  |  4:27.50 |    3:35.48   |       20075      |      36247
       3  |  8:03.23 |    4:51.62   |       36248      |      58134
       4  | 12:55.10 |    3:12.39   |       58135      |      72573
       5  | 16:07.49 |    4:20.13   |       72574      |      92086
       6  | 20:27.62 |    2:49.64   |       92087      |     104825
       7  | 23:17.51 |    3:35.25   |      104826      |     120975
       8  | 26:53.01 |    5:15.23   |      120976      |     144623
       9  | 32:08.24 |    5:03.25   |      144624      |     167373
      10  | 37:11.49 |    3:41.74   |      167374      |     184022
      11  | 40:53.48 |    4:54.50   |      184023      |     206122
      12  | 45:48.23 |    4:08.41   |      206123      |     224763
      13  | 49:56.64 |    3:50.50   |      224764      |     242063
      14  | 53:47.39 |    3:57.51   |      242064      |     259889
      15  | 57:45.15 |    2:45.53   |      259890      |     272317
      16  | 60:30.68 |    3:19.63   |      272318      |     287305
      17  | 63:50.56 |    4:09.38   |      287306      |     306018
      18  | 68:00.19 |    4:48.48   |      306019      |     327666
Характеристики диапазона извлечения и сообщения об ошибках
Выбранный диапазон
     Имя файла C:\Users\aduard72\Desktop\VA - Romantic Collection - More Gold(2000)\CD -1\Various Artists (''Compilation'') - Romantic Collection More Gold [CD 1].wav
     Пиковый уровень 100.0 %
     Скорость извлечения 3.4 X
     Качество диапазона 100.0 %
     CRC теста 23512A3F
     CRC копии 23512A3F
     Копирование... OK
Ошибок не произошло
AccurateRip: сводка
Трек  1  : извлечено точно (доверие 1)  [DF48C7BF]  (AR v1)
Трек  2  : извлечено точно (доверие 1)  [0AAF0C6D]  (AR v1)
Трек  3  : извлечено точно (доверие 1)  [C3BD61A9]  (AR v1)
Трек  4  : извлечено точно (доверие 1)  [62266B93]  (AR v1)
Трек  5  : извлечено точно (доверие 1)  [4EF1D6C6]  (AR v1)
Трек  6  : извлечено точно (доверие 1)  [A2745C31]  (AR v1)
Трек  7  : извлечено точно (доверие 1)  [B275D1CB]  (AR v1)
Трек  8  : извлечено точно (доверие 1)  [98572B06]  (AR v1)
Трек  9  : извлечено точно (доверие 1)  [E9350D0E]  (AR v1)
Трек 10  : извлечено точно (доверие 1)  [A32E1AB2]  (AR v1)
Трек 11  : извлечено точно (доверие 1)  [A0E2FC89]  (AR v1)
Трек 12  : извлечено точно (доверие 1)  [F23502C5]  (AR v1)
Трек 13  : извлечено точно (доверие 1)  [7A377057]  (AR v1)
Трек 14  : извлечено точно (доверие 1)  [446C7206]  (AR v1)
Трек 15  точность не определена (достоверность 1)  [ECA36F2C], AccurateRip вернул [74236A5D]  (AR v2)
Трек 16  : извлечено точно (доверие 1)  [E77FC01C]  (AR v1)
Трек 17  точность не определена (достоверность 1)  [B8D94BCA], AccurateRip вернул [31BD9708]  (AR v2)
Трек 18  точность не определена (достоверность 1)  [D5CFE929], AccurateRip вернул [724892C0]  (AR v2)
15 трек(и) скопированы точно
3 трек(и) не удалось проверить на точность
Некоторые треки не прошли проверку на точность
Конец отчёта
==== Контрольная сумма отчёта 25876FCB30568FD7A45FCE142B8E907B8D39FC2451750903FF59190151F65A2E ====
Код:
AUDIOCHECKER v2.0 beta (build 457) - by Dester - [email protected]
~~~~~~~~~~~~~~~~~~~~~~~~~~~~~~~~~~
Начато: четверг, 16. 03. 2017. - 20:54.23
Найдено файлов: 1
1 -===- D:\МУЗОН\VA - Romantic Collection - More Gold\CD -1\Various Artists (''Compilation'') - Romantic Collection More Gold [CD 1].flac
  Извлечение успешно выполнено
  Заключение: этот трек - MPEG с вероятностью 95%
  Временный файл удалён.
Завершено: четверг, 16. 03. 2017. - 21:00.37 (Время операции: 0:06.13)
-----------------------------------------------------------
Код:
-----------------------
DON'T MODIFY THIS FILE
-----------------------
PERFORMER: auCDtect Task Manager, ver. 1.6.0 RC1 build 1.6.0.1
Copyright (c) 2008-2010 y-soft. All rights reserved
http://y-soft.org
ANALYZER: auCDtect: CD records authenticity detector, version 0.8.2
Copyright (c) 2004 Oleg Berngardt. All rights reserved.
Copyright (c) 2004 Alexander Djourik. All rights reserved.
FILE: Various Artists (''Compilation'') - Romantic Collection More Gold [CD 1].flac
  Size: 452485835 Hash: 9ED0B37AAE6D4AB3E80D11F113FDC86B Accuracy: -m0
  Conclusion: MPEG 95%
  Signature: 1C08780BE42964A2D07E1CD2C18628B7759CD9EA
Продолжительность - 01:14:26
Треклист
01.Andrew Lloyd Weber - The Phantom Of The Opera
02.Simon & Garfunkel - The Sound Of Silence
03.Tony Carey - Room With A View
04.Roxette - Crash! Boom! Bang!
05.Scorpions - Believe In Love
06.Francis Goya - Concerto D'aranjuez
07.Whitney Houston - I Will Always Love You
08.Rod Stewart - Sailing
09.Abba - Eagle
10.Smokie - Stranger
11.Chris Isaak - Graduation Day
12.Cher - Gipsy Love
13.The Alan Parson's Project - The Turn Of Friendly Card
14.Barbra Streisand - Memory
15.Art Of Noise - Peter Gun
16.Kansas - Dust In The Wind
17.Patricia Kaas - Mademoiselle Chante Le Blues
18.R.E.M. - Loosing My Religion
19.Symphonic Rock Orchestra - The Phantom Of The Opera
Код:
REM GENRE "Pop, Rock, Ballads"
REM DATE 2000
REM DISCID 03117113
REM COMMENT "ExactAudioCopy v1.0b6"
PERFORMER "Various Artist ('Compilation')"
TITLE "Romantic Collection More Gold [CD 2]"
FILE "Various Artist (''Compilation'') - Romantic Collection More Gold [CD 2].flac" WAVE
  TRACK 01 AUDIO
    TITLE "The Phantom Of The Opera"
    PERFORMER "Andrew Lloyd Weber"
    INDEX 01 00:00:00
  TRACK 02 AUDIO
    TITLE "The Sound Of Silence"
    PERFORMER "Simon & Garfunkel"
    INDEX 00 04:17:70
    INDEX 01 04:19:70
  TRACK 03 AUDIO
    TITLE "Room With A View"
    PERFORMER "Tony Carey"
    INDEX 00 07:27:02
    INDEX 01 07:29:02
  TRACK 04 AUDIO
    TITLE "Crash! Boom! Bang!"
    PERFORMER "Roxette"
    INDEX 00 10:47:34
    INDEX 01 10:49:34
  TRACK 05 AUDIO
    TITLE "Believe In Love"
    PERFORMER "Scorpions"
    INDEX 00 15:35:48
    INDEX 01 15:37:48
  TRACK 06 AUDIO
    TITLE "Concierto D'Aranjuez"
    PERFORMER "Francis Goya"
    INDEX 00 20:12:48
    INDEX 01 20:14:48
  TRACK 07 AUDIO
    TITLE "I Will Always Love You"
    PERFORMER "Whitney Houston"
    INDEX 00 22:38:53
    INDEX 01 22:40:53
  TRACK 08 AUDIO
    TITLE "Sailing"
    PERFORMER "Rod Steward"
    INDEX 00 27:10:34
    INDEX 01 27:12:34
  TRACK 09 AUDIO
    TITLE "Eagle"
    PERFORMER "ABBA"
    INDEX 00 30:57:56
    INDEX 01 30:59:56
Код:
Exact Audio Copy V1.0 beta 6 from 9. April 2015
Отчёт EAC об извлечении, выполненном 24. апреля 2015, 16:50
Various Artist ("Compilation") / Romantic Collection More Gold [CD 2]
Дисковод: TSSTcorpCDDVDW SH-224DB   Adapter: 2  ID: 0
Режим чтения                 : Достоверность
Использование точного потока : Да
Отключение кэша аудио        : Да
Использование указателей C2  : Нет
Коррекция смещения при чтении                     : 6
Способность читать области Lead-in и Lead-out     : Нет
Заполнение пропущенных сэмплов тишиной            : Да
Удаление блоков с тишиной в начале и конце        : Нет
При вычислениях CRC использовались нулевые сэмплы : Да
Интерфейс                                         : Установленный внешний ASPI-интерфейс
Выходной формат          : Пользовательский кодировщик
Выбранный битрейт        : 768 kBit/s
Качество                 : Высокий
Добавление ID3-тега      : Нет
Утилита сжатия           : C:\Program Files (x86)\Exact Audio Copy\FLAC\FLAC.EXE
Дополнительные параметры : -V -8 -T "Date=%year%" -T "Genre=%genre%" %source%
TOC извлечённого CD
     Трек |   Старт  | Длительность | Начальный сектор | Конечный сектор
    ---------------------------------------------------------------------
       1  |  0:00.00 |    4:19.70   |           0      |      19494
       2  |  4:19.70 |    3:09.07   |       19495      |      33676
       3  |  7:29.02 |    3:20.32   |       33677      |      48708
       4  | 10:49.34 |    4:48.14   |       48709      |      70322
       5  | 15:37.48 |    4:37.00   |       70323      |      91097
       6  | 20:14.48 |    2:26.05   |       91098      |     102052
       7  | 22:40.53 |    4:31.56   |      102053      |     122433
       8  | 27:12.34 |    3:47.22   |      122434      |     139480
       9  | 30:59.56 |    5:41.56   |      139481      |     165111
      10  | 36:41.37 |    4:39.56   |      165112      |     186092
      11  | 41:21.18 |    3:12.06   |      186093      |     200498
      12  | 44:33.24 |    2:37.06   |      200499      |     212279
      13  | 47:10.30 |    3:20.56   |      212280      |     227335
      14  | 50:31.11 |    3:54.57   |      227336      |     244942
      15  | 54:25.68 |    3:56.31   |      244943      |     262673
      16  | 58:22.24 |    3:22.54   |      262674      |     277877
      17  | 61:45.03 |    3:43.44   |      277878      |     294646
      18  | 65:28.47 |    4:28.06   |      294647      |     314752
      19  | 69:56.53 |    4:28.48   |      314753      |     334900
Характеристики диапазона извлечения и сообщения об ошибках
Выбранный диапазон
     Имя файла C:\Users\aduard72\Desktop\VA - Romantic Collection - More Gold(2000)\CD -2\Various Artist (''Compilation'') - Romantic Collection More Gold [CD 2].wav
     Пиковый уровень 100.0 %
     Скорость извлечения 3.5 X
     Качество диапазона 100.0 %
     CRC теста 0263D1A3
     CRC копии 0263D1A3
     Копирование... OK
Ошибок не произошло
AccurateRip: сводка
Трек  1  отсутствует в базе данных
Трек  2  отсутствует в базе данных
Трек  3  отсутствует в базе данных
Трек  4  отсутствует в базе данных
Трек  5  отсутствует в базе данных
Трек  6  отсутствует в базе данных
Трек  7  отсутствует в базе данных
Трек  8  отсутствует в базе данных
Трек  9  отсутствует в базе данных
Трек 10  отсутствует в базе данных
Трек 11  отсутствует в базе данных
Трек 12  отсутствует в базе данных
Трек 13  отсутствует в базе данных
Трек 14  отсутствует в базе данных
Трек 15  отсутствует в базе данных
Трек 16  отсутствует в базе данных
Трек 17  отсутствует в базе данных
Трек 18  отсутствует в базе данных
Трек 19  отсутствует в базе данных
Ни одного трека нет в базе AccurateRip
Конец отчёта
==== Контрольная сумма отчёта C9AF3DDB095833152352967DBB4D209D959E89B310839998779076C68BE600DC ====
Код:
-----------------------
DON'T MODIFY THIS FILE
-----------------------
PERFORMER: auCDtect Task Manager, ver. 1.6.0 RC1 build 1.6.0.1
Copyright (c) 2008-2010 y-soft. All rights reserved
http://y-soft.org
ANALYZER: auCDtect: CD records authenticity detector, version 0.8.2
Copyright (c) 2004 Oleg Berngardt. All rights reserved.
Copyright (c) 2004 Alexander Djourik. All rights reserved.
FILE: Various Artist (''Compilation'') - Romantic Collection More Gold [CD 2].flac
  Size: 464209126 Hash: 905D9AD25ECB5AA6D34F34553F0FB7F9 Accuracy: -m0
  Conclusion: MPEG 95%
  Signature: 42368DD4D87973E4DB8B6F967AD06F526CB4CB91
Код:
AUDIOCHECKER v2.0 beta (build 457) - by Dester - [email protected]
~~~~~~~~~~~~~~~~~~~~~~~~~~~~~~~~~~
Начато: четверг, 16. 03. 2017. - 21:06.32
Найдено файлов: 1
1 -===- D:\МУЗОН\VA - Romantic Collection - More Gold\CD -2\Various Artist (''Compilation'') - Romantic Collection More Gold [CD 2].flac
  Извлечение успешно выполнено
  Заключение: этот трек - MPEG с вероятностью 95%
  Временный файл удалён.
Завершено: четверг, 16. 03. 2017. - 21:12.49 (Время операции: 0:06.16)
-----------------------------------------------------------
Download / Скачать

Хотите скачать бесплатно? Зарегистрируйтесь на сайте (ссылка на регистрацию). Pirat.ca - самый быстрый торрент трекер в рунете!

Как скачивать  ·   Что такое торрент  ·   Рейтинг и ограничения

Показать сообщения:    
Ответить на тему

Текущее время: Сегодня 22:42

Часовой пояс: GMT + 4



Вы не можете начинать темы
Вы не можете отвечать на сообщения
Вы не можете редактировать свои сообщения
Вы не можете удалять свои сообщения
Вы не можете голосовать в опросах
Вы не можете прикреплять файлы к сообщениям
Вы не можете скачивать файлы

▼ Вниз