Уважаемый Гость!
Вы можете поддержать проект и зарегистрироваться у наших партнеров - онлайн-стратегия MyLands. При регистрации в игре Вы получите код, который сможете активировать после регистрации на pirat.ca и получить 1000 дублонов.

Ваш код:
6e74277781110e9b49c3c0dd24e1bed54391613e
 
     

(Disco, Pop) VA - Romantic Collection - Disco (2CD) - 2002 [APE, image+.cue, lossless]

Ответить на тему
 
Автор
Сообщение

Пост 17-Мар-2017 23:34

[Q] 

Борей_64

Корсар

-Romantic Collection - Disco (2CD)-- Год издания: 2002
Страна: Россия
Жанр: Disco, Pop
Продолжительность: CD1(01:17:57) & CD2(01:17:37)-Формат: APE
Битрейт аудио: lossless
Тип рипа: image+.cue
Наличие сканов в содержимом раздачи: да-
Трэклист
01 - Chris De Burgh - Lady In Red [4:19]
02 - Chris Norman & Suzi Quatro - Stumblin' In [3:58]
03 - F.R. David - Words [3:26]
04 - ABBA - Money, Money, Money [3:09]
05 - Modern Talking - Cheri Cheri Lady [3:48]
06 - Baccara - Cara Mia [2:59]
07 - Joy - Touch By Touch [3:46]
08 - Secret Service - Ten O'Clock Postman [3:18]
09 - Savage - Only You [3:44]
10 - Desireless - Voyage, Voyage [4:23]
11 - Ottawan - Hands Up [4:47]
12 - Bad Boys Blue - You're A Woman [3:58]
13 - Boney M - Sunny [4:00]
14 - Arabesque - Midnight Dancer [3:40]
15 - Pet Shop Boys - It's A Sin [5:00]
16 - Kim Wilde - Cambodia [3:57]
17 - Eruption - One Way Ticket [3:36]
18 - Sabrina - Boys [3:56]
19 - Eurythmics - Sweet Dreams [4:54]
20 - Pin-Occhio - Pin-Occhio [3:12]
Код:
REM GENRE Disco
REM DATE 2002
REM DISCID 1F124514
REM COMMENT "ExactAudioCopy v0.99pb5"
PERFORMER "Various"
TITLE "Romantic Collection Disco Disk1"
FILE "Various - Romantic Collection Disco Disk1.ape" WAVE
  TRACK 01 AUDIO
    TITLE "Chris De Burgh - Lady In Red"
    PERFORMER "Chris De Burgh - Lady In Red"
    INDEX 00 00:00:00
    INDEX 01 00:00:25
  TRACK 02 AUDIO
    TITLE "Chris Norman & Suzi Quatro - Stumblin' In"
    PERFORMER "Chris Norman & Suzi Quatro - Stumblin' In"
    INDEX 00 04:17:25
    INDEX 01 04:19:25
  TRACK 03 AUDIO
    TITLE "F.R. David - Words"
    PERFORMER "F.R. David - Words"
    INDEX 00 08:15:25
    INDEX 01 08:17:25
  TRACK 04 AUDIO
    TITLE "ABBA - Money, Money, Money"
    PERFORMER "ABBA - Money, Money, Money"
    INDEX 00 11:42:25
    INDEX 01 11:44:12
  TRACK 05 AUDIO
    TITLE "Modern Talking - Cheri Cheri Lady"
    PERFORMER "Modern Talking - Cheri Cheri Lady"
    INDEX 00 14:51:25
    INDEX 01 14:53:25
  TRACK 06 AUDIO
    TITLE "Baccara - Cara Mia"
    PERFORMER "Baccara - Cara Mia"
    INDEX 00 18:40:25
    INDEX 01 18:41:37
  TRACK 07 AUDIO
    TITLE "Joy - Touch By Touch"
    PERFORMER "Joy - Touch By Touch"
    INDEX 00 21:39:25
    INDEX 01 21:40:62
  TRACK 08 AUDIO
    TITLE "Secret Service - Ten O'Clock Postman"
    PERFORMER "Secret Service - Ten O'Clock Postman"
    INDEX 00 25:26:00
    INDEX 01 25:27:25
  TRACK 09 AUDIO
    TITLE "Savage - Only You"
    PERFORMER "Savage - Only You"
    INDEX 00 28:44:25
    INDEX 01 28:46:00
  TRACK 10 AUDIO
    TITLE "Desireless - Voyage, Voyage"
    PERFORMER "Desireless - Voyage, Voyage"
    INDEX 00 32:28:25
    INDEX 01 32:30:00
  TRACK 11 AUDIO
    TITLE "Ottawan - Hands Up"
    PERFORMER "Ottawan - Hands Up"
    INDEX 00 36:51:50
    INDEX 01 36:53:25
  TRACK 12 AUDIO
    TITLE "Bad Boys Blue - You're A Woman"
    PERFORMER "Bad Boys Blue - You're A Woman"
    INDEX 00 41:39:25
    INDEX 01 41:40:62
  TRACK 13 AUDIO
    TITLE "Boney M - Sunny"
    PERFORMER "Boney M - Sunny"
    INDEX 00 45:37:50
    INDEX 01 45:39:12
  TRACK 14 AUDIO
    TITLE "Arabesque - Midnight Dancer"
    PERFORMER "Arabesque - Midnight Dancer"
    INDEX 00 49:37:24
    INDEX 01 49:39:12
  TRACK 15 AUDIO
    TITLE "Pet Shop Boys - It's A Sin"
    PERFORMER "Pet Shop Boys - It's A Sin"
    INDEX 00 53:18:00
    INDEX 01 53:19:50
  TRACK 16 AUDIO
    TITLE "Kim Wilde - Cambodia"
    PERFORMER "Kim Wilde - Cambodia"
    INDEX 00 58:18:25
    INDEX 01 58:20:00
  TRACK 17 AUDIO
    TITLE "Eruption - One Way Ticket"
    PERFORMER "Eruption - One Way Ticket"
    INDEX 00 62:15:25
    INDEX 01 62:17:50
  TRACK 18 AUDIO
    TITLE "Sabrina - Boys"
    PERFORMER "Sabrina - Boys"
    INDEX 00 65:51:25
    INDEX 01 65:54:00
  TRACK 19 AUDIO
    TITLE "Eurythmics - Sweet Dreams"
    PERFORMER "Eurythmics - Sweet Dreams"
    INDEX 00 69:48:50
    INDEX 01 69:50:37
  TRACK 20 AUDIO
    TITLE "Pin-Occhio - Pin-Occhio"
    PERFORMER "Pin-Occhio - Pin-Occhio"
    INDEX 00 74:44:00
    INDEX 01 74:45:25
Код:
Exact Audio Copy V0.99 prebeta 5 from 4. May 2009
Отчёт EAC об извлечении, выполненном 9. ноября 2009, 13:56
Various / Romantic Collection Disco Disk1
Дисковод: HL-DT-STDVD-RAM GH22NS30   Adapter: 3  ID: 0
Режим чтения                 : Достоверность
Использование точного потока : Да
Отключение кэша аудио        : Да
Использование указателей C2  : Нет
Коррекция смещения при чтении                     : 102
Способность читать области Lead-in и Lead-out     : Нет
Заполнение пропущенных сэмплов тишиной            : Да
Удаление блоков с тишиной в начале и конце        : Нет
При вычислениях CRC использовались нулевые сэмплы : Да
Интерфейс                                         : Установленный внешний ASPI-интерфейс
Выходной формат : Внутренние WAV-операции
Формат сэмплов  : 44.100 Гц; 16 бит; стерео
TOC извлечённого CD
     Трек |   Старт  | Длительность | Начальный сектор | Конечный сектор
    ---------------------------------------------------------------------
       1  |  0:00.25 |    4:19.00   |          25      |      19449
       2  |  4:19.25 |    3:58.00   |       19450      |      37299
       3  |  8:17.25 |    3:26.62   |       37300      |      52811
       4  | 11:44.12 |    3:09.13   |       52812      |      66999
       5  | 14:53.25 |    3:48.12   |       67000      |      84111
       6  | 18:41.37 |    2:59.25   |       84112      |      97561
       7  | 21:40.62 |    3:46.38   |       97562      |     114549
       8  | 25:27.25 |    3:18.50   |      114550      |     129449
       9  | 28:46.00 |    3:44.00   |      129450      |     146249
      10  | 32:30.00 |    4:23.25   |      146250      |     165999
      11  | 36:53.25 |    4:47.37   |      166000      |     187561
      12  | 41:40.62 |    3:58.25   |      187562      |     205436
      13  | 45:39.12 |    4:00.00   |      205437      |     223436
      14  | 49:39.12 |    3:40.38   |      223437      |     239974
      15  | 53:19.50 |    5:00.25   |      239975      |     262499
      16  | 58:20.00 |    3:57.50   |      262500      |     280324
      17  | 62:17.50 |    3:36.25   |      280325      |     296549
      18  | 65:54.00 |    3:56.37   |      296550      |     314286
      19  | 69:50.37 |    4:54.63   |      314287      |     336399
      20  | 74:45.25 |    3:12.00   |      336400      |     350799
Характеристики диапазона извлечения и сообщения об ошибках
Выбранный диапазон
     Имя файла C:\Users\[email protected]\Desktop\Romantic Collection - Disco(CD1)[lossless]\Various - Romantic Collection Disco Disk1.wav
     Пиковый уровень 100.0 %
     Качество диапазона 100.0 %
     CRC теста 455B7936
     CRC копии 455B7936
     Копирование... OK
Ошибок не произошло
AccurateRip: сводка
Трек  1  нет в базе данных
Трек  2  нет в базе данных
Трек  3  нет в базе данных
Трек  4  нет в базе данных
Трек  5  нет в базе данных
Трек  6  нет в базе данных
Трек  7  нет в базе данных
Трек  8  нет в базе данных
Трек  9  нет в базе данных
Трек 10  нет в базе данных
Трек 11  нет в базе данных
Трек 12  нет в базе данных
Трек 13  нет в базе данных
Трек 14  нет в базе данных
Трек 15  нет в базе данных
Трек 16  нет в базе данных
Трек 17  нет в базе данных
Трек 18  нет в базе данных
Трек 19  нет в базе данных
Трек 20  нет в базе данных
Ни одного трека нет в базе AccurateRip
Конец отчёта
Код:
AUDIOCHECKER v2.0 beta (build 457) - by Dester - [email protected]
~~~~~~~~~~~~~~~~~~~~~~~~~~~~~~~~~~
Начато: пятница, 17. 03. 2017. - 21:01.41
Найдено файлов: 1
1 -===- D:\МУЗОН\VA - Romantic Collection - Disco\Romantic Collection - Disco(CD1)[lossless]\Various - Romantic Collection Disco Disk1.ape
  Извлечение успешно выполнено
  Заключение: этот трек - MPEG с вероятностью 95%
  Временный файл удалён.
Завершено: пятница, 17. 03. 2017. - 21:08.34 (Время операции: 0:06.53)
Код:
-----------------------
DON'T MODIFY THIS FILE
-----------------------
PERFORMER: auCDtect Task Manager, ver. 1.6.0 RC1 build 1.6.0.1
Copyright (c) 2008-2010 y-soft. All rights reserved
http://y-soft.org
ANALYZER: auCDtect: CD records authenticity detector, version 0.8.2
Copyright (c) 2004 Oleg Berngardt. All rights reserved.
Copyright (c) 2004 Alexander Djourik. All rights reserved.
FILE: Various - Romantic Collection Disco Disk1.ape
  Size: 490520156 Hash: FCB922EDC1712DF1354621AB37269FEC Accuracy: -m0
  Conclusion: MPEG 95%
  Signature: F01768E2DF461E48B2C6D8DF67FB4271E8570E7E
Трэклист
01 - Space - Just Blue [4:33]
02 - Mr.Zivago - Little Russian [4:42]
03 - GRB - Marrakesh [4:49]
04 - Christie - Yellow River [2:32]
05 - Joe Dassin - Le Chemin De Papa [2:29]
06 - Rafaella Carra - Do It Do It Again [2:44]
07 - Julio Iglesias - Amor [3:22]
08 - Afric Simone - Hafanana [2:55]
09 - Kaoma - Dancando Lambada [3:25]
10 - Los Lobos & Antonio Banderas - Cancion Dei Mariachi [2:06]
11 - Afric Simone - To Do Pasara Maria [3:14]
12 - Maywood - Pasadena [3:33]
13 - Vaya Con Dios - Nah Nah Nah [2:55]
14 - Al Bano & Romina Power - Felicita [3:15]
15 - Toto Cutugno - L'Italiano [3:55]
16 - Art Company - Suzana [4:50]
17 - Opus - Life Is Life [4:06]
18 - Bobby McFerryn - Don't Worry, Be Happy [4:48]
19 - Mary Hopkins - Those Where The Days [5:00]
20 - Joe Esposito - Lady, Lady [4:09]
21 - Symphomic Rock Orchestra - Lady In Red [4:07]
Код:
REM GENRE Disco
REM DATE 2002
REM DISCID 2C123115
REM COMMENT "ExactAudioCopy v0.99pb5"
PERFORMER "Various"
TITLE "Romantic Collection Disco Disk2"
FILE "Various - Romantic Collection Disco Disk2.ape" WAVE
  TRACK 01 AUDIO
    TITLE "Space - Just Blue"
    PERFORMER "Space - Just Blue"
    INDEX 01 00:00:00
  TRACK 02 AUDIO
    TITLE "Mr.Zivago - Little Russian"
    PERFORMER "Mr.Zivago - Little Russian"
    INDEX 01 04:33:13
  TRACK 03 AUDIO
    TITLE "GDB - Marrakesh"
    PERFORMER "GDB - Marrakesh"
    INDEX 01 09:15:63
  TRACK 04 AUDIO
    TITLE "Christie - Yellow River"
    PERFORMER "Christie - Yellow River"
    INDEX 01 14:05:40
  TRACK 05 AUDIO
    TITLE "Joe Dassin - Le Chemin De Papa"
    PERFORMER "Joe Dassin - Le Chemin De Papa"
    INDEX 01 16:37:65
  TRACK 06 AUDIO
    TITLE "Rafaella Carra - Do It Do It Again"
    PERFORMER "Rafaella Carra - Do It Do It Again"
    INDEX 01 19:07:15
  TRACK 07 AUDIO
    TITLE "Julio Iglesias - Amor"
    PERFORMER "Julio Iglesias - Amor"
    INDEX 01 21:51:40
  TRACK 08 AUDIO
    TITLE "Afric Simone - Hafanana"
    PERFORMER "Afric Simone - Hafanana"
    INDEX 01 25:14:15
  TRACK 09 AUDIO
    TITLE "Kaoma - Dancando Lambada"
    PERFORMER "Kaoma - Dancando Lambada"
    INDEX 01 28:09:65
  TRACK 10 AUDIO
    TITLE "Los Lobos & Antonio Banderas - Cancion Dei Mariachi"
    PERFORMER "Los Lobos & Antonio Banderas - Cancion Dei Mariachi"
    INDEX 01 31:35:02
  TRACK 11 AUDIO
    TITLE "Afric Simone - To Do Pasara Maria"
    PERFORMER "Afric Simone - To Do Pasara Maria"
    INDEX 01 33:41:15
  TRACK 12 AUDIO
    TITLE "Maywood - Pasadena"
    PERFORMER "Maywood - Pasadena"
    INDEX 01 36:55:52
  TRACK 13 AUDIO
    TITLE "Vaya Con Dios - Nah Nah Nah"
    PERFORMER "Vaya Con Dios - Nah Nah Nah"
    INDEX 01 40:29:15
  TRACK 14 AUDIO
    TITLE "Al Bano & Romina Power - Felicita"
    PERFORMER "Al Bano & Romina Power - Felicita"
    INDEX 01 43:24:27
  TRACK 15 AUDIO
    TITLE "Toto Cutugno - L'Italiano"
    PERFORMER "Toto Cutugno - L'Italiano"
    INDEX 01 46:39:65
  TRACK 16 AUDIO
    TITLE "Art Company - Suzana"
    PERFORMER "Art Company - Suzana"
    INDEX 01 50:35:40
  TRACK 17 AUDIO
    TITLE "Opus - Life Is Life"
    PERFORMER "Opus - Life Is Life"
    INDEX 01 55:25:40
  TRACK 18 AUDIO
    TITLE "Bobby McFerrin - Don't Worry, Be Happy"
    PERFORMER "Bobby McFerrin - Don't Worry, Be Happy"
    INDEX 01 59:31:40
  TRACK 19 AUDIO
    TITLE "Mary Hopkins - Those Where The Days"
    PERFORMER "Mary Hopkins - Those Where The Days"
    INDEX 01 64:20:09
  TRACK 20 AUDIO
    TITLE "Joe Esposito - Lady, Lady"
    PERFORMER "Joe Esposito - Lady, Lady"
    INDEX 01 69:20:47
  TRACK 21 AUDIO
    TITLE "Symphomic Rock Orchestra - Lady In Red"
    PERFORMER "Symphomic Rock Orchestra - Lady In Red"
    INDEX 01 73:29:72
Код:
Exact Audio Copy V0.99 prebeta 5 from 4. May 2009
Отчёт EAC об извлечении, выполненном 9. ноября 2009, 15:04
Various / Romantic Collection Disco Disk2
Дисковод: HL-DT-STDVD-RAM GH22NS30   Adapter: 3  ID: 0
Режим чтения                 : Достоверность
Использование точного потока : Да
Отключение кэша аудио        : Да
Использование указателей C2  : Нет
Коррекция смещения при чтении                     : 102
Способность читать области Lead-in и Lead-out     : Нет
Заполнение пропущенных сэмплов тишиной            : Да
Удаление блоков с тишиной в начале и конце        : Нет
При вычислениях CRC использовались нулевые сэмплы : Да
Интерфейс                                         : Установленный внешний ASPI-интерфейс
Выходной формат : Внутренние WAV-операции
Формат сэмплов  : 44.100 Гц; 16 бит; стерео
TOC извлечённого CD
     Трек |   Старт  | Длительность | Начальный сектор | Конечный сектор
    ---------------------------------------------------------------------
       1  |  0:00.00 |    4:33.13   |           0      |      20487
       2  |  4:33.13 |    4:42.50   |       20488      |      41687
       3  |  9:15.63 |    4:49.52   |       41688      |      63414
       4  | 14:05.40 |    2:32.25   |       63415      |      74839
       5  | 16:37.65 |    2:29.25   |       74840      |      86039
       6  | 19:07.15 |    2:44.25   |       86040      |      98364
       7  | 21:51.40 |    3:22.50   |       98365      |     113564
       8  | 25:14.15 |    2:55.50   |      113565      |     126739
       9  | 28:09.65 |    3:25.12   |      126740      |     142126
      10  | 31:35.02 |    2:06.13   |      142127      |     151589
      11  | 33:41.15 |    3:14.37   |      151590      |     166176
      12  | 36:55.52 |    3:33.38   |      166177      |     182189
      13  | 40:29.15 |    2:55.12   |      182190      |     195326
      14  | 43:24.27 |    3:15.38   |      195327      |     209989
      15  | 46:39.65 |    3:55.50   |      209990      |     227664
      16  | 50:35.40 |    4:50.00   |      227665      |     249414
      17  | 55:25.40 |    4:06.00   |      249415      |     267864
      18  | 59:31.40 |    4:48.44   |      267865      |     289508
      19  | 64:20.09 |    5:00.38   |      289509      |     312046
      20  | 69:20.47 |    4:09.25   |      312047      |     330746
      21  | 73:29.72 |    4:07.44   |      330747      |     349315
Характеристики диапазона извлечения и сообщения об ошибках
Выбранный диапазон
     Имя файла C:\Users\[email protected]\Desktop\Romantic Collection - Disco(CD2)[lossless]\Various - Romantic Collection Disco Disk2.wav
     Пиковый уровень 100.0 %
     Качество диапазона 99.9 %
     CRC теста 1DB16A0B
     CRC копии 1DB16A0B
     Копирование... OK
Ошибок не произошло
AccurateRip: сводка
Трек  1  нет в базе данных
Трек  2  нет в базе данных
Трек  3  нет в базе данных
Трек  4  нет в базе данных
Трек  5  нет в базе данных
Трек  6  нет в базе данных
Трек  7  нет в базе данных
Трек  8  нет в базе данных
Трек  9  нет в базе данных
Трек 10  нет в базе данных
Трек 11  нет в базе данных
Трек 12  нет в базе данных
Трек 13  нет в базе данных
Трек 14  нет в базе данных
Трек 15  нет в базе данных
Трек 16  нет в базе данных
Трек 17  нет в базе данных
Трек 18  нет в базе данных
Трек 19  нет в базе данных
Трек 20  нет в базе данных
Трек 21  нет в базе данных
Ни одного трека нет в базе AccurateRip
Конец отчёта
Код:
AUDIOCHECKER v2.0 beta (build 457) - by Dester - [email protected]
~~~~~~~~~~~~~~~~~~~~~~~~~~~~~~~~~~
Начато: пятница, 17. 03. 2017. - 21:10.42
Найдено файлов: 1
1 -===- D:\МУЗОН\VA - Romantic Collection - Disco\Romantic Collection - Disco(CD2)[lossless]\Various - Romantic Collection Disco Disk2.ape
  Извлечение успешно выполнено
  Заключение: этот трек - MPEG с вероятностью 100%
  Временный файл удалён.
Завершено: пятница, 17. 03. 2017. - 21:18.40 (Время операции: 0:07.58)
Код:
-----------------------
DON'T MODIFY THIS FILE
-----------------------
PERFORMER: auCDtect Task Manager, ver. 1.6.0 RC1 build 1.6.0.1
Copyright (c) 2008-2010 y-soft. All rights reserved
http://y-soft.org
ANALYZER: auCDtect: CD records authenticity detector, version 0.8.2
Copyright (c) 2004 Oleg Berngardt. All rights reserved.
Copyright (c) 2004 Alexander Djourik. All rights reserved.
FILE: Various - Romantic Collection Disco Disk2.ape
  Size: 493273384 Hash: C9B818DDC33E4C8F3F69D3A2C2E32CE9 Accuracy: -m0
  Conclusion: CDDA 100%
  Signature: 7A15FC5036BD322A2603B904AE470AA571399CC2
Download / Скачать

Хотите скачать бесплатно? Зарегистрируйтесь на сайте (ссылка на регистрацию). Pirat.ca - самый быстрый торрент трекер в рунете!

Как скачивать  ·   Что такое торрент  ·   Рейтинг и ограничения

Показать сообщения:    
Ответить на тему

Текущее время: Сегодня 13:42

Часовой пояс: GMT + 4



Вы не можете начинать темы
Вы не можете отвечать на сообщения
Вы не можете редактировать свои сообщения
Вы не можете удалять свои сообщения
Вы не можете голосовать в опросах
Вы не можете прикреплять файлы к сообщениям
Вы не можете скачивать файлы

▼ Вниз