Уважаемый Гость!
Вы можете поддержать проект и зарегистрироваться у наших партнеров - онлайн-стратегия MyLands. При регистрации в игре Вы получите код, который сможете активировать после регистрации на pirat.ca и получить 1000 дублонов.

Ваш код:
6e74277781110e9b49c3c0dd24e1bed54391613e
 
     

(Pop,Rock / Ballad) VA - Romantic Collection Vol. 2 [FLAC, image+.cue, lossless]

Ответить на тему
 
Автор
Сообщение

Пост 19-Мар-2017 09:43

[Q] 

Борей_64

Корсар

-Romantic Collection Vol. 2 -- Год издания: 1995
Жанр: Pop,Rock / Ballad
Продолжительность: 01:12:25-Лейбл издания: Квадро-Диск
Номер по каталогу: AVA 075
Формат: FLAC
Битрейт аудио: lossless
Тип рипа: image+.cue
Наличие сканов в содержимом раздачи: да-
01. Queen - Killer Queen (3:02)
02. Smokie - What Can I Do (3:40)
03. Helloween - A Take That Wasn't Right (4:46)
04. Nino Rosso - La Canzone Di Solving (2:32)
05. Chris Norman - Midnight Lady (4:12)
06. Jason Donovan - Sealed With A Kiss (2:35)
07. Gilla - Johnny (3:50)
08. Ennio Morricone - Once Upon A Time In America (4:22)
09. Foreigner - I Want To Know What Love Is (5:07)
10. Chris Isaak - Wieked Game (4:51)
11. Chris Rea - Road To Hell (4:35)
12. Sting - Fields Of Gold (3:45)
13. Berlin - Take My Breath Away (4:17)
14. Paul Mauriat - Parapluies De Cherbury (2:50)
15. Joe Dassin - Et Si Tu N'Existais... (3:29)
16. Fausto Papetti - Windmilles Of Tour Mired (3:10)
17. Michael Jackson - She Is Out Of My Love (3:40)
18. Sade - Fear (4:11)
19. The Royal Philarmonic Orchestra - Killer Queen (3:29)
Код:
Exact Audio Copy V1.0 beta 3 from 29. August 2011
EAC extraction logfile from 25. August 2014, 20:05
Various / Romantic Collection Vol. 2
Used drive  : PIONEER DVD-RW  DVR-118L   Adapter: 0  ID: 0
Read mode               : Secure
Utilize accurate stream : Yes
Defeat audio cache      : Yes
Make use of C2 pointers : No
Read offset correction                      : 6
Overread into Lead-In and Lead-Out          : No
Fill up missing offset samples with silence : Yes
Delete leading and trailing silent blocks   : No
Null samples used in CRC calculations       : Yes
Used interface                              : Installed external ASPI interface
Used output format : Internal WAV Routines
Sample format      : 44.100 Hz; 16 Bit; Stereo
TOC of the extracted CD
     Track |   Start  |  Length  | Start sector | End sector
    ---------------------------------------------------------
        1  |  0:00.25 |  3:02.25 |        25    |    13699
        2  |  3:02.50 |  3:40.12 |     13700    |    30211
        3  |  6:42.62 |  4:45.50 |     30212    |    51636
        4  | 11:28.37 |  2:31.38 |     51637    |    62999
        5  | 14:00.00 |  4:12.00 |     63000    |    81899
        6  | 18:12.00 |  2:35.25 |     81900    |    93549
        7  | 20:47.25 |  3:50.25 |     93550    |   110824
        8  | 24:37.50 |  4:22.25 |    110825    |   130499
        9  | 29:00.00 |  5:06.50 |    130500    |   153499
       10  | 34:06.50 |  4:51.37 |    153500    |   175361
       11  | 38:58.12 |  4:34.38 |    175362    |   195949
       12  | 43:32.50 |  3:45.00 |    195950    |   212824
       13  | 47:17.50 |  4:17.00 |    212825    |   232099
       14  | 51:34.50 |  2:50.25 |    232100    |   244874
       15  | 54:25.00 |  3:29.00 |    244875    |   260549
       16  | 57:54.00 |  3:10.25 |    260550    |   274824
       17  | 61:04.25 |  3:40.25 |    274825    |   291349
       18  | 64:44.50 |  4:11.25 |    291350    |   310199
       19  | 68:56.00 |  3:29.00 |    310200    |   325874
Range status and errors
Selected range
     Filename D:\music\Lossless-flac.com\Various - Romantic Collection Vol. 2.wav
     Peak level 95.1 %
     Extraction speed 1.6 X
     Range quality 100.0 %
     Test CRC 5D709EA0
     Copy CRC 5D709EA0
     Copy OK
No errors occurred
AccurateRip summary
Track  1  accurately ripped (confidence 5)  [06C990E3]  (AR v1)
Track  2  accurately ripped (confidence 6)  [DA71E5E1]  (AR v1)
Track  3  accurately ripped (confidence 5)  [AE7AE6EA]  (AR v1)
Track  4  accurately ripped (confidence 5)  [BD74C12B]  (AR v1)
Track  5  accurately ripped (confidence 5)  [10712276]  (AR v1)
Track  6  accurately ripped (confidence 5)  [7D25FA3D]  (AR v1)
Track  7  accurately ripped (confidence 5)  [EF794E30]  (AR v1)
Track  8  accurately ripped (confidence 5)  [394E53BE]  (AR v1)
Track  9  accurately ripped (confidence 5)  [12D957B8]  (AR v1)
Track 10  accurately ripped (confidence 5)  [3D77E0F4]  (AR v1)
Track 11  accurately ripped (confidence 5)  [CCFAC560]  (AR v1)
Track 12  accurately ripped (confidence 5)  [EE8F46E7]  (AR v1)
Track 13  accurately ripped (confidence 5)  [F37AC601]  (AR v1)
Track 14  accurately ripped (confidence 5)  [18DC60F0]  (AR v1)
Track 15  accurately ripped (confidence 5)  [AE6BF893]  (AR v1)
Track 16  accurately ripped (confidence 5)  [511AC233]  (AR v1)
Track 17  accurately ripped (confidence 5)  [ECE577B7]  (AR v1)
Track 18  accurately ripped (confidence 5)  [9EA57DED]  (AR v1)
Track 19  accurately ripped (confidence 5)  [9395FA64]  (AR v1)
All tracks accurately ripped
End of status report
Код:
REM GENRE Ballad
REM DATE 1995
REM DISCID 2610F913
REM COMMENT ExactAudioCopy v1.0b3
PERFORMER "Various"
TITLE "Romantic Collection Vol. 2"
FILE "Various - Romantic Collection Vol. 2.flac" WAVE
  TRACK 01 AUDIO
    TITLE "Killer Queen"
    PERFORMER "Queen"
    INDEX 00 00:00:00
    INDEX 01 00:00:25
  TRACK 02 AUDIO
    TITLE "What Can I Do"
    PERFORMER "Smokie"
    INDEX 00 03:00:25
    INDEX 01 03:02:50
  TRACK 03 AUDIO
    TITLE "A Take That Wasn't Right"
    PERFORMER "Helloween"
    INDEX 00 06:39:25
    INDEX 01 06:42:62
  TRACK 04 AUDIO
    TITLE "La Canzone Di Solving"
    PERFORMER "Nino Rosso"
    INDEX 00 11:26:00
    INDEX 01 11:28:37
  TRACK 05 AUDIO
    TITLE "Midnight Lady"
    PERFORMER "Chris Norman"
    INDEX 00 13:56:00
    INDEX 01 14:00:00
  TRACK 06 AUDIO
    TITLE "Sealed With A Kiss"
    PERFORMER "Jason Donovan"
    INDEX 00 18:08:25
    INDEX 01 18:12:00
  TRACK 07 AUDIO
    TITLE "Johnny"
    PERFORMER "Gilla"
    INDEX 00 20:44:25
    INDEX 01 20:47:25
  TRACK 08 AUDIO
    TITLE "Once Upon A Time In America"
    PERFORMER "Ennio Morricone"
    INDEX 00 24:28:50
    INDEX 01 24:37:50
  TRACK 09 AUDIO
    TITLE "I Want To Know What Love Is"
    PERFORMER "Foreigner"
    INDEX 00 28:54:50
    INDEX 01 29:00:00
  TRACK 10 AUDIO
    TITLE "Wieked Game"
    PERFORMER "Chris Isaak"
    INDEX 00 34:03:50
    INDEX 01 34:06:50
  TRACK 11 AUDIO
    TITLE "Road To Hell"
    PERFORMER "Chris Rea"
    INDEX 00 38:53:00
    INDEX 01 38:58:12
  TRACK 12 AUDIO
    TITLE "Fields Of Gold"
    PERFORMER "Sting"
    INDEX 00 43:29:00
    INDEX 01 43:32:50
  TRACK 13 AUDIO
    TITLE "Take My Breath Away"
    PERFORMER "Berlin"
    INDEX 00 47:11:00
    INDEX 01 47:17:50
  TRACK 14 AUDIO
    TITLE "Parapluies De Cherbury"
    PERFORMER "Paul Mauriat"
    INDEX 00 51:28:50
    INDEX 01 51:34:50
  TRACK 15 AUDIO
    TITLE "Et Si Tu N'Existais..."
    PERFORMER "Joe Dassin"
    INDEX 00 54:18:25
    INDEX 01 54:25:00
  TRACK 16 AUDIO
    TITLE "Windmilles Of Tour Mired"
    PERFORMER "Fausto Papetti"
    INDEX 00 57:50:50
    INDEX 01 57:54:00
  TRACK 17 AUDIO
    TITLE "She Is Out Of My Love"
    PERFORMER "Michael Jackson"
    INDEX 00 61:02:25
    INDEX 01 61:04:25
  TRACK 18 AUDIO
    TITLE "Fear"
    PERFORMER "Sade"
    INDEX 00 64:41:50
    INDEX 01 64:44:50
  TRACK 19 AUDIO
    TITLE "Killer Queen"
    PERFORMER "The Royal Philarmonic Orchestra"
    INDEX 00 68:53:50
    INDEX 01 68:56:00
Код:
-----------------------
DON'T MODIFY THIS FILE
-----------------------
PERFORMER: auCDtect Task Manager, ver. 1.6.0 RC1 build 1.6.0.1
Copyright (c) 2008-2010 y-soft. All rights reserved
http://y-soft.org
ANALYZER: auCDtect: CD records authenticity detector, version 0.8.2
Copyright (c) 2004 Oleg Berngardt. All rights reserved.
Copyright (c) 2004 Alexander Djourik. All rights reserved.
FILE: Various - Romantic Collection Vol. 2.flac
  Size: 428665811 Hash: B82FBBB2A7EF44350C447473A8EC563C Accuracy: -m0
  Conclusion: MPEG 95%
  Signature: F53B6663D4ADAC5C364BCF93A1DBBFC609822786
Download / Скачать

Хотите скачать бесплатно? Зарегистрируйтесь на сайте (ссылка на регистрацию). Pirat.ca - самый быстрый торрент трекер в рунете!

Как скачивать  ·   Что такое торрент  ·   Рейтинг и ограничения

Ворон

16800

Пост 21-Мар-2017 02:40 (спустя 1 день 16 часов)

[Q] 

MPEG 95%

_________________
Временно меня не будет на раздаче в связи с переездом на новое место. Заранее извиняюсь. Если уж кому надо будет скачать, пишите в ЛС, что нибудь придумаю. Раздача с 1:00-7:00
[Профиль]  [ЛС] 
Показать сообщения:    
Ответить на тему

Текущее время: Сегодня 13:43

Часовой пояс: GMT + 4



Вы не можете начинать темы
Вы не можете отвечать на сообщения
Вы не можете редактировать свои сообщения
Вы не можете удалять свои сообщения
Вы не можете голосовать в опросах
Вы не можете прикреплять файлы к сообщениям
Вы не можете скачивать файлы

▼ Вниз