Уважаемый Гость!
Вы можете поддержать проект и зарегистрироваться у наших партнеров - онлайн-стратегия MyLands. При регистрации в игре Вы получите код, который сможете активировать после регистрации на pirat.ca и получить 1000 дублонов.

Ваш код:
6e74277781110e9b49c3c0dd24e1bed54391613e
 
     

(Euro-Disco, Europop) Baccara - I Belong to Your Heart - 2017 [FLAC, image+.cue, lossless]

Ответить на тему
 
Автор
Сообщение

Пост 08-Июн-2017 21:29

[Q] 

Борей_64

Корсар

-Baccara / I Belong to Your HeartFeat. María Mendiola & Cristina Sevilla-- Год издания: 2017
Страна: Испания
Жанр: Euro-Disco, Europop
Продолжительность: 00:49:46-Лейбл издания: Team33 Music S.L.
Страна-выпуска диска: Spain
Номер по каталогу: 332017152
Формат: FLAC
Битрейт аудио: lossless
Тип рипа: image+.cue
Наличие сканов в содержимом раздачи: да-
1. I Belong To Your Heart (3:48)
2. Super Sexy Baby (4:10)
3. I Will Follow You (3:19)
4. I Love You Moscow (3:20)
5. You Are My Angel (3:05)
6. All Your Love (3:27)
7. Conquer Any Distance (3:16)
8. Gimme Your Love (3:48)
9. Stand By Me (3:46)
10. Secret Of Love (4:42)
11. Fantasy Boy 2017 (3:50)
12. My Funky Love (3:23)
13. I Belong To Your Heart (Extended Version) (5:52)
Код:
Exact Audio Copy V1.3 from 2. September 2016
Отчёт EAC об извлечении, выполненном 8. июня 2017, 18:34
Baccara / Belong To Your Heart
Дисковод: Optiarc DVD RW AD-7173A   Adapter: 1  ID: 0
Режим чтения                 : Достоверность
Использование точного потока : Да
Отключение кэша аудио        : Да
Использование указателей C2  : Нет
Коррекция смещения при чтении                     : 48
Способность читать области Lead-in и Lead-out     : Нет
Заполнение пропущенных сэмплов тишиной            : Да
Удаление блоков с тишиной в начале и конце        : Нет
При вычислениях CRC использовались нулевые сэмплы : Да
Интерфейс                                         : Встроенный Win32-интерфейс для Win NT/2000
Выходной формат          : Пользовательский кодировщик
Выбранный битрейт        : 128 kBit/s
Качество                 : Высокий
Добавление ID3-тега      : Нет
Утилита сжатия           : D:\Program Files\Exact_Audio Copy\Flac\flac.exe
Дополнительные параметры : -V -8 -T "Date=%year%" -T "Genre=%genre%" %source%
TOC извлечённого CD
     Трек |   Старт  | Длительность | Начальный сектор | Конечный сектор
    ---------------------------------------------------------------------
       1  |  0:00.00 |    3:50.53   |           0      |      17302
       2  |  3:50.53 |    4:11.42   |       17303      |      36169
       3  |  8:02.20 |    3:21.38   |       36170      |      51282
       4  | 11:23.58 |    3:22.32   |       51283      |      66464
       5  | 14:46.15 |    3:07.08   |       66465      |      80497
       6  | 17:53.23 |    3:29.58   |       80498      |      96230
       7  | 21:23.06 |    3:18.32   |       96231      |     111112
       8  | 24:41.38 |    3:51.05   |      111113      |     128442
       9  | 28:32.43 |    3:47.44   |      128443      |     145511
      10  | 32:20.12 |    4:45.00   |      145512      |     166886
      11  | 37:05.12 |    3:52.68   |      166887      |     184354
      12  | 40:58.05 |    3:25.10   |      184355      |     199739
      13  | 44:23.15 |    5:52.24   |      199740      |     226163
Характеристики диапазона извлечения и сообщения об ошибках
Выбранный диапазон
     Имя файла C:\Users\Pavel-PC\Desktop\0\000\Baccara - Belong To Your Heart.wav
     Пиковый уровень 100.0 %
     Скорость извлечения 5.1 X
     Качество диапазона 99.9 %
     CRC теста 9BFB8D0F
     CRC копии 9BFB8D0F
     Копирование... OK
Ошибок не произошло
Конец отчёта
==== Контрольная сумма отчёта A99DFAF5D0AB9314048AA99B12AFD7C4936F7C1EDF00E36FDAE51B99A9A8EE31 ====
Код:
REM GENRE Disco
REM DATE 2017
REM DISCID BA0BC70D
REM COMMENT "ExactAudioCopy v1.3"
PERFORMER "Baccara"
TITLE "Belong To Your Heart"
REM COMPOSER ""
FILE "Baccara - Belong To Your Heart.flac" WAVE
  TRACK 01 AUDIO
    TITLE "I Belong To Your Heart"
    PERFORMER "Baccara"
    REM COMPOSER ""
    INDEX 01 00:00:00
  TRACK 02 AUDIO
    TITLE "Super Sexy Baby (feat. Mario Vaquerizo)"
    PERFORMER "Baccara"
    REM COMPOSER ""
    INDEX 01 03:50:53
  TRACK 03 AUDIO
    TITLE "I Will Follow You"
    PERFORMER "Baccara"
    REM COMPOSER ""
    INDEX 01 08:02:20
  TRACK 04 AUDIO
    TITLE "I Love You Moscow"
    PERFORMER "Baccara"
    REM COMPOSER ""
    INDEX 01 11:23:58
  TRACK 05 AUDIO
    TITLE "You Are My Angel"
    PERFORMER "Baccara"
    REM COMPOSER ""
    INDEX 01 14:46:15
  TRACK 06 AUDIO
    TITLE "All Your Love"
    PERFORMER "Baccara"
    REM COMPOSER ""
    INDEX 01 17:53:23
  TRACK 07 AUDIO
    TITLE "Conquer Any Distance"
    PERFORMER "Baccara"
    REM COMPOSER ""
    INDEX 01 21:23:06
  TRACK 08 AUDIO
    TITLE "Gimme Your Love"
    PERFORMER "Baccara"
    REM COMPOSER ""
    INDEX 01 24:41:38
  TRACK 09 AUDIO
    TITLE "Stand By Me"
    PERFORMER "Baccara"
    REM COMPOSER ""
    INDEX 01 28:32:43
  TRACK 10 AUDIO
    TITLE "Secret Of Love"
    PERFORMER "Baccara"
    REM COMPOSER ""
    INDEX 01 32:20:12
  TRACK 11 AUDIO
    TITLE "Fantasy Boy 2017"
    PERFORMER "Baccara"
    REM COMPOSER ""
    INDEX 01 37:05:12
  TRACK 12 AUDIO
    TITLE "My Funky Love"
    PERFORMER "Baccara"
    REM COMPOSER ""
    INDEX 01 40:58:05
  TRACK 13 AUDIO
    TITLE "I Belong To Your Heart (Extended)"
    PERFORMER "Baccara"
    REM COMPOSER ""
    INDEX 01 44:23:15
Код:
AUDIOCHECKER v2.0 beta (build 457) - by Dester - [email protected]
~~~~~~~~~~~~~~~~~~~~~~~~~~~~~~~~~~
-=== НЕ РЕДАКТИРУЙТЕ ЭТОТ ФАЙЛ! ===-
Путь: ...\000
1 -=- Baccara - Belong To Your Heart.flac -=- CDDA (100%)
103371412
Код:
Общее
Полное имя                               : C:\Users\Pavel-PC\Desktop\0\000\Baccara - Belong To Your Heart.flac
Формат                                   : FLAC
Формат/Информация                        : Free Lossless Audio Codec
Размер файла                             : 373 Мбайт
Продолжительность                        : 50 м.
Режим общего битрейта                    : Переменный
Общий поток                              : 1037 Кбит/сек
Жанр                                     : Disco
Дата записи                              : 2017
Аудио
Формат                                   : FLAC
Формат/Информация                        : Free Lossless Audio Codec
Продолжительность                        : 50 м.
Вид битрейта                             : Переменный
Битрейт                                  : 1037 Кбит/сек
Каналы                                   : 2 канала
Частота                                  : 44,1 КГц
Битовая глубина                          : 16 бит
Размер потока                            : 373 Мбайт (100%)
Библиотека кодирования                   : libFLAC 1.3.1 (UTC 2014-11-25)
Код:
-----------------------
DON'T MODIFY THIS FILE
-----------------------
PERFORMER: auCDtect Task Manager, ver. 1.6.0 RC1 build 1.6.0.1
Copyright (c) 2008-2010 y-soft. All rights reserved
http://y-soft.org
ANALYZER: auCDtect: CD records authenticity detector, version 0.8.2
Copyright (c) 2004 Oleg Berngardt. All rights reserved.
Copyright (c) 2004 Alexander Djourik. All rights reserved.
FILE: Baccara - Belong To Your Heart.flac
  Size: 391074793 Hash: 7A69838D63B43E6912B5837806C9F11E Accuracy: -m0
  Conclusion: CDDA 100%
  Signature: A347D2DA171749AD028E80715FAFBBB66E1D3D59
Download / Скачать

Хотите скачать бесплатно? Зарегистрируйтесь на сайте (ссылка на регистрацию). Pirat.ca - самый быстрый торрент трекер в рунете!

Как скачивать  ·   Что такое торрент  ·   Рейтинг и ограничения

Показать сообщения:    
Ответить на тему

Текущее время: Сегодня 13:34

Часовой пояс: GMT + 4



Вы не можете начинать темы
Вы не можете отвечать на сообщения
Вы не можете редактировать свои сообщения
Вы не можете удалять свои сообщения
Вы не можете голосовать в опросах
Вы не можете прикреплять файлы к сообщениям
Вы не можете скачивать файлы

▼ Вниз