Уважаемый Гость!
Вы можете поддержать проект и зарегистрироваться у наших партнеров - онлайн-стратегия MyLands. При регистрации в игре Вы получите код, который сможете активировать после регистрации на pirat.ca и получить 1000 дублонов.

Ваш код:
6e74277781110e9b49c3c0dd24e1bed54391613e
 
     

(Pop) Аида Николайчук - Мы под одним небом - 2013 [FLAC, image +.cue, lossless]

Ответить на тему
 
Автор
Сообщение

Пост 05-Июл-2017 17:12

[Q] 

sergej644

-Аида Николайчук - Мы под одним небом--
Год издания: 2013
Страна: Ukraina
Жанр: Pop
Продолжительность: 000:32:29-Лейбл издания: Sony Music
Страна-выпуска диска: Ukraina
Номер по каталогу: n/a-Формат: FLAC
Битрейт аудио: Lossless
Тип рипа: image +.cue
Наличие сканов в содержимом раздачи: да
-

01. Мы под одним небом (3:09)
02. Не обещай (4:25)
03. Люди - миражи (3:15)
04. На твоей планете (3:12)
05. Дай мне ночь (4:02)
06. У любви моей твои глаза (3:15)
07. Так сумує весна (3:59)
08. Улетай (3:47)
09. We're under one heaven (3:24)
-
Код:
Exact Audio Copy V1.0 beta 3 from 29. August 2011
Отчёт EAC об извлечении, выполненном 26. июля 2014, 17:47
Аида Николайчук / Мы под одним небом
Дисковод: hp      DVDRAM GT31N   Adapter: 0  ID: 2
Режим чтения                 : Достоверность
Использование точного потока : Да
Отключение кэша аудио        : Да
Использование указателей C2  : Нет
Коррекция смещения при чтении                     : 103
Способность читать области Lead-in и Lead-out     : Нет
Заполнение пропущенных сэмплов тишиной            : Да
Удаление блоков с тишиной в начале и конце        : Нет
При вычислениях CRC использовались нулевые сэмплы : Да
Интерфейс                                         : Встроенный Win32-интерфейс для Win NT/2000
Выходной формат          : Пользовательский кодировщик
Выбранный битрейт        : 1024 kBit/s
Качество                 : Высокий
Добавление ID3-тега      : Нет
Утилита сжатия           : C:\Program Files (x86)\Exact Audio Copy\Flac\flac.exe
Дополнительные параметры : -V -8 -T "Date=%year%" -T "Genre=%genre%" %source%
TOC извлечённого CD
     Трек |   Старт  | Длительность | Начальный сектор | Конечный сектор
    ---------------------------------------------------------------------
       1  |  0:00.00 |    3:08.43   |           0      |      14142
       2  |  3:08.43 |    4:25.18   |       14143      |      34035
       3  |  7:33.61 |    3:15.34   |       34036      |      48694
       4  | 10:49.20 |    3:12.32   |       48695      |      63126
       5  | 14:01.52 |    4:02.22   |       63127      |      81298
       6  | 18:03.74 |    3:15.13   |       81299      |      95936
       7  | 21:19.12 |    3:58.66   |       95937      |     113852
       8  | 25:18.03 |    3:46.48   |      113853      |     130850
       9  | 29:04.51 |    3:23.66   |      130851      |     146141
Характеристики диапазона извлечения и сообщения об ошибках
Выбранный диапазон
     Пиковый уровень 96.2 %
     Скорость извлечения 1.9 X
     Качество диапазона 100.0 %
     CRC теста F8F5A5F8
     CRC копии F8F5A5F8
     Копирование... OK
Ошибок не произошло
AccurateRip: сводка
Трек  1  отсутствует в базе данных
Трек  2  отсутствует в базе данных
Трек  3  отсутствует в базе данных
Трек  4  отсутствует в базе данных
Трек  5  отсутствует в базе данных
Трек  6  отсутствует в базе данных
Трек  7  отсутствует в базе данных
Трек  8  отсутствует в базе данных
Трек  9  отсутствует в базе данных
Ни одного трека нет в базе AccurateRip
Конец отчёта
Код:
REM GENRE Pop
REM DATE 2013
REM DISCID 69079C09
REM COMMENT "ExactAudioCopy v1.0b3"
PERFORMER "Аида Николайчук"
TITLE "Мы под одним небом"
FILE "Аида Николайчук - Мы под одним небом  2013.flac" WAVE
  TRACK 01 AUDIO
    TITLE "Мы под одним небом"
    PERFORMER "01 Аида Николайчук"
    FLAGS DCP
    INDEX 01 00:00:00
  TRACK 02 AUDIO
    TITLE "Не обещай"
    PERFORMER "02 Аида Николайчук"
    FLAGS DCP
    INDEX 00 03:06:44
    INDEX 01 03:08:43
  TRACK 03 AUDIO
    TITLE "Люди - миражи"
    PERFORMER "03 Аида Николайчук"
    FLAGS DCP
    INDEX 00 07:31:62
    INDEX 01 07:33:61
  TRACK 04 AUDIO
    TITLE "На твоей планете"
    PERFORMER "04 Аида Николайчук"
    FLAGS DCP
    INDEX 00 10:47:21
    INDEX 01 10:49:20
  TRACK 05 AUDIO
    TITLE "Дай мне ночь"
    PERFORMER "05 Аида Николайчук"
    FLAGS DCP
    INDEX 00 13:59:53
    INDEX 01 14:01:52
  TRACK 06 AUDIO
    TITLE "У любви моей твои глаза"
    PERFORMER "06 Аида Николайчук"
    FLAGS DCP
    INDEX 00 18:02:00
    INDEX 01 18:03:74
  TRACK 07 AUDIO
    TITLE "Так сумує весна"
    PERFORMER "07 Аида Николайчук"
    FLAGS DCP
    INDEX 00 21:17:46
    INDEX 01 21:19:12
  TRACK 08 AUDIO
    TITLE "Улетай"
    PERFORMER "08 Аида Николайчук"
    FLAGS DCP
    INDEX 00 25:16:04
    INDEX 01 25:18:03
  TRACK 09 AUDIO
    TITLE "We're under one heaven"
    PERFORMER "09 Аида Николайчук"
    FLAGS DCP
    INDEX 00 29:02:52
    INDEX 01 29:04:51
- -
Дебютный альбома единственной девушки-победительницы "Х-Фактора" в Украине, нежной Аиды Николайчук. Практически год прошел с того момента, как простая одесситка покорила сердца миллионов украинцев и стала счастливой обладательницей двух миллионов и статуса "Лучшей вокалистки страны".
"Мы под одним небом" - так называется дебютный диск певицы. Также называется заглавная песня альбома и ее англоязычная версия.
По словам самой Аиды это своего рода музыкальный "экспериментариум", ведь на диске представлены, как лирические баллады, так и клубные, трансовые композиции, и даже оперные арии.
--
Download / Скачать

Хотите скачать бесплатно? Зарегистрируйтесь на сайте (ссылка на регистрацию). Pirat.ca - самый быстрый торрент трекер в рунете!

Как скачивать  ·   Что такое торрент  ·   Рейтинг и ограничения

Показать сообщения:    
Ответить на тему

Текущее время: Сегодня 13:40

Часовой пояс: GMT + 4



Вы не можете начинать темы
Вы не можете отвечать на сообщения
Вы не можете редактировать свои сообщения
Вы не можете удалять свои сообщения
Вы не можете голосовать в опросах
Вы не можете прикреплять файлы к сообщениям
Вы не можете скачивать файлы

▼ Вниз