Уважаемый Гость!
Вы можете поддержать проект и зарегистрироваться у наших партнеров - онлайн-стратегия MyLands. При регистрации в игре Вы получите код, который сможете активировать после регистрации на pirat.ca и получить 1000 дублонов.

Ваш код:
42dfaac977a7ef29e5167536f5b22936dba18477
 
     

(Pop music) Adriano Celentano – C'e Sempre Un Motivo - 2004, FLAC (image + .cue), lossless

Ответить на тему
 
Автор
Сообщение

Пост 30-Окт-2011 00:21

[Q] 

Kote Makaradze

Adriano Celentano – C'e Sempre Un Motivo- -Страна: Sony music (Italy)
Жанр: Pop music
Год выпуска: 2004
Формат: FLAC (image + .cue)
Битрейт аудио: lossless
Продолжительность: 00:49:14


01. Ancora Vivo
02. Mari Mari
03. C'e Sempre un Motivo
04. Valeva la Pena
05. Lunfardia
06. Verita da Marciapiede
07. Quel Casinha (Il Ragazzo Della Via Gluck)(featuring Cesaria Evora)
08. L'Ultima Donna Che Amo
09. In Quale Vita
10. Proibito
11. Vengo dal Jazz (Bensonhurst Blues)

-

Log
Exact Audio Copy V0.99 prebeta 5 from 4. May 2009
Отчёт EAC об извлечении, выполненном 26. февраля 2010, 19:00
Adriano Celentano / C'и Sempre Un Motivo
Дисковод: ASUS DRW-1814BL Adapter: 1 ID: 0
Режим чтения : Достоверность
Использование точного потока : Да
Отключение кэша аудио : Да
Использование указателей C2 : Нет
Коррекция смещения при чтении : 6
Способность читать области Lead-in и Lead-out : Нет
Заполнение пропущенных сэмплов тишиной : Да
Удаление блоков с тишиной в начале и конце : Нет
При вычислениях CRC использовались нулевые сэмплы : Да
Интерфейс : Встроенный Win32-интерфейс для Win NT/2000
Выходной формат : Внутренние WAV-операции
Формат сэмплов : 44.100 Гц; 16 бит; стерео
TOC извлечённого CD
Трек | Старт | Длительность | Начальный сектор | Конечный сектор
---------------------------------------------------------------------
1 | 0:00.00 | 4:33.52 | 0 | 20526
2 | 4:33.52 | 4:15.65 | 20527 | 39716
3 | 8:49.42 | 5:27.13 | 39717 | 64254
4 | 14:16.55 | 4:09.60 | 64255 | 82989
5 | 18:26.40 | 5:02.62 | 82990 | 105701
6 | 23:29.27 | 4:33.30 | 105702 | 126206
7 | 28:02.57 | 4:28.12 | 126207 | 146318
8 | 32:30.69 | 3:50.26 | 146319 | 163594
9 | 36:21.20 | 4:47.45 | 163595 | 185164
10 | 41:08.65 | 4:07.20 | 185165 | 203709
11 | 45:16.10 | 3:58.22 | 203710 | 221581
Характеристики диапазона извлечения и сообщения об ошибках
Выбранный диапазон
Имя файла C:\Users\Олег\Music\EAC\Adriano Celentano - C'e Sempre Un Motivo.wav
Пиковый уровень 99.9 %
Качество диапазона 100.0 %
CRC копии 53935F83
Копирование... OK
Ошибок не произошло
Конец отчёта

REM GENRE Pop
REM DATE 2004
REM DISCID 900B8A0B
REM COMMENT "ExactAudioCopy v0.99pb5"
PERFORMER "Adriano Celentano"
TITLE "C'и Sempre Un Motivo"
FILE "Adriano Celentano - C'e Sempre Un Motivo.wav" WAVE
TRACK 01 AUDIO
TITLE "Ancora Vivo"
PERFORMER "Adriano Celentano"
INDEX 01 00:00:00
TRACK 02 AUDIO
TITLE "Marм Marм"
PERFORMER "Adriano Celentano"
INDEX 01 04:33:52
TRACK 03 AUDIO
TITLE "C'и Sempre Un Motivo"
PERFORMER "Adriano Celentano"
INDEX 00 08:48:22
INDEX 01 08:49:42
TRACK 04 AUDIO
TITLE "Valeva La Pena"
PERFORMER "Adriano Celentano"
INDEX 01 14:16:55
TRACK 05 AUDIO
TITLE "Lunfardia"
PERFORMER "Adriano Celentano"
INDEX 01 18:26:40
TRACK 06 AUDIO
TITLE "Verita Da Marciapiede"
PERFORMER "Adriano Celentano"
INDEX 01 23:29:27
TRACK 07 AUDIO
TITLE "Quel Casinha (Il Ragazzo Della Via Gluck)"
PERFORMER "Adriano Celentano"
INDEX 01 28:02:57
TRACK 08 AUDIO
TITLE "L'Ultima Donna Che Amo"
PERFORMER "Adriano Celentano"
INDEX 01 32:30:69
TRACK 09 AUDIO
TITLE "In Quale Vita"
PERFORMER "Adriano Celentano"
INDEX 01 36:21:20
TRACK 10 AUDIO
TITLE "Proibito"
PERFORMER "Adriano Celentano"
INDEX 01 41:08:65
TRACK 11 AUDIO
TITLE "Vengo Dal Jazz (Bensonhurst Blues)"
PERFORMER "Adriano Celentano"
INDEX 01 45:16:10
- -
Download / Скачать

Хотите скачать бесплатно? Зарегистрируйтесь на сайте (ссылка на регистрацию). Pirat.ca - самый быстрый торрент трекер в рунете!

Как скачивать  ·   Что такое торрент  ·   Рейтинг и ограничения

Показать сообщения:    
Ответить на тему

Текущее время: Сегодня 22:31

Часовой пояс: GMT + 4



Вы не можете начинать темы
Вы не можете отвечать на сообщения
Вы не можете редактировать свои сообщения
Вы не можете удалять свои сообщения
Вы не можете голосовать в опросах
Вы не можете прикреплять файлы к сообщениям
Вы не можете скачивать файлы

▼ Вниз