Уважаемый Гость!
Вы можете поддержать проект и зарегистрироваться у наших партнеров - онлайн-стратегия MyLands. При регистрации в игре Вы получите код, который сможете активировать после регистрации на pirat.ca и получить 1000 дублонов.

Ваш код:
6e74277781110e9b49c3c0dd24e1bed54391613e
 
     

(Pop) Mylene Farmer - Bleu Noir (Edition Collector) - 2010, APE (image+.cue) lossless

Ответить на тему
 
Автор
Сообщение

Пост 08-Ноя-2011 14:21

[Q] 

[email protected]

Mylene Farmer / BLEU NOIR
(Edition Collector)

Жанр: Pop
Страна-производитель диска: Франция
Год издания диска: 2010
Издатель (лейбл): Polydor
Аудио кодек: APE (*.ape)
Тип рипа: image+.cue
Битрейт аудио: lossless
Продолжительность: 00:48:51
Наличие сканов в содержимом раздачи: да
Треклист:
1 - Oui mais… non (4'19)**
2 - Moi je veux… (3'30)
3 - Bleu Noir (4'04)
4 - N'aie plus d'amertume (4'15)
5 - Toi l'amour (4'40)
6 - Lonely Lisa (3'02)
7 - M'Effondre (3'33)
8 - Light Me Up (5'02)
9 - Leila (3'51)
10 - Diabolique mon ange (5'00)
11 - Inseparables (4'08)
Bonus:
12 - Insйparables (3'14)
(version franзaise)
Код:
Exact Audio Copy V1.0 beta 1 from 15. November 2010
EAC extraction logfile from 11. December 2010, 17:02
Mylene Farmer / Bleu Noir (Edition Collector)
Used drive  : OPTIARC DVD RW AD-5670S   Adapter: 1  ID: 0
Read mode               : Secure
Utilize accurate stream : Yes
Defeat audio cache      : Yes
Make use of C2 pointers : No
Read offset correction                      : 48
Overread into Lead-In and Lead-Out          : No
Fill up missing offset samples with silence : Yes
Delete leading and trailing silent blocks   : No
Null samples used in CRC calculations       : No
Used interface                              : Native Win32 interface for Win NT & 2000
Used output format : Internal WAV Routines
Sample format      : 44.100 Hz; 16 Bit; Stereo
TOC of the extracted CD
     Track |   Start  |  Length  | Start sector | End sector
    ---------------------------------------------------------
        1  |  0:00.00 |  4:20.60 |         0    |    19559
        2  |  4:20.60 |  3:30.13 |     19560    |    35322
        3  |  7:50.73 |  4:05.07 |     35323    |    53704
        4  | 11:56.05 |  4:16.05 |     53705    |    72909
        5  | 16:12.10 |  4:41.64 |     72910    |    94048
        6  | 20:53.74 |  3:02.72 |     94049    |   107770
        7  | 23:56.71 |  3:33.11 |    107771    |   123756
        8  | 27:30.07 |  5:02.69 |    123757    |   146475
        9  | 32:33.01 |  3:51.35 |    146476    |   163835
       10  | 36:24.36 |  5:01.17 |    163836    |   186427
       11  | 41:25.53 |  4:10.57 |    186428    |   205234
       12  | 45:36.35 |  3:15.32 |    205235    |   219891
Range status and errors
Selected range
     Filename C:\Users\espoir\Desktop\2010-Bleu Noir (Edition Collector)\Mylene Farmer - Bleu Noir (Edition Collector).wav
     Peak level 98.8 %
     Extraction speed 0.1 X
     Range quality 100.0 %
     Test CRC 98939603
     Copy CRC 98939603
     Copy OK
No errors occurred
AccurateRip summary
Track  1  not present in database
Track  2  not present in database
Track  3  not present in database
Track  4  not present in database
Track  5  not present in database
Track  6  not present in database
Track  7  not present in database
Track  8  not present in database
Track  9  not present in database
Track 10  not present in database
Track 11  not present in database
Track 12  not present in database
None of the tracks are present in the AccurateRip database
End of status report
Код:
REM GENRE Pop
REM DATE 2010
REM DISCID B60B730C
REM COMMENT "ExactAudioCopy v1.0b1"
PERFORMER "Mylene Farmer"
TITLE "Bleu Noir (Edition Collector)"
FILE "Mylene Farmer - Bleu Noir (Edition Collector).wav" WAVE
  TRACK 01 AUDIO
    TITLE "Oui Mais... Non"
    PERFORMER "Mylene Farmer"
    INDEX 01 00:00:00
  TRACK 02 AUDIO
    TITLE "Moi Je Veux..."
    PERFORMER "Mylene Farmer"
    INDEX 01 04:20:60
  TRACK 03 AUDIO
    TITLE "Bleu Noir"
    PERFORMER "Mylene Farmer"
    INDEX 01 07:50:73
  TRACK 04 AUDIO
    TITLE "N'Aie Plus D'Amertume"
    PERFORMER "Mylene Farmer"
    INDEX 01 11:56:05
  TRACK 05 AUDIO
    TITLE "Toi L'Amour"
    PERFORMER "Mylene Farmer"
    INDEX 01 16:12:10
  TRACK 06 AUDIO
    TITLE "Lonely Lisa "
    PERFORMER "Mylene Farmer"
    INDEX 01 20:53:74
  TRACK 07 AUDIO
    TITLE "M'Effondre "
    PERFORMER "Mylene Farmer"
    INDEX 01 23:56:71
  TRACK 08 AUDIO
    TITLE "Light Me Up "
    PERFORMER "Mylene Farmer"
    INDEX 01 27:30:07
  TRACK 09 AUDIO
    TITLE "Leila "
    PERFORMER "Mylene Farmer"
    INDEX 01 32:33:01
  TRACK 10 AUDIO
    TITLE "Diabolique Mon Ange "
    PERFORMER "Mylene Farmer"
    INDEX 01 36:24:36
  TRACK 11 AUDIO
    TITLE "Inseparables "
    PERFORMER "Mylene Farmer"
    INDEX 01 41:25:53
  TRACK 12 AUDIO
    TITLE "Inseparables (Version Francaise)"
    PERFORMER "Mylene Farmer"
    INDEX 01 45:36:35
Download / Скачать

Хотите скачать бесплатно? Зарегистрируйтесь на сайте (ссылка на регистрацию). Pirat.ca - самый быстрый торрент трекер в рунете!

Как скачивать  ·   Что такое торрент  ·   Рейтинг и ограничения

Luzhok

Легенда

Пост 01-Дек-2011 22:00 (спустя 23 дня)

[Q] 

присоединяюсь
[email protected],
спасибо
[Профиль]  [ЛС] 
Показать сообщения:    
Ответить на тему

Текущее время: Сегодня 13:39

Часовой пояс: GMT + 4



Вы не можете начинать темы
Вы не можете отвечать на сообщения
Вы не можете редактировать свои сообщения
Вы не можете удалять свои сообщения
Вы не можете голосовать в опросах
Вы не можете прикреплять файлы к сообщениям
Вы не можете скачивать файлы

▼ Вниз