Уважаемый Гость!
Вы можете поддержать проект и зарегистрироваться у наших партнеров - онлайн-стратегия MyLands. При регистрации в игре Вы получите код, который сможете активировать после регистрации на pirat.ca и получить 1000 дублонов.

Ваш код:
6e74277781110e9b49c3c0dd24e1bed54391613e
 
     

(Pop) Dan Balan - Crazy Loop Mix - 2009, FLAC (tracks+.cue) , lossless

Ответить на тему
 
Автор
Сообщение

Пост 17-Май-2012 20:05

[Q] 

Koralina

Dan Balan - Crazy Loop Mix Год выпуска: 2009
Страна: Румыния
Жанр: Pop
Продолжительность: 00:54:29
Формат: FLAC
Битрейт аудио: lossless
Тип рипа: tracks+.cue
Наличие сканов в содержимом раздачи: да
1. Chica Bomb
2. Uh-Ah-Yeah
3. Crazy Loop (Mm-Ma-Ma)
4. Friday Night
5. Johanna (Shut UP!)
6. The 24th Letter
7. My Best Summer
8. Tango
9. Take Me Higher
10. Judy's Love Line
11. Despre Tine Cвnt (Part 2)
12. Famikan
13. Crazy Loop (Mm-Ma-Ma) (DJ Ross Radio Club Edit)
14. Johanna (Shut Up!) (Radio Edit Alternative Option)
15. Chica Bomb (Extended Version)
Код:
Exact Audio Copy V0.99 prebeta 5 from 4. May 2009
EAC extraction logfile from 29. December 2009, 17:09
Dan Balan / Crazy Loop Mix
Used drive : Optiarc DVD RW AD-7580S Adapter: 0 ID: 1
Read mode : Secure
Utilize accurate stream : Yes
Defeat audio cache : Yes
Make use of C2 pointers : No
Read offset correction : 6
Overread into Lead-In and Lead-Out : No
Fill up missing offset samples with silence : Yes
Delete leading and trailing silent blocks : No
Null samples used in CRC calculations : Yes
Used interface : Installed external ASPI interface
Gap handling : Appended to previous track
Used output format : User Defined Encoder
Selected bitrate : 768 kBit/s
Quality : High
Add ID3 tag : No
Command line compressor : C:\flac.exe
Additional command line options : V -8 -T "artist=%a" -T "title=%t" -T "album=%g" -T "date=%y" -T "tracknumber=%n" -T "genre=%m" %s
TOC of the extracted CD
Track | Start | Length | Start sector | End sector
---------------------------------------------------------
1 | 0:00.00 | 3:33.46 | 0 | 16020
2 | 3:33.46 | 3:40.58 | 16021 | 32578
3 | 7:14.29 | 3:35.28 | 32579 | 48731
4 | 10:49.57 | 3:19.28 | 48732 | 63684
5 | 14:09.10 | 3:21.61 | 63685 | 78820
6 | 17:30.71 | 4:26.00 | 78821 | 98770
7 | 21:56.71 | 3:30.56 | 98771 | 114576
8 | 25:27.52 | 3:20.00 | 114577 | 129576
9 | 28:47.52 | 3:38.18 | 129577 | 145944
10 | 32:25.70 | 3:34.39 | 145945 | 162033
11 | 36:00.34 | 4:04.54 | 162034 | 180387
12 | 40:05.13 | 2:34.01 | 180388 | 191938
13 | 42:39.14 | 3:40.62 | 191939 | 208500
14 | 46:20.01 | 3:47.51 | 208501 | 225576
15 | 50:07.52 | 4:20.45 | 225577 | 245121
Track 1
Filename D:\Muzica\Dan Balan - 2009 - Crazy Loop Mix\01 - Chica Bomb.wav
Pre-gap length 0:00:02.00
Peak level 100.0 %
Track quality 100.0 %
Test CRC 4121C208
Copy CRC 4121C208
Track not present in AccurateRip database
Copy OK
Track 2
Filename D:\Muzica\Dan Balan - 2009 - Crazy Loop Mix\02 - Uh-Ahh-Yeah.wav
Peak level 100.0 %
Track quality 100.0 %
Test CRC 503FC979
Copy CRC 503FC979
Track not present in AccurateRip database
Copy OK
Track 3
Filename D:\Muzica\Dan Balan - 2009 - Crazy Loop Mix\03 - Crazy Loop.wav
Peak level 99.9 %
Track quality 100.0 %
Test CRC 8426A4DB
Copy CRC 8426A4DB
Track not present in AccurateRip database
Copy OK
Track 4
Filename D:\Muzica\Dan Balan - 2009 - Crazy Loop Mix\04 - Friday Night.wav
Peak level 98.8 %
Track quality 100.0 %
Test CRC DFF092F7
Copy CRC DFF092F7
Track not present in AccurateRip database
Copy OK
Track 5
Filename D:\Muzica\Dan Balan - 2009 - Crazy Loop Mix\05 - Johanna.wav
Peak level 99.8 %
Track quality 100.0 %
Test CRC 52D43399
Copy CRC 52D43399
Track not present in AccurateRip database
Copy OK
Track 6
Filename D:\Muzica\Dan Balan - 2009 - Crazy Loop Mix\06 - The 24th Letter.wav
Peak level 96.6 %
Track quality 100.0 %
Test CRC E42C316E
Copy CRC E42C316E
Track not present in AccurateRip database
Copy OK
Track 7
Filename D:\Muzica\Dan Balan - 2009 - Crazy Loop Mix\07 - My best summer.wav
Peak level 90.9 %
Track quality 100.0 %
Test CRC 6FC0B990
Copy CRC 6FC0B990
Track not present in AccurateRip database
Copy OK
Track 8
Filename D:\Muzica\Dan Balan - 2009 - Crazy Loop Mix\08 - Tango.wav
Peak level 100.0 %
Track quality 100.0 %
Test CRC A9A273DC
Copy CRC A9A273DC
Track not present in AccurateRip database
Copy OK
Track 9
Filename D:\Muzica\Dan Balan - 2009 - Crazy Loop Mix\09 - Take Me Higher.wav
Peak level 89.1 %
Track quality 100.0 %
Test CRC 685DCAC8
Copy CRC 685DCAC8
Track not present in AccurateRip database
Copy OK
Track 10
Filename D:\Muzica\Dan Balan - 2009 - Crazy Loop Mix\10 - Jady's Love Line.wav
Peak level 99.9 %
Track quality 99.9 %
Test CRC F6D6FE4A
Copy CRC F6D6FE4A
Track not present in AccurateRip database
Copy OK
Track 11
Filename D:\Muzica\Dan Balan - 2009 - Crazy Loop Mix\11 - Despre Tine Cant.wav
Peak level 99.9 %
Track quality 99.9 %
Test CRC 8423373B
Copy CRC 8423373B
Track not present in AccurateRip database
Copy OK
Track 12
Filename D:\Muzica\Dan Balan - 2009 - Crazy Loop Mix\12 - Famikon.wav
Peak level 99.9 %
Track quality 100.0 %
Test CRC 55040283
Copy CRC 55040283
Track not present in AccurateRip database
Copy OK
Track 13
Filename D:\Muzica\Dan Balan - 2009 - Crazy Loop Mix\13 - Crazy Loop(DJ Ross Radio Club Edit).wav
Peak level 100.0 %
Track quality 99.6 %
Test CRC FC0D675B
Copy CRC FC0D675B
Track not present in AccurateRip database
Copy OK
Track 14
Filename D:\Muzica\Dan Balan - 2009 - Crazy Loop Mix\14 - Jahanna(Radio Alternative).wav
Peak level 100.0 %
Track quality 99.8 %
Test CRC 6C51AA78
Copy CRC 6C51AA78
Track not present in AccurateRip database
Copy OK
Track 15
Filename D:\Muzica\Dan Balan - 2009 - Crazy Loop Mix\15 - Chica Bomb(Extended Version).wav
Peak level 98.8 %
Track quality 99.8 %
Test CRC A2ADBF46
Copy CRC A2ADBF46
Track not present in AccurateRip database
Copy OK
None of the tracks are present in the AccurateRip database
No errors occurred
End of status report
Код:
REM GENRE Dance
REM DATE 2009
REM DISCID C40CC40F
REM COMMENT "ExactAudioCopy v0.99pb5"
FILE "Dan Balan - 2009 - Crazy Loop Mix\01 - Chica Bomb.wav" WAVE
  TRACK 01 AUDIO
    INDEX 01 00:00:00
FILE "Dan Balan - 2009 - Crazy Loop Mix\02 - Uh-Ahh-Yeah.wav" WAVE
  TRACK 02 AUDIO
    INDEX 01 00:00:00
FILE "Dan Balan - 2009 - Crazy Loop Mix\03 - Crazy Loop.wav" WAVE
  TRACK 03 AUDIO
    INDEX 01 00:00:00
FILE "Dan Balan - 2009 - Crazy Loop Mix\04 - Friday Night.wav" WAVE
  TRACK 04 AUDIO
    INDEX 01 00:00:00
FILE "Dan Balan - 2009 - Crazy Loop Mix\05 - Johanna.wav" WAVE
  TRACK 05 AUDIO
    INDEX 01 00:00:00
FILE "Dan Balan - 2009 - Crazy Loop Mix\06 - The 24th Letter.wav" WAVE
  TRACK 06 AUDIO
    INDEX 01 00:00:00
FILE "Dan Balan - 2009 - Crazy Loop Mix\07 - My best summer.wav" WAVE
  TRACK 07 AUDIO
    INDEX 01 00:00:00
FILE "Dan Balan - 2009 - Crazy Loop Mix\08 - Tango.wav" WAVE
  TRACK 08 AUDIO
    INDEX 01 00:00:00
FILE "Dan Balan - 2009 - Crazy Loop Mix\09 - Take Me Higher.wav" WAVE
  TRACK 09 AUDIO
    INDEX 01 00:00:00
FILE "Dan Balan - 2009 - Crazy Loop Mix\10 - Jady's Love Line.wav" WAVE
  TRACK 10 AUDIO
    INDEX 01 00:00:00
FILE "Dan Balan - 2009 - Crazy Loop Mix\11 - Despre Tine Cant.wav" WAVE
  TRACK 11 AUDIO
    INDEX 01 00:00:00
FILE "Dan Balan - 2009 - Crazy Loop Mix\12 - Famikon.wav" WAVE
  TRACK 12 AUDIO
    INDEX 01 00:00:00
FILE "Dan Balan - 2009 - Crazy Loop Mix\13 - Crazy Loop(DJ Ross Radio Club Edit).wav" WAVE
  TRACK 13 AUDIO
    INDEX 01 00:00:00
FILE "Dan Balan - 2009 - Crazy Loop Mix\14 - Jahanna(Radio Alternative).wav" WAVE
  TRACK 14 AUDIO
    INDEX 01 00:00:00
FILE "Dan Balan - 2009 - Crazy Loop Mix\15 - Chica Bomb(Extended Version).wav" WAVE
  TRACK 15 AUDIO
    INDEX 01 00:00:00
Код:
AUDIOCHECKER v2.0 beta (build 457) - by Dester - [email protected]
~~~~~~~~~~~~~~~~~~~~~~~~~~~~~~~~~~
-=== DO NOT EDIT THIS FILE! ===-
Path: ...\Dan Balan - 2009 - Crazy Loop Mix
01 -=- 01 - Chica Bomb.flac -=- MPEG (95%)
02 -=- 02 - Uh-Ahh-Yeah.flac -=- CDDA (99%)
03 -=- 03 - Crazy Loop.flac -=- CDDA (100%)
04 -=- 04 - Friday Night.flac -=- CDDA (100%)
05 -=- 05 - Johanna.flac -=- CDDA (100%)
06 -=- 06 - The 24th Letter.flac -=- CDDA (100%)
07 -=- 07 - My best summer.flac -=- CDDA (100%)
08 -=- 08 - Tango.flac -=- CDDA (100%)
09 -=- 09 - Take Me Higher.flac -=- CDDA (99%)
10 -=- 10 - Jady's Love Line.flac -=- CDDA (100%)
11 -=- 11 - Despre Tine Cant.flac -=- CDDA (99%)
12 -=- 12 - Famikon.flac -=- CDDA (99%)
13 -=- 13 - Crazy Loop(DJ Ross Radio Club Edit).flac -=- CDDA (100%)
14 -=- 14 - Jahanna(Radio Alternative).flac -=- CDDA (100%)
15 -=- 15 - Chica Bomb(Extended Version).flac -=- MPEG (95%)
Summary 87,07% CDDA
13145540
Дан Бэлан молдавский музыкант, бывший солист группы O-Zone.
1 декабря 2009 года в Кишинёве прошла презентация нового альбома под названием Crazy Loop Mix. Название альбома объясняется тем, что в нём соединены результаты работы певца под псевдонимом Crazy Loop и под собственным именем (на самом альбоме исполнитель указан как Dan Balan).
Download / Скачать

Хотите скачать бесплатно? Зарегистрируйтесь на сайте (ссылка на регистрацию). Pirat.ca - самый быстрый торрент трекер в рунете!

Как скачивать  ·   Что такое торрент  ·   Рейтинг и ограничения

Показать сообщения:    
Ответить на тему

Текущее время: Сегодня 13:41

Часовой пояс: GMT + 4



Вы не можете начинать темы
Вы не можете отвечать на сообщения
Вы не можете редактировать свои сообщения
Вы не можете удалять свои сообщения
Вы не можете голосовать в опросах
Вы не можете прикреплять файлы к сообщениям
Вы не можете скачивать файлы

▼ Вниз