Уважаемый Гость!
Вы можете поддержать проект и зарегистрироваться у наших партнеров - онлайн-стратегия MyLands. При регистрации в игре Вы получите код, который сможете активировать после регистрации на pirat.ca и получить 1000 дублонов.

Ваш код:
bf76b4fde44c7189cfb4d32d5b204facc1d6d492
 
     

(Alternative Metal) Disturbed-Asylum - 2010, FLAC (image+.cue) , lossless

Ответить на тему
 
Автор
Сообщение

Пост 29-Июн-2012 00:15

[Q] 

-B1ack-



Disturbed-Asylum
________________________

Год выпуска: 2010
Страна: USA
Жанр: Alternative Metal
Лейбл издания: Reprise Records
Страна-выпуска диска: Japan
Номер по каталогу: 4943674100446
Продолжительность: 00:57:03
Формат:

Битрейт аудио: lossless
Тип рипа: image+.cue
Наличие сканов в содержимом раздачи: нет

____________________________________


01. Remnants [2:44]
02. Asylum [4:36]
03. The Infection [4:09]
04. Warrior [3:25]
05. Another Way To Die [4:13]
06. Never Again [3:34]
07. The Animal [4:14]
08. Crucified [4:37]
09. Serpentine [4:10]
10. My Child [3:18]
11. Sacrifice [4:00]
12. Innocence [4:31]
13. ISHFWILF [5:28]
14. Leave It Alone [4:07] (bonus track)
_______________________________________
Exact Audio Copy V0.99 prebeta 5 from 4. May 2009
EAC extraction logfile from 7. June 2011, 19:43
Disturbed / Asylum
Used drive : TSSTcorpCDDVDW TS-L633C Adapter: 1 ID: 0
Read mode : Secure
Utilize accurate stream : Yes
Defeat audio cache : Yes
Make use of C2 pointers : No
Read offset correction : 6
Overread into Lead-In and Lead-Out : No
Fill up missing offset samples with silence : Yes
Delete leading and trailing silent blocks : No
Null samples used in CRC calculations : Yes
Used interface : Native Win32 interface for Win NT & 2000
Used output format : Internal WAV Routines
Sample format : 44.100 Hz; 16 Bit; Stereo
TOC of the extracted CD
Track | Start | Length | Start sector | End sector
---------------------------------------------------------
1 | 0:00.00 | 2:43.50 | 0 | 12274
2 | 2:43.50 | 4:36.17 | 12275 | 32991
3 | 7:19.67 | 4:08.63 | 32992 | 51654
4 | 11:28.55 | 3:24.62 | 51655 | 67016
5 | 14:53.42 | 4:13.29 | 67017 | 86020
6 | 19:06.71 | 3:33.53 | 86021 | 102048
7 | 22:40.49 | 4:13.61 | 102049 | 121084
8 | 26:54.35 | 4:36.74 | 121085 | 141858
9 | 31:31.34 | 4:09.57 | 141859 | 160590
10 | 35:41.16 | 3:18.04 | 160591 | 175444
11 | 38:59.20 | 4:00.06 | 175445 | 193450
12 | 42:59.26 | 4:31.21 | 193451 | 213796
13 | 47:30.47 | 5:28.04 | 213797 | 238400
14 | 52:58.51 | 4:06.62 | 238401 | 256912
Range status and errors
Selected range
Filename Z:\DISTURBED\2010 - Asylum.wav
Peak level 100.0 %
Range quality 100.0 %
Test CRC EE9F071F
Copy CRC EE9F071F
Copy OK
No errors occurred
AccurateRip summary
Track 1 accurately ripped (confidence 2) [359BF434]
Track 2 accurately ripped (confidence 2) [F32AA673]
Track 3 accurately ripped (confidence 2) [7ADC6AE9]
Track 4 accurately ripped (confidence 2) [286D1BE1]
Track 5 accurately ripped (confidence 2) [057FCCB6]
Track 6 accurately ripped (confidence 2) [91016EF8]
Track 7 accurately ripped (confidence 2) [803D75D1]
Track 8 accurately ripped (confidence 2) [AB01794D]
Track 9 accurately ripped (confidence 2) [1A3F389F]
Track 10 accurately ripped (confidence 2) [7FF02B5B]
Track 11 accurately ripped (confidence 2) [4C08607F]
Track 12 accurately ripped (confidence 2) [23D4C8BF]
Track 13 not present in database
Track 14 accurately ripped (confidence 2) [FFD33BE5]
13 track(s) accurately ripped
1 track(s) not present in the AccurateRip database
Some tracks could not be verified as accurate
End of status report
Download / Скачать

Хотите скачать бесплатно? Зарегистрируйтесь на сайте (ссылка на регистрацию). Pirat.ca - самый быстрый торрент трекер в рунете!

Как скачивать  ·   Что такое торрент  ·   Рейтинг и ограничения



Последний раз редактировалось: -B1ack- (2013-11-11 18:49), всего редактировалось 2 раз(а)

Wolf111

58987

Пост 15-Янв-2013 19:16 (спустя 6 месяцев 16 дней)

[Q] 

Карает ar , помогу с раздачей aa
[Профиль]  [ЛС] 

-B1ack- ®

1902

Пост 28-Фев-2013 12:32 (спустя 1 месяц 12 дней)

[Q] 

Wolf111
слушай на здоровье =) спасибо за ром

_________________
[Профиль]  [ЛС] 
Показать сообщения:    
Ответить на тему

Текущее время: Сегодня 12:39

Часовой пояс: GMT + 4



Вы не можете начинать темы
Вы не можете отвечать на сообщения
Вы не можете редактировать свои сообщения
Вы не можете удалять свои сообщения
Вы не можете голосовать в опросах
Вы не можете прикреплять файлы к сообщениям
Вы не можете скачивать файлы

▼ Вниз