Уважаемый Гость!
Вы можете поддержать проект и зарегистрироваться у наших партнеров - онлайн-стратегия MyLands. При регистрации в игре Вы получите код, который сможете активировать после регистрации на pirat.ca и получить 1000 дублонов.

Ваш код:
d49a3625bbdee1b82b14274f97c375f8b2b2ee4c
 
     

(Alternative / Hip-Hop / Rapcore) Hollywood Undead / American Tragedy (Deluxe Edition) - 2011, FLAC (tracks+.cue) , lossless

Ответить на тему
 
Автор
Сообщение

Пост 30-Июн-2012 01:37

[Q] 

-B1ack-



Hollywood Undead / American Tragedy (Deluxe Edition)
________________________________________________________________________________

Год выпуска: 2011
Страна: USA
Жанр: Alternative / Hip-Hop / Rapcore
Лейбл издания: A&M Octane Records
Номер по каталогу: B0015276-02
Продолжительность: 01:06:18
Источник (релизер): what.cd (memories)
Формат:

Битрейт аудио: lossless
Тип рипа: tracks+.cue
Наличие сканов в содержимом раздачи: нет
________________________________________


01. Been To Hell (3:23)
02. Apologize (3:27)
03. Comin' In Hot (3:43)
04. My Town (3:36)
05. I Don't Wanna Die (3:59)
06. Hear Me Now (3:34)
07. Gangsta Sexy (3:54)
08. Glory (3:34)
09. Lights Out (3:51)
10. Coming Back Down (3:23)
11. Bullet (3:18)
12. Levitate (3:24)
13. Pour Me (4:03)
14. Tendencies (3:32)
Deluxe Edition:
15. Mother Murder (4:10)
16. Lump Your Head (3:37)
17. Le Deux (3:45)
18. S.C.A.V.A. (4:04)
_____________________________
Exact Audio Copy V1.0 beta 1 from 15. November 2010
EAC extraction logfile from 5. April 2011, 15:44
Hollywood Undead / American Tragedy (Deluxe Edition)
Used drive : PIONEER DVD-RW DVR-216D Adapter: 5 ID: 0
Read mode : Secure
Utilize accurate stream : Yes
Defeat audio cache : Yes
Make use of C2 pointers : No
Read offset correction : 96
Overread into Lead-In and Lead-Out : No
Fill up missing offset samples with silence : Yes
Delete leading and trailing silent blocks : No
Null samples used in CRC calculations : Yes
Used interface : Native Win32 interface for Win NT & 2000
Gap handling : Appended to previous track
Used output format : User Defined Encoder
Selected bitrate : 128 kBit/s
Quality : High
Add ID3 tag : No
Command line compressor : C:\Program Files\Exact Audio Copy\Flac\flac.exe
Additional command line options : -V -8 -T "artist=%a" -T "title=%t" -T "album=%g" -T "date=%y" -T "tracknumber=%n" -T "genre=%m" %s
TOC of the extracted CD
Track | Start | Length | Start sector | End sector
---------------------------------------------------------
1 | 0:00.00 | 3:23.12 | 0 | 15236
2 | 3:23.12 | 3:27.17 | 15237 | 30778
3 | 6:50.29 | 3:43.25 | 30779 | 47528
4 | 10:33.54 | 3:36.30 | 47529 | 63758
5 | 14:10.09 | 3:58.43 | 63759 | 81651
6 | 18:08.52 | 3:34.20 | 81652 | 97721
7 | 21:42.72 | 3:53.59 | 97722 | 115255
8 | 25:36.56 | 3:34.01 | 115256 | 131306
9 | 29:10.57 | 3:51.22 | 131307 | 148653
10 | 33:02.04 | 3:22.71 | 148654 | 163874
11 | 36:25.00 | 3:17.61 | 163875 | 178710
12 | 39:42.61 | 3:24.12 | 178711 | 194022
13 | 43:06.73 | 4:03.02 | 194023 | 212249
14 | 47:10.00 | 3:32.45 | 212250 | 228194
15 | 50:42.45 | 4:09.45 | 228195 | 246914
16 | 54:52.15 | 3:37.27 | 246915 | 263216
17 | 58:29.42 | 3:44.73 | 263217 | 280089
18 | 62:14.40 | 4:04.18 | 280090 | 298407
Track 1
Filename U:\EAC_RIPS\01 - Been To Hell.wav
Pre-gap length 0:00:02.00
Peak level 97.7 %
Extraction speed 4.3 X
Track quality 100.0 %
Test CRC C698E7EE
Copy CRC C698E7EE
Track not present in AccurateRip database
Copy OK
Track 2
Filename U:\EAC_RIPS\02 - Apologize.wav
Peak level 97.7 %
Extraction speed 4.2 X
Track quality 99.9 %
Test CRC 5C49C271
Copy CRC 5C49C271
Track not present in AccurateRip database
Copy OK
Track 3
Filename U:\EAC_RIPS\03 - Comin' In Hot.wav
Peak level 97.7 %
Extraction speed 5.4 X
Track quality 100.0 %
Test CRC 969D5B58
Copy CRC 969D5B58
Track not present in AccurateRip database
Copy OK
Track 4
Filename U:\EAC_RIPS\04 - My Town.wav
Peak level 97.7 %
Extraction speed 5.7 X
Track quality 100.0 %
Test CRC 02CE6A11
Copy CRC 02CE6A11
Track not present in AccurateRip database
Copy OK
Track 5
Filename U:\EAC_RIPS\05 - I Don't Wanna Die.wav
Peak level 97.7 %
Extraction speed 6.1 X
Track quality 100.0 %
Test CRC 56754642
Copy CRC 56754642
Track not present in AccurateRip database
Copy OK
Track 6
Filename U:\EAC_RIPS\06 - Hear Me Now.wav
Peak level 97.7 %
Extraction speed 5.7 X
Track quality 100.0 %
Test CRC CF377374
Copy CRC CF377374
Track not present in AccurateRip database
Copy OK
Track 7
Filename U:\EAC_RIPS\07 - Gangsta Sexy.wav
Peak level 97.7 %
Extraction speed 5.7 X
Track quality 99.9 %
Test CRC D8A0C708
Copy CRC D8A0C708
Track not present in AccurateRip database
Copy OK
Track 8
Filename U:\EAC_RIPS\08 - Glory.wav
Peak level 97.7 %
Extraction speed 6.5 X
Track quality 100.0 %
Test CRC 340535CB
Copy CRC 340535CB
Track not present in AccurateRip database
Copy OK
Track 9
Filename U:\EAC_RIPS\09 - Lights Out.wav
Peak level 97.7 %
Extraction speed 7.0 X
Track quality 100.0 %
Test CRC 7D26F6B2
Copy CRC 7D26F6B2
Track not present in AccurateRip database
Copy OK
Track 10
Filename U:\EAC_RIPS\10 - Coming Back Down.wav
Peak level 97.7 %
Extraction speed 7.1 X
Track quality 100.0 %
Test CRC D1104892
Copy CRC D1104892
Track not present in AccurateRip database
Copy OK
Track 11
Filename U:\EAC_RIPS\11 - Bullet.wav
Peak level 97.7 %
Extraction speed 7.2 X
Track quality 100.0 %
Test CRC 8CE49A4A
Copy CRC 8CE49A4A
Track not present in AccurateRip database
Copy OK
Track 12
Filename U:\EAC_RIPS\12 - Levitate.wav
Peak level 97.7 %
Extraction speed 7.1 X
Track quality 100.0 %
Test CRC 087BE9FD
Copy CRC 087BE9FD
Track not present in AccurateRip database
Copy OK
Track 13
Filename U:\EAC_RIPS\13 - Pour Me.wav
Peak level 97.7 %
Extraction speed 7.7 X
Track quality 100.0 %
Test CRC AFB6BB89
Copy CRC AFB6BB89
Track not present in AccurateRip database
Copy OK
Track 14
Filename U:\EAC_RIPS\14 - Tendencies.wav
Peak level 97.7 %
Extraction speed 7.8 X
Track quality 100.0 %
Test CRC B806E9CE
Copy CRC B806E9CE
Track not present in AccurateRip database
Copy OK
Track 15
Filename U:\EAC_RIPS\15 - Mother Murder.wav
Pre-gap length 0:00:00.10
Peak level 97.7 %
Extraction speed 7.8 X
Track quality 100.0 %
Test CRC 8A2E805F
Copy CRC 8A2E805F
Track not present in AccurateRip database
Copy OK
Track 16
Filename U:\EAC_RIPS\16 - Lump Your Head.wav
Peak level 97.7 %
Extraction speed 7.8 X
Track quality 100.0 %
Test CRC 9C4D3786
Copy CRC 9C4D3786
Track not present in AccurateRip database
Copy OK
Track 17
Filename U:\EAC_RIPS\17 - Le Deux.wav
Peak level 97.7 %
Extraction speed 7.3 X
Track quality 100.0 %
Test CRC D6612C31
Copy CRC D6612C31
Track not present in AccurateRip database
Copy OK
Track 18
Filename U:\EAC_RIPS\18 - S.C.A.V.A..wav
Peak level 97.7 %
Extraction speed 8.1 X
Track quality 100.0 %
Test CRC 7FDD54BF
Copy CRC 7FDD54BF
Track not present in AccurateRip database
Copy OK
None of the tracks are present in the AccurateRip database
No errors occurred
End of status report
==== Log checksum C5398A47AF1917BF5B317EB62826847CE999B59A32857A45BB3AE7E90E122D20 ====
REM GENRE Rock
REM DATE 2011
REM DISCID F80F8A12
REM COMMENT "ExactAudioCopy v1.0b1"
PERFORMER "Hollywood Undead"
TITLE "American Tragedy (Deluxe Edition)"
FILE "01 - Been To Hell.wav" WAVE
TRACK 01 AUDIO
TITLE "Been To Hell"
PERFORMER "Hollywood Undead"
FLAGS DCP
INDEX 01 00:00:00
FILE "02 - Apologize.wav" WAVE
TRACK 02 AUDIO
TITLE "Apologize"
PERFORMER "Hollywood Undead"
FLAGS DCP
INDEX 01 00:00:00
FILE "03 - Comin' In Hot.wav" WAVE
TRACK 03 AUDIO
TITLE "Comin' In Hot"
PERFORMER "Hollywood Undead"
FLAGS DCP
INDEX 01 00:00:00
FILE "04 - My Town.wav" WAVE
TRACK 04 AUDIO
TITLE "My Town"
PERFORMER "Hollywood Undead"
FLAGS DCP
INDEX 01 00:00:00
FILE "05 - I Don't Wanna Die.wav" WAVE
TRACK 05 AUDIO
TITLE "I Don't Wanna Die"
PERFORMER "Hollywood Undead"
FLAGS DCP
INDEX 01 00:00:00
FILE "06 - Hear Me Now.wav" WAVE
TRACK 06 AUDIO
TITLE "Hear Me Now"
PERFORMER "Hollywood Undead"
FLAGS DCP
INDEX 01 00:00:00
FILE "07 - Gangsta Sexy.wav" WAVE
TRACK 07 AUDIO
TITLE "Gangsta Sexy"
PERFORMER "Hollywood Undead"
FLAGS DCP
INDEX 01 00:00:00
FILE "08 - Glory.wav" WAVE
TRACK 08 AUDIO
TITLE "Glory"
PERFORMER "Hollywood Undead"
FLAGS DCP
INDEX 01 00:00:00
FILE "09 - Lights Out.wav" WAVE
TRACK 09 AUDIO
TITLE "Lights Out"
PERFORMER "Hollywood Undead"
FLAGS DCP
INDEX 01 00:00:00
FILE "10 - Coming Back Down.wav" WAVE
TRACK 10 AUDIO
TITLE "Coming Back Down"
PERFORMER "Hollywood Undead"
FLAGS DCP
INDEX 01 00:00:00
FILE "11 - Bullet.wav" WAVE
TRACK 11 AUDIO
TITLE "Bullet"
PERFORMER "Hollywood Undead"
FLAGS DCP
INDEX 01 00:00:00
FILE "12 - Levitate.wav" WAVE
TRACK 12 AUDIO
TITLE "Levitate"
PERFORMER "Hollywood Undead"
FLAGS DCP
INDEX 01 00:00:00
FILE "13 - Pour Me.wav" WAVE
TRACK 13 AUDIO
TITLE "Pour Me"
PERFORMER "Hollywood Undead"
FLAGS DCP
INDEX 01 00:00:00
FILE "14 - Tendencies.wav" WAVE
TRACK 14 AUDIO
TITLE "Tendencies"
PERFORMER "Hollywood Undead"
FLAGS DCP
INDEX 01 00:00:00
TRACK 15 AUDIO
TITLE "Mother Murder"
PERFORMER "Hollywood Undead"
FLAGS DCP
INDEX 00 03:32:35
FILE "15 - Mother Murder.wav" WAVE
INDEX 01 00:00:00
FILE "16 - Lump Your Head.wav" WAVE
TRACK 16 AUDIO
TITLE "Lump Your Head"
PERFORMER "Hollywood Undead"
FLAGS DCP
INDEX 01 00:00:00
FILE "17 - Le Deux.wav" WAVE
TRACK 17 AUDIO
TITLE "Le Deux"
PERFORMER "Hollywood Undead"
FLAGS DCP
INDEX 01 00:00:00
FILE "18 - S.C.A.V.A..wav" WAVE
TRACK 18 AUDIO
TITLE "S.C.A.V.A."
PERFORMER "Hollywood Undead"
FLAGS DCP
INDEX 01 00:00:00
Download / Скачать

Хотите скачать бесплатно? Зарегистрируйтесь на сайте (ссылка на регистрацию). Pirat.ca - самый быстрый торрент трекер в рунете!

Как скачивать  ·   Что такое торрент  ·   Рейтинг и ограничения



Последний раз редактировалось: -B1ack- (2013-11-11 18:47), всего редактировалось 2 раз(а)

litti

Флибустьер

Пост 08-Май-2013 11:33 (спустя 10 месяцев 8 дней)

[Q] 


_________________
Маньяком быть ты не обязан,
но сексуальным должен быть...
[Профиль]  [ЛС] 
Показать сообщения:    
Ответить на тему

Текущее время: Сегодня 19:38

Часовой пояс: GMT + 4



Вы не можете начинать темы
Вы не можете отвечать на сообщения
Вы не можете редактировать свои сообщения
Вы не можете удалять свои сообщения
Вы не можете голосовать в опросах
Вы не можете прикреплять файлы к сообщениям
Вы не можете скачивать файлы

▼ Вниз