Уважаемый Гость!
Вы можете поддержать проект и зарегистрироваться у наших партнеров - онлайн-стратегия MyLands. При регистрации в игре Вы получите код, который сможете активировать после регистрации на pirat.ca и получить 1000 дублонов.

Ваш код:
b35b3ec45a7bd3f86315766471edc285be832af4
 
     

(Heavy Metal) Saxon - Call To Arms (2CD) - 2011, APE (Image+cue), lossless

Ответить на тему
 
Автор
Сообщение

Пост 12-Дек-2011 20:09

[Q] 

sergej644

-Saxon - Call To Arms (2CD)- -Производство: UK
Жанр: Heavy Metal
Год выпуска: 2011
Формат: Ape
Тип рипа: Image+cue
Битрейт аудио: lossless
Продолжительность: 1:15:49
- -
01. Hammer Of The Gods (04:21)
02. Back In 79 (03:28)
03. Surviving Against The Odds (03:01)
04. Mists Of Avalon (05:01)
05. Call To Arms (04:28)
06. Chasing The Bullet (04:14)
07. Afterburner (03:05)
08. When Doomsday Comes (Hybrid Theory) (04:28)
09. No Rest For The Wicked (03:08)
10. Ballad Of The Working Man (03:47)
11. Call To Arms (Orchestral Version) (04:27)
time: 00:43:35
Exact Audio Copy V0.99 prebeta 5 from 4. May 2009
EAC extraction logfile from 28. June 2011, 18:09
Saxon / Call To Arms
Used drive : PIONEER DVD-RW DVR-219L Adapter: 2 ID: 0
Read mode : Secure
Utilize accurate stream : Yes
Defeat audio cache : Yes
Make use of C2 pointers : No
Read offset correction : 6
Overread into Lead-In and Lead-Out : No
Fill up missing offset samples with silence : Yes
Delete leading and trailing silent blocks : No
Null samples used in CRC calculations : Yes
Used interface : Native Win32 interface for Win NT & 2000
Used output format : Monkey's Audio Lossless Encoder
Selected bitrate : High Lossless Compression
Quality : High
Add ID3 tag : Yes
Command line compressor : C:\Programmi\Exact Audio Copy\MAC.EXE
TOC of the extracted CD
Track | Start | Length | Start sector | End sector
---------------------------------------------------------
1 | 0:00.00 | 4:21.25 | 0 | 19599
2 | 4:21.25 | 3:28.12 | 19600 | 35211
3 | 7:49.37 | 3:01.49 | 35212 | 48835
4 | 10:51.11 | 5:01.57 | 48836 | 71467
5 | 15:52.68 | 4:28.60 | 71468 | 91627
6 | 20:21.53 | 4:14.28 | 91628 | 110705
7 | 24:36.06 | 3:05.54 | 110706 | 124634
8 | 27:41.60 | 4:28.54 | 124635 | 144788
9 | 32:10.39 | 3:08.71 | 144789 | 158959
10 | 35:19.35 | 3:47.56 | 158960 | 176040
11 | 39:07.16 | 4:27.68 | 176041 | 196133
Range status and errors
Selected range
Filename C:\Documents and Settings\oem\Documenti\Saxon - Call To Arms\Saxon - Call To Arms.wav
Peak level 100.0 %
Range quality 100.0 %
Copy CRC 22F63145
Copy OK
No errors occurred
AccurateRip summary
Track 1 not present in database
Track 2 not present in database
Track 3 not present in database
Track 4 not present in database
Track 5 not present in database
Track 6 not present in database
Track 7 not present in database
Track 8 not present in database
Track 9 not present in database
Track 10 not present in database
Track 11 not present in database
None of the tracks are present in the AccurateRip database
End of status report
REM GENRE "Heavy Metal"
REM DATE 2011
REM DISCID 8C0A370B
REM COMMENT "ExactAudioCopy v0.99pb5"
PERFORMER "Saxon"
TITLE "Call To Arms"
FILE "Saxon - Call To Arms.ape" WAVE
TRACK 01 AUDIO
TITLE "Hammer Of The Gods"
PERFORMER "Saxon"
INDEX 01 00:00:00
TRACK 02 AUDIO
TITLE "Back In 79"
PERFORMER "Saxon"
INDEX 01 04:21:25
TRACK 03 AUDIO
TITLE "Surviving Against The Odds"
PERFORMER "Saxon"
INDEX 01 07:49:37
TRACK 04 AUDIO
TITLE "Mists Of Avalon"
PERFORMER "Saxon"
INDEX 01 10:51:11
TRACK 05 AUDIO
TITLE "Call To Arms"
PERFORMER "Saxon"
INDEX 01 15:52:68
TRACK 06 AUDIO
TITLE "Chasing The Bullet"
PERFORMER "Saxon"
INDEX 01 20:21:53
TRACK 07 AUDIO
TITLE "Afterburner"
PERFORMER "Saxon"
INDEX 01 24:36:06
TRACK 08 AUDIO
TITLE "When Doomsday Comes"
PERFORMER "Saxon"
INDEX 01 27:41:60
TRACK 09 AUDIO
TITLE "No Rest For The Wcked"
PERFORMER "Saxon"
INDEX 01 32:10:39
TRACK 10 AUDIO
TITLE "Ballad Of The Working Man"
PERFORMER "Saxon"
INDEX 01 35:19:35
TRACK 11 AUDIO
TITLE "Call To Arms - Orchestral"
PERFORMER "Saxon"
INDEX 01 39:07:16
-
01. Motorcycle Man (Live) (04:01)
02. Still Fit To Boogie (Live) (03:21)
03. Freeway Mad (Live) (02:33)
04. Backs To The Wall (Live) (04:09)
05. Wheels Of Steel (Live) (05:53)
06. Bap Shu Ap (Live) (06:46)
07. 747 (Strangers In The Night) (Live) (05:26)
time: 00:32:14
Exact Audio Copy V0.99 prebeta 5 from 4. May 2009
EAC extraction logfile from 28. June 2011, 18:42
Saxon / Live At Donington 1980 (Call To Arms Limited Edition Bonus CD)
Used drive : PIONEER DVD-RW DVR-219L Adapter: 2 ID: 0
Read mode : Secure
Utilize accurate stream : Yes
Defeat audio cache : Yes
Make use of C2 pointers : No
Read offset correction : 6
Overread into Lead-In and Lead-Out : No
Fill up missing offset samples with silence : Yes
Delete leading and trailing silent blocks : No
Null samples used in CRC calculations : Yes
Used interface : Native Win32 interface for Win NT & 2000
Used output format : Monkey's Audio Lossless Encoder
Selected bitrate : High Lossless Compression
Quality : High
Add ID3 tag : Yes
Command line compressor : C:\Programmi\Exact Audio Copy\MAC.EXE
TOC of the extracted CD
Track | Start | Length | Start sector | End sector
---------------------------------------------------------
1 | 0:00.00 | 4:01.44 | 0 | 18118
2 | 4:01.44 | 3:21.48 | 18119 | 33241
3 | 7:23.17 | 2:33.05 | 33242 | 44721
4 | 9:56.22 | 4:09.39 | 44722 | 63435
5 | 14:05.61 | 5:53.34 | 63436 | 89944
6 | 19:59.20 | 6:46.47 | 89945 | 120441
7 | 26:45.67 | 5:28.57 | 120442 | 145098
Range status and errors
Selected range
Filename C:\Documents and Settings\oem\Documenti\Saxon - Call To Arms\Saxon - Live At Donington 1980 (Call To Arms Limited Edition Bonus CD).wav
Peak level 100.0 %
Range quality 100.0 %
Copy CRC CE3C134F
Copy OK
No errors occurred
AccurateRip summary
Track 1 not present in database
Track 2 not present in database
Track 3 not present in database
Track 4 not present in database
Track 5 not present in database
Track 6 not present in database
Track 7 not present in database
None of the tracks are present in the AccurateRip database
End of status report
REM GENRE Metal
REM DATE 2011
REM DISCID 53078E07
REM COMMENT "ExactAudioCopy v0.99pb5"
PERFORMER "Saxon"
TITLE "Live At Donington 1980 (Call To Arms Limited Edition Bonus CD)"
FILE "Saxon - Live At Donington 1980 (Call To Arms Limited Edition Bonus CD).ape" WAVE
TRACK 01 AUDIO
TITLE "Motorcycle Man (live)"
PERFORMER "Saxon"
INDEX 01 00:00:00
TRACK 02 AUDIO
TITLE "Still Fit To Boogie (live)"
PERFORMER "Saxon"
INDEX 01 04:01:44
TRACK 03 AUDIO
TITLE "Freeway Mad (live)"
PERFORMER "Saxon"
INDEX 01 07:23:17
TRACK 04 AUDIO
TITLE "Backs To The Wall (live)"
PERFORMER "Saxon"
INDEX 01 09:56:22
TRACK 05 AUDIO
TITLE "Wheels Of Steel (live)"
PERFORMER "Saxon"
INDEX 01 14:05:61
TRACK 06 AUDIO
TITLE "Bap Shu Ap (live)"
PERFORMER "Saxon"
INDEX 01 19:59:20
TRACK 07 AUDIO
TITLE "747 (Strangers In The Night) (live)"
PERFORMER "Saxon"
INDEX 01 26:45:67
-
Biff Byford - Vocals
Paul Quinn - Guitars
Doug Scarratt - Guitars
Nibbs Carter - Bass
Nigel Glockler - Drums
- -
Download / Скачать

Хотите скачать бесплатно? Зарегистрируйтесь на сайте (ссылка на регистрацию). Pirat.ca - самый быстрый торрент трекер в рунете!

Как скачивать  ·   Что такое торрент  ·   Рейтинг и ограничения

Показать сообщения:    
Ответить на тему

Текущее время: Сегодня 18:55

Часовой пояс: GMT + 4



Вы не можете начинать темы
Вы не можете отвечать на сообщения
Вы не можете редактировать свои сообщения
Вы не можете удалять свои сообщения
Вы не можете голосовать в опросах
Вы не можете прикреплять файлы к сообщениям
Вы не можете скачивать файлы

▼ Вниз