Уважаемый Гость!
Вы можете поддержать проект и зарегистрироваться у наших партнеров - онлайн-стратегия MyLands. При регистрации в игре Вы получите код, который сможете активировать после регистрации на pirat.ca и получить 1000 дублонов.

Ваш код:
bf76b4fde44c7189cfb4d32d5b204facc1d6d492
 
     

(Power Metal) Stratovarius - Polaris - 2009, FLAC (Image+cue), lossless

Ответить на тему
 
Автор
Сообщение

Пост 21-Дек-2011 21:21

[Q] 

sergej644

-Stratovarius - Polaris- -Polaris" (2009) – один из самых важных альбомов в карьере группы. На первом диске, записанном без участия основателя STRATOVARIUS Тимо Толки, коллектив не ударил в грязь лицом и доказал, что и без Тимо участники группы вполне способны достойно продолжать дело одной из ведущих европейских пауэр-металлических групп. -Страна: Finland
Страна производства диска: Japan
Жанр: Power Metal
Год выпуска: 2009
Формат: FLAC
Тип рипа: Image+cue
Битрейт аудио: lossless
Продолжительность: 00:59:35
- -01. Deep Unknown [04:28]
02. Falling Star [04:33]
03. King Of Nothing [06:41]
04. Second Sight [04:25]
05. Blind [05:28]
06. Winter Skies [05:50]
07. Forever Is Today [04:40]
08. Higher We Go [03:47]
09. Somehow Precious [05:37]
10. Emancipation Suite Part 1-Dusk [06:57]
11. Emancipation Suite Part 2-Dawn [03:40]
12. When Mountains Fall [03:13]
-
Exact Audio Copy V0.99 prebeta 5 from 4. May 2009
Отчёт EAC об извлечении, выполненном 26. июля 2011, 13:51
Stratovarius / Polaris (Japan)
Дисковод: ASUS DRW-1814BL Adapter: 4 ID: 1
Режим чтения : Достоверность
Использование точного потока : Да
Отключение кэша аудио : Да
Использование указателей C2 : Нет
Коррекция смещения при чтении : 6
Способность читать области Lead-in и Lead-out : Нет
Заполнение пропущенных сэмплов тишиной : Да
Удаление блоков с тишиной в начале и конце : Нет
При вычислениях CRC использовались нулевые сэмплы : Да
Интерфейс : Установленный внешний ASPI-интерфейс
Выходной формат : Пользовательский кодировщик
Выбранный битрейт : 1024 kBit/s
Качество : Высокий
Добавление ID3-тэга : Нет
Утилита сжатия : C:\Program Files\Exact Audio Copy\FLAC\FLAC.EXE
Дополнительные параметры : -6 -V -T "ARTIST=%a" -T "TITLE=%t" -T "ALBUM=%g" -T "DATE=%y" -T "TRACKNUMBER=%n" -T "GENRE=%m" -T "COMMENT=%e" %s -o %d
TOC извлечённого CD
Трек | Старт | Длительность | Начальный сектор | Конечный сектор
---------------------------------------------------------------------
1 | 0:00.00 | 4:28.27 | 0 | 20126
2 | 4:28.27 | 4:33.06 | 20127 | 40607
3 | 9:01.33 | 6:41.65 | 40608 | 70747
4 | 15:43.23 | 4:25.19 | 70748 | 90641
5 | 20:08.42 | 5:28.57 | 90642 | 115298
6 | 25:37.24 | 5:50.15 | 115299 | 141563
7 | 31:27.39 | 4:40.65 | 141564 | 162628
8 | 36:08.29 | 3:47.62 | 162629 | 179715
9 | 39:56.16 | 5:37.44 | 179716 | 205034
10 | 45:33.60 | 6:57.39 | 205035 | 236348
11 | 52:31.24 | 3:40.50 | 236349 | 252898
12 | 56:11.74 | 3:13.35 | 252899 | 267408
Характеристики диапазона извлечения и сообщения об ошибках
Выбранный диапазон
Имя файла G:\Program files\Рипаные файлы\Stratovarius - Polaris (Japan)\Stratovarius - Polaris (Japan).wav
Пиковый уровень 100.0 %
Качество диапазона 100.0 %
CRC копии 2FE2BA77
Копирование... OK
Ошибок не произошло
Конец отчёта
REM GENRE Metal
REM DATE 2009
REM DISCID A60DED0C
REM COMMENT "ExactAudioCopy v0.99pb5"
CATALOG 4988002570485
PERFORMER "Stratovarius"
TITLE "Polaris (Japan)"
FILE "Stratovarius - Polaris (Japan).flac" WAVE
TRACK 01 AUDIO
TITLE "Deep Unknown"
PERFORMER "Stratovarius"
ISRC <cP820900023
INDEX 01 00:00:00
TRACK 02 AUDIO
TITLE "Falling Star"
PERFORMER "Stratovarius"
ISRC <cP820900030
INDEX 01 04:28:27
TRACK 03 AUDIO
TITLE "King Of Nothing"
PERFORMER "Stratovarius"
ISRC <cP820900024
INDEX 01 09:01:33
TRACK 04 AUDIO
TITLE "Second Sight"
PERFORMER "Stratovarius"
ISRC SCZV;0999666
INDEX 01 15:43:23
TRACK 05 AUDIO
TITLE "Blind"
PERFORMER "Stratovarius"
ISRC SCZV;0999666
INDEX 01 20:08:42
TRACK 06 AUDIO
TITLE "Winter Skies"
PERFORMER "Stratovarius"
ISRC <cP820900028
INDEX 00 25:33:59
INDEX 01 25:37:24
TRACK 07 AUDIO
TITLE "Forever Is Today"
PERFORMER "Stratovarius"
ISRC <cP820900027
INDEX 01 31:27:39
TRACK 08 AUDIO
TITLE "Higher We Go"
PERFORMER "Stratovarius"
ISRC <cP820900026
INDEX 01 36:08:29
TRACK 09 AUDIO
TITLE "Somehow Precious"
PERFORMER "Stratovarius"
ISRC <cP820900029
INDEX 01 39:56:16
TRACK 10 AUDIO
TITLE "Emancipation Suite Part 1-Dusk"
PERFORMER "Stratovarius"
ISRC <cP820900031
INDEX 01 45:33:60
TRACK 11 AUDIO
TITLE "Emancipation Suite Part 2-Dawn"
PERFORMER "Stratovarius"
ISRC <cP820900032
INDEX 01 52:31:24
TRACK 12 AUDIO
TITLE "When Mountains Fall"
PERFORMER "Stratovarius"
ISRC <cP820900033
INDEX 00 56:09:28
INDEX 01 56:11:74
- -
Timo Kotipelto - vocals
Matias Kupiainen - guitar
Jens Johansson - keyboard
Lauri Porra - bass
Jorg Michael - drums
-
-
Download / Скачать

Хотите скачать бесплатно? Зарегистрируйтесь на сайте (ссылка на регистрацию). Pirat.ca - самый быстрый торрент трекер в рунете!

Как скачивать  ·   Что такое торрент  ·   Рейтинг и ограничения

L2.exe

Лоцман

Пост 06-Янв-2014 15:08 (спустя 2 года)

[Q] 

Дайте скорости
[Профиль]  [ЛС] 
Показать сообщения:    
Ответить на тему

Текущее время: Сегодня 12:36

Часовой пояс: GMT + 4



Вы не можете начинать темы
Вы не можете отвечать на сообщения
Вы не можете редактировать свои сообщения
Вы не можете удалять свои сообщения
Вы не можете голосовать в опросах
Вы не можете прикреплять файлы к сообщениям
Вы не можете скачивать файлы

▼ Вниз