Уважаемый Гость!
Вы можете поддержать проект и зарегистрироваться у наших партнеров - онлайн-стратегия MyLands. При регистрации в игре Вы получите код, который сможете активировать после регистрации на pirat.ca и получить 1000 дублонов.

Ваш код:
1b8effbb2d91248629d5897a85d0d1c4a4c433f0
 
     

(Thrash / Heavy Metal) Megadeth - Super Collider - 2013 [FLAC, tracks+.cue, lossless]

Ответить на тему
 
Автор
Сообщение

Пост 31-Май-2013 21:48

[Q] 

alexey3312

Флибустьер

-Megadeth / Super Collider-- Год издания: 2013
Страна: USA
Жанр: Thrash / Heavy Metal
Продолжительность: 45:14-Лейбл издания: Universal
Источник (релизер): deathember-Формат: FLAC
Битрейт аудио: lossless
Тип рипа: tracks+.cue
Наличие сканов в содержимом раздачи: нет-
01. Kingmaker (4:17)
02. Super Collider (4:12)
03. Burn! (4:11)
04. Built For War (3:58)
05. Off The Edge (4:12)
06. Dance In The Rain (4:46)
07. Beginning Of Sorrow (3:51)
08. The Blackest Crow (4:28)
09. Forget To Remember (4:28)
10. Don't Turn Your Back... (3:47)
11. Cold Sweat (3:10)
Exact Audio Copy V1.0 beta 3 from 29. August 2011
EAC extraction logfile from 31. May 2013, 15:29
Megadeth / Super Collider
Used drive : HL-DT-STBD-RE BH12LS30 Adapter: 0 ID: 0
Read mode : Secure
Utilize accurate stream : Yes
Defeat audio cache : Yes
Make use of C2 pointers : No
Read offset correction : 667
Overread into Lead-In and Lead-Out : No
Fill up missing offset samples with silence : Yes
Delete leading and trailing silent blocks : No
Null samples used in CRC calculations : Yes
Used interface : Native Win32 interface for Win NT & 2000
Gap handling : Appended to previous track
Used output format : User Defined Encoder
Selected bitrate : 1024 kBit/s
Quality : High
Add ID3 tag : No
Command line compressor : C:\Program Files (x86)\Exact Audio Copy\Flac\flac.exe
Additional command line options : -8 -V -T "ARTIST=%artist%" -T "TITLE=%title%" -T "ALBUM=%albumtitle%" -T "DATE=%year%" -T "TRACKNUMBER=%tracknr%" -T "GENRE=%genre%" -T "PERFORMER=%albuminterpret%" -T "COMPOSER=%composer%" %haslyrics%--tag-from-file=LYRICS="%lyricsfile%"%haslyrics% -T "ALBUMARTIST=%albumartist%" -T "DISCNUMBER=%cdnumber%" -T "TOTALDISCS=%totalcds%" -T "TOTALTRACKS=%numtracks%" -T "COMMENT=%comment%" %source% -o %dest%
TOC of the extracted CD
Track | Start | Length | Start sector | End sector
---------------------------------------------------------
1 | 0:00.00 | 4:16.33 | 0 | 19232
2 | 4:16.33 | 4:11.73 | 19233 | 38130
3 | 8:28.31 | 4:11.21 | 38131 | 56976
4 | 12:39.52 | 3:57.46 | 56977 | 74797
5 | 16:37.23 | 4:11.51 | 74798 | 93673
6 | 20:48.74 | 4:45.68 | 93674 | 115116
7 | 25:34.67 | 3:51.19 | 115117 | 132460
8 | 29:26.11 | 4:27.64 | 132461 | 152549
9 | 33:54.00 | 4:28.16 | 152550 | 172665
10 | 38:22.16 | 3:47.17 | 172666 | 189707
11 | 42:09.33 | 3:10.03 | 189708 | 203960
Track 1
Filename C:\EACRips\Megadeth - Super Collider\01. Kingmaker.wav
Pre-gap length 0:00:02.00
Peak level 100.0 %
Extraction speed 1.1 X
Track quality 100.0 %
Test CRC 5142E786
Copy CRC 5142E786
Track not present in AccurateRip database
Copy OK
Track 2
Filename C:\EACRips\Megadeth - Super Collider\02. Super Collider.wav
Peak level 100.0 %
Extraction speed 1.1 X
Track quality 99.9 %
Test CRC 68B1CB1F
Copy CRC 68B1CB1F
Track not present in AccurateRip database
Copy OK
Track 3
Filename C:\EACRips\Megadeth - Super Collider\03. Burn!.wav
Peak level 100.0 %
Extraction speed 1.4 X
Track quality 100.0 %
Test CRC 4F427A6B
Copy CRC 4F427A6B
Track not present in AccurateRip database
Copy OK
Track 4
Filename C:\EACRips\Megadeth - Super Collider\04. Built for War.wav
Peak level 100.0 %
Extraction speed 1.4 X
Track quality 100.0 %
Test CRC 4BD0EC98
Copy CRC 4BD0EC98
Track not present in AccurateRip database
Copy OK
Track 5
Filename C:\EACRips\Megadeth - Super Collider\05. Off the Edge.wav
Peak level 100.0 %
Extraction speed 1.4 X
Track quality 99.9 %
Test CRC D6B3B9D1
Copy CRC D6B3B9D1
Track not present in AccurateRip database
Copy OK
Track 6
Filename C:\EACRips\Megadeth - Super Collider\06. Dance in the Rain.wav
Peak level 100.0 %
Extraction speed 1.7 X
Track quality 100.0 %
Test CRC 13867E55
Copy CRC 13867E55
Track not present in AccurateRip database
Copy OK
Track 7
Filename C:\EACRips\Megadeth - Super Collider\07. Beginning of Sorrow.wav
Peak level 100.0 %
Extraction speed 1.7 X
Track quality 100.0 %
Test CRC FED6F7AB
Copy CRC FED6F7AB
Track not present in AccurateRip database
Copy OK
Track 8
Filename C:\EACRips\Megadeth - Super Collider\08. The Blackest Crow.wav
Peak level 100.0 %
Extraction speed 1.8 X
Track quality 100.0 %
Test CRC 156DB09E
Copy CRC 156DB09E
Track not present in AccurateRip database
Copy OK
Track 9
Filename C:\EACRips\Megadeth - Super Collider\09. Forget to Remember.wav
Peak level 100.0 %
Extraction speed 1.7 X
Track quality 99.9 %
Test CRC 92D982B1
Copy CRC 92D982B1
Track not present in AccurateRip database
Copy OK
Track 10
Filename C:\EACRips\Megadeth - Super Collider\10. Don’t Turn Your Back….wav
Peak level 100.0 %
Extraction speed 1.9 X
Track quality 100.0 %
Test CRC 0F3F69C7
Copy CRC 0F3F69C7
Track not present in AccurateRip database
Copy OK
Track 11
Filename C:\EACRips\Megadeth - Super Collider\11. Cold Sweat (Thin Lizzy cover).wav
Peak level 100.0 %
Extraction speed 1.9 X
Track quality 100.0 %
Test CRC 09928F14
Copy CRC 09928F14
Track not present in AccurateRip database
Copy OK
None of the tracks are present in the AccurateRip database
No errors occurred
End of status report
---- CUETools DB Plugin V2.1.4
[CTDB TOCID: suMIG0NNNVuhhpSJBMQUNdhLDEc-] disk not present in database
Submit result: suMIG0NNNVuhhpSJBMQUNdhLDEc- has been uploaded
==== Log checksum B25A6CA7C0E6C68DCEE72CA1E9CCEA03746F7DA22BC793ED7E38C6AA0B6AFD3C ====
REM GENRE "Hard Rock"
REM DATE 2013
REM DISCID 8C0A9F0B
REM COMMENT "ExactAudioCopy v1.0b3"
CATALOG 0602537273720
PERFORMER "Megadeth"
TITLE "Super Collider"
FILE "01. Kingmaker.wav" WAVE
TRACK 01 AUDIO
TITLE "Kingmaker"
PERFORMER "Megadeth"
ISRC USUM71303889
INDEX 01 00:00:00
FILE "02. Super Collider.wav" WAVE
TRACK 02 AUDIO
TITLE "Super Collider"
PERFORMER "Megadeth"
ISRC USUM71303890
INDEX 01 00:00:00
FILE "03. Burn!.wav" WAVE
TRACK 03 AUDIO
TITLE "Burn!"
PERFORMER "Megadeth"
ISRC USUM71303901
INDEX 01 00:00:00
FILE "04. Built for War.wav" WAVE
TRACK 04 AUDIO
TITLE "Built for War"
PERFORMER "Megadeth"
ISRC USUM71303887
INDEX 01 00:00:00
FILE "05. Off the Edge.wav" WAVE
TRACK 05 AUDIO
TITLE "Off the Edge"
PERFORMER "Megadeth"
ISRC USUM71303902
INDEX 01 00:00:00
FILE "06. Dance in the Rain.wav" WAVE
TRACK 06 AUDIO
TITLE "Dance in the Rain"
PERFORMER "Megadeth"
ISRC USUM71303888
INDEX 01 00:00:00
FILE "07. Beginning of Sorrow.wav" WAVE
TRACK 07 AUDIO
TITLE "Beginning of Sorrow"
PERFORMER "Megadeth"
ISRC USUM71303903
INDEX 01 00:00:00
FILE "08. The Blackest Crow.wav" WAVE
TRACK 08 AUDIO
TITLE "The Blackest Crow"
PERFORMER "Megadeth"
ISRC USUM71303907
INDEX 01 00:00:00
FILE "09. Forget to Remember.wav" WAVE
TRACK 09 AUDIO
TITLE "Forget to Remember"
PERFORMER "Megadeth"
ISRC USUM71303904
INDEX 01 00:00:00
FILE "10. Don’t Turn Your Back….wav" WAVE
TRACK 10 AUDIO
TITLE "Don’t Turn Your Back…"
PERFORMER "Megadeth"
ISRC USUM71303905
INDEX 01 00:00:00
FILE "11. Cold Sweat (Thin Lizzy cover).wav" WAVE
TRACK 11 AUDIO
TITLE "Cold Sweat (Thin Lizzy cover)"
PERFORMER "Megadeth"
ISRC USUM71304669
INDEX 01 00:00:00
Download / Скачать

Хотите скачать бесплатно? Зарегистрируйтесь на сайте (ссылка на регистрацию). Pirat.ca - самый быстрый торрент трекер в рунете!

Как скачивать  ·   Что такое торрент  ·   Рейтинг и ограничения

alexey3312 ®

Флибустьер

405

Пост 31-Май-2013 22:00 (спустя 11 минут)

[Q] 

Отличный альбом старичков trash/heavy.

_________________
Металлисты - это самый развитой и передовой класс, и никто не может отрицать, что это и есть передовой отряд всего пролетариата. В.И. Ленин
[Профиль]  [ЛС] 
Показать сообщения:    
Ответить на тему

Текущее время: Сегодня 03:07

Часовой пояс: GMT + 4



Вы не можете начинать темы
Вы не можете отвечать на сообщения
Вы не можете редактировать свои сообщения
Вы не можете удалять свои сообщения
Вы не можете голосовать в опросах
Вы не можете прикреплять файлы к сообщениям
Вы не можете скачивать файлы

▼ Вниз