Уважаемый Гость!
Вы можете поддержать проект и зарегистрироваться у наших партнеров - онлайн-стратегия MyLands. При регистрации в игре Вы получите код, который сможете активировать после регистрации на pirat.ca и получить 1000 дублонов.

Ваш код:
6ce94c87b14c77f4c9d9415fb160accb369c92d9
 
     

(Melodic Death Metal) Cyanotic - Sapphire Season - 1996, FLAC (image+.cue), lossless

Ответить на тему
 
Автор
Сообщение

Пост 25-Авг-2013 22:40

[Q] 

Kote Makaradze

Cyanotic - Sapphire Season- -Страна: Denmark
Жанр: Melodic Death Metal
Год издания: 1996
Производитель диска: Nordic Metal [NMCD 1096]
Аудиокодек: FLAC (*.flac)
Тип рипа: image+.cue
Битрейт аудио: lossless
Продолжительность: 0:42:13
Источник: Original CD bay darkbrides
Сканы: да

01. A Mirage to Cherish (5:12)
02. Solitary King (4:13)
03. Inside the Avanlanche Maze (4:10)
04. Dethronement (4:56)
05. Embrionic Wonder (4:42)
06. Echoes in the Wasteland (4:48)
07. Forest of Oblivion (4:40)
08. Sapphire Sea (4:05)
09. Salvation Accomplished (5:25)
-
Exact Audio Copy V1.0 beta 3 from 29. August 2011
EAC extraction logfile from 25. August 2013, 20:52
Cyanotic / Sapphire Season
Used drive : ASUS DRW-1612BL Adapter: 0 ID: 0
Read mode : Secure
Utilize accurate stream : Yes
Defeat audio cache : Yes
Make use of C2 pointers : No
Read offset correction : 6
Overread into Lead-In and Lead-Out : No
Fill up missing offset samples with silence : Yes
Delete leading and trailing silent blocks : No
Null samples used in CRC calculations : Yes
Used interface : Installed external ASPI interface
Used output format : User Defined Encoder
Selected bitrate : 128 kBit/s
Quality : High
Add ID3 tag : No
Command line compressor : C:\Program Files\EAC\Exact Audio Copy\Flac\flac.exe
Additional command line options : -V -8 -T "Date=%year%" -T "Genre=%genre%" %source%
TOC of the extracted CD
Track | Start | Length | Start sector | End sector
---------------------------------------------------------
1 | 0:00.00 | 5:12.37 | 0 | 23436
2 | 5:12.37 | 4:12.50 | 23437 | 42386
3 | 9:25.12 | 4:10.18 | 42387 | 61154
4 | 13:35.30 | 4:56.22 | 61155 | 83376
5 | 18:31.52 | 4:42.02 | 83377 | 104528
6 | 23:13.54 | 4:48.36 | 104529 | 126164
7 | 28:02.15 | 4:40.37 | 126165 | 147201
8 | 32:42.52 | 4:05.08 | 147202 | 165584
9 | 36:47.60 | 5:24.70 | 165585 | 189954
Range status and errors
Selected range
Filename C:\darkbrides\Cyanotic - Sapphire Season.wav
Peak level 98.0 %
Extraction speed 8.0 X
Range quality 100.0 %
Test CRC 35F5CBC4
Copy CRC 35F5CBC4
Copy OK
No errors occurred
AccurateRip summary
Track 1 accurately ripped (confidence 1) [59FB8A58] (AR v1)
Track 2 accurately ripped (confidence 1) [6872B20E] (AR v1)
Track 3 accurately ripped (confidence 1) [7265492A] (AR v1)
Track 4 accurately ripped (confidence 1) [9BBB5649] (AR v1)
Track 5 accurately ripped (confidence 1) [E09EAAED] (AR v1)
Track 6 accurately ripped (confidence 1) [6E525A92] (AR v1)
Track 7 accurately ripped (confidence 1) [4478169A] (AR v1)
Track 8 accurately ripped (confidence 1) [85CF283E] (AR v1)
Track 9 accurately ripped (confidence 1) [F2DB8CB3] (AR v1)
All tracks accurately ripped
End of status report
==== Log checksum 1682F8492DD3CAE17EE28C3C0D51DF255D3A2C5053492B4A8638B50714B84253 ====
-
Download / Скачать

Хотите скачать бесплатно? Зарегистрируйтесь на сайте (ссылка на регистрацию). Pirat.ca - самый быстрый торрент трекер в рунете!

Как скачивать  ·   Что такое торрент  ·   Рейтинг и ограничения

Показать сообщения:    
Ответить на тему

Текущее время: Сегодня 01:11

Часовой пояс: GMT + 4



Вы не можете начинать темы
Вы не можете отвечать на сообщения
Вы не можете редактировать свои сообщения
Вы не можете удалять свои сообщения
Вы не можете голосовать в опросах
Вы не можете прикреплять файлы к сообщениям
Вы не можете скачивать файлы

▼ Вниз