Уважаемый Гость!
Вы можете поддержать проект и зарегистрироваться у наших партнеров - онлайн-стратегия MyLands. При регистрации в игре Вы получите код, который сможете активировать после регистрации на pirat.ca и получить 1000 дублонов.

Ваш код:
b35b3ec45a7bd3f86315766471edc285be832af4
 
     

(Symphonic Gothic Metal) Within Temptation / Hydra [Deluxe Box Set] - 2014 [FLAC, tracks+.cue, lossless]

Ответить на тему
 
Автор
Сообщение

Пост 29-Янв-2014 13:27

[Q] 

UnSlayeR

Флибустьер

-Within Temptation / Hydra [Deluxe Box Set] -- Год издания: 2014
Страна: USA
Жанр: Symphonic Gothic Metal
Продолжительность: 02:16:04
Формат: FLAC
Битрейт аудио: Lossless
Тип рипа: tracks
Наличие сканов в содержимом раздачи: нет-Трэклист:
01. Let Us Burn
02. Dangerous (Feat. Howard Jones)
03. And We Run (Feat. Xzibit)
04. Paradise (What About Us?) (Feat. Tarja)
05. Edge Of The World
06. Silver Moonlight
07. Covered By Roses
08. Dog Days
09. Tell Me Why
10. Whole World Is Watching (Feat. Dave Pirner)
Exact Audio Copy V1.0 beta 3 from 29. August 2011
EAC extraction logfile from 28. January 2014, 20:53
Within Temptation / Hydra
Used drive : HL-DT-STBD-RE GGW-H20L Adapter: 2 ID: 0
Read mode : Secure
Utilize accurate stream : Yes
Defeat audio cache : Yes
Make use of C2 pointers : No
Read offset correction : 667
Overread into Lead-In and Lead-Out : No
Fill up missing offset samples with silence : Yes
Delete leading and trailing silent blocks : No
Null samples used in CRC calculations : Yes
Used interface : Native Win32 interface for Win NT & 2000
Gap handling : Appended to previous track
Used output format : User Defined Encoder
Selected bitrate : 1024 kBit/s
Quality : High
Add ID3 tag : No
Command line compressor : C:\Program Files (x86)\Exact Audio Copy\Flac\flac.exe
Additional command line options : -8 -V -T "ARTIST=%artist%" -T "TITLE=%title%" -T "ALBUM=%albumtitle%" -T "DATE=%year%" -T "TRACKNUMBER=%tracknr%" -T "GENRE=%genre%" -T "PERFORMER=%albuminterpret%" -T "COMPOSER=%composer%" %haslyrics%--tag-from-file=LYRICS="%lyricsfile%"%haslyrics% -T "ALBUMARTIST=%albumartist%" -T "DISCNUMBER=%cdnumber%" -T "TOTALDISCS=%totalcds%" -T "TOTALTRACKS=%numtracks%" -T "COMMENT=%comment%" %source% -o %dest%
TOC of the extracted CD
Track | Start | Length | Start sector | End sector
---------------------------------------------------------
1 | 0:00.00 | 5:31.18 | 0 | 24842
2 | 5:31.18 | 4:53.18 | 24843 | 46835
3 | 10:24.36 | 3:50.05 | 46836 | 64090
4 | 14:14.41 | 5:19.52 | 64091 | 88067
5 | 19:34.18 | 4:55.31 | 88068 | 110223
6 | 24:29.49 | 5:16.64 | 110224 | 133987
7 | 29:46.38 | 4:47.58 | 133988 | 155570
8 | 34:34.21 | 4:47.26 | 155571 | 177121
9 | 39:21.47 | 6:12.37 | 177122 | 205058
10 | 45:34.09 | 4:03.16 | 205059 | 223299
Track 1
Filename Z:\home\filer\felles\rip\01 - Let Us Burn.wav
Pre-gap length 0:00:02.00
Peak level 97.7 %
Extraction speed 4.9 X
Track quality 100.0 %
Test CRC DB7A7408
Copy CRC DB7A7408
Track not present in AccurateRip database
Copy OK
Track 2
Filename Z:\home\filer\felles\rip\02 - Dangerous (Feat. Howard Jones).wav
Peak level 100.0 %
Extraction speed 5.5 X
Track quality 100.0 %
Test CRC 64F5531B
Copy CRC 64F5531B
Track not present in AccurateRip database
Copy OK
Track 3
Filename Z:\home\filer\felles\rip\03 - And We Run (Feat. Xzibit).wav
Peak level 97.7 %
Extraction speed 4.7 X
Track quality 99.9 %
Test CRC FAB9C5AF
Copy CRC FAB9C5AF
Track not present in AccurateRip database
Copy OK
Track 4
Filename Z:\home\filer\felles\rip\04 - Paradise (What About Us) (Feat. Tarja).wav
Peak level 97.7 %
Extraction speed 5.6 X
Track quality 99.9 %
Test CRC D574376A
Copy CRC D574376A
Track not present in AccurateRip database
Copy OK
Track 5
Filename Z:\home\filer\felles\rip\05 - Edge Of The World.wav
Peak level 97.7 %
Extraction speed 6.8 X
Track quality 100.0 %
Test CRC D7DFEEEE
Copy CRC D7DFEEEE
Track not present in AccurateRip database
Copy OK
Track 6
Filename Z:\home\filer\felles\rip\06 - Silver Moonlight.wav
Peak level 97.7 %
Extraction speed 7.6 X
Track quality 100.0 %
Test CRC DDBF32CC
Copy CRC DDBF32CC
Track not present in AccurateRip database
Copy OK
Track 7
Filename Z:\home\filer\felles\rip\07 - Covered By Roses.wav
Peak level 97.7 %
Extraction speed 7.6 X
Track quality 100.0 %
Test CRC 762C8A6E
Copy CRC 762C8A6E
Track not present in AccurateRip database
Copy OK
Track 8
Filename Z:\home\filer\felles\rip\08 - Dog Days.wav
Peak level 97.7 %
Extraction speed 8.1 X
Track quality 100.0 %
Test CRC 7DD2C821
Copy CRC 7DD2C821
Track not present in AccurateRip database
Copy OK
Track 9
Filename Z:\home\filer\felles\rip\09 - Tell Me Why.wav
Peak level 97.7 %
Extraction speed 7.6 X
Track quality 99.9 %
Test CRC 07DB2B1A
Copy CRC 07DB2B1A
Track not present in AccurateRip database
Copy OK
Track 10
Filename Z:\home\filer\felles\rip\10 - Whole World Is Watching (Feat. Dave Pirner).wav
Peak level 97.7 %
Extraction speed 8.8 X
Track quality 100.0 %
Test CRC 7E1E9160
Copy CRC 7E1E9160
Track not present in AccurateRip database
Copy OK
None of the tracks are present in the AccurateRip database
No errors occurred
End of status report
==== Log checksum 7A7132F051F276CDC4E1F6354F0627B388B8B7086E29E300260F0653C34EFAC2 ====
REM GENRE "Symphonic Metal"
REM DATE 2014
REM DISCID 8F0BA10A
REM COMMENT "ExactAudioCopy v1.0b3"
PERFORMER "Within Temptation"
TITLE "Hydra"
FILE "01 - Let Us Burn.wav" WAVE
TRACK 01 AUDIO
TITLE "Let Us Burn"
PERFORMER "Within Temptation"
ISRC NLR261300005
INDEX 01 00:00:00
FILE "02 - Dangerous (Feat. Howard Jones).wav" WAVE
TRACK 02 AUDIO
TITLE "Dangerous (Feat. Howard Jones)"
PERFORMER "Within Temptation"
ISRC NLR261300006
INDEX 01 00:00:00
FILE "03 - And We Run (Feat. Xzibit).wav" WAVE
TRACK 03 AUDIO
TITLE "And We Run (Feat. Xzibit)"
PERFORMER "Within Temptation"
ISRC NLR261300007
INDEX 01 00:00:00
FILE "04 - Paradise (What About Us) (Feat. Tarja).wav" WAVE
TRACK 04 AUDIO
TITLE "Paradise (What About Us?) (Feat. Tarja)"
PERFORMER "Within Temptation"
ISRC NLR261300001
INDEX 01 00:00:00
FILE "05 - Edge Of The World.wav" WAVE
TRACK 05 AUDIO
TITLE "Edge Of The World"
PERFORMER "Within Temptation"
ISRC NLR261300008
INDEX 01 00:00:00
FILE "06 - Silver Moonlight.wav" WAVE
TRACK 06 AUDIO
TITLE "Silver Moonlight"
PERFORMER "Within Temptation"
ISRC NLR261300009
INDEX 01 00:00:00
FILE "07 - Covered By Roses.wav" WAVE
TRACK 07 AUDIO
TITLE "Covered By Roses"
PERFORMER "Within Temptation"
ISRC NLR261300010
INDEX 01 00:00:00
FILE "08 - Dog Days.wav" WAVE
TRACK 08 AUDIO
TITLE "Dog Days"
PERFORMER "Within Temptation"
ISRC NLR261300011
INDEX 01 00:00:00
FILE "09 - Tell Me Why.wav" WAVE
TRACK 09 AUDIO
TITLE "Tell Me Why"
PERFORMER "Within Temptation"
ISRC NLR261300012
INDEX 01 00:00:00
FILE "10 - Whole World Is Watching (Feat. Dave Pirner).wav" WAVE
TRACK 10 AUDIO
TITLE "Whole World Is Watching (Feat. Dave Pirner)"
PERFORMER "Within Temptation"
ISRC NLR261300013
INDEX 01 00:00:00
01. Radioactive
02. Summertime Sadness
03. Let Her Go
04. Dirty Dancer
05. And We Run (Evolution track)
06. Silver Moonlight (Evolution track)
07. Covered By Roses (Evolution track)
08. Tell Me Why (Evolution track)
Exact Audio Copy V1.0 beta 3 from 29. August 2011
EAC extraction logfile from 28. January 2014, 20:28
Within Temptation / Hydra [Bonus CD]
Used drive : HL-DT-STBD-RE GGW-H20L Adapter: 2 ID: 0
Read mode : Secure
Utilize accurate stream : Yes
Defeat audio cache : Yes
Make use of C2 pointers : No
Read offset correction : 667
Overread into Lead-In and Lead-Out : No
Fill up missing offset samples with silence : Yes
Delete leading and trailing silent blocks : No
Null samples used in CRC calculations : Yes
Used interface : Native Win32 interface for Win NT & 2000
Gap handling : Appended to previous track
Used output format : User Defined Encoder
Selected bitrate : 1024 kBit/s
Quality : High
Add ID3 tag : No
Command line compressor : C:\Program Files (x86)\Exact Audio Copy\Flac\flac.exe
Additional command line options : -8 -V -T "ARTIST=%artist%" -T "TITLE=%title%" -T "ALBUM=%albumtitle%" -T "DATE=%year%" -T "TRACKNUMBER=%tracknr%" -T "GENRE=%genre%" -T "PERFORMER=%albuminterpret%" -T "COMPOSER=%composer%" %haslyrics%--tag-from-file=LYRICS="%lyricsfile%"%haslyrics% -T "ALBUMARTIST=%albumartist%" -T "DISCNUMBER=%cdnumber%" -T "TOTALDISCS=%totalcds%" -T "TOTALTRACKS=%numtracks%" -T "COMMENT=%comment%" %source% -o %dest%
TOC of the extracted CD
Track | Start | Length | Start sector | End sector
---------------------------------------------------------
1 | 0:00.00 | 3:13.46 | 0 | 14520
2 | 3:13.46 | 4:05.67 | 14521 | 32962
3 | 7:19.38 | 3:43.49 | 32963 | 49736
4 | 11:03.12 | 4:14.70 | 49737 | 68856
5 | 15:18.07 | 5:41.38 | 68857 | 94469
6 | 20:59.45 | 6:05.64 | 94470 | 121908
7 | 27:05.34 | 4:43.67 | 121909 | 143200
8 | 31:49.26 | 5:00.25 | 143201 | 165725
Track 1
Filename Z:\home\filer\felles\rip\01 - Radioactive.wav
Pre-gap length 0:00:02.00
Peak level 95.5 %
Extraction speed 4.4 X
Track quality 100.0 %
Test CRC 16761A69
Copy CRC 16761A69
Track not present in AccurateRip database
Copy OK
Track 2
Filename Z:\home\filer\felles\rip\02 - Summertime Sadness.wav
Peak level 98.8 %
Extraction speed 5.0 X
Track quality 100.0 %
Test CRC 2D8A81F5
Copy CRC 2D8A81F5
Track not present in AccurateRip database
Copy OK
Track 3
Filename Z:\home\filer\felles\rip\03 - Let Her Go.wav
Peak level 81.6 %
Extraction speed 5.3 X
Track quality 100.0 %
Test CRC 89F7F7E6
Copy CRC 89F7F7E6
Track not present in AccurateRip database
Copy OK
Track 4
Filename Z:\home\filer\felles\rip\04 - Dirty Dancer.wav
Peak level 98.7 %
Extraction speed 4.9 X
Track quality 99.9 %
Test CRC 12A0BAC1
Copy CRC 12A0BAC1
Track not present in AccurateRip database
Copy OK
Track 5
Filename Z:\home\filer\felles\rip\05 - And We Run (Evolution track).wav
Peak level 98.9 %
Extraction speed 6.6 X
Track quality 100.0 %
Test CRC F1910ACB
Copy CRC F1910ACB
Track not present in AccurateRip database
Copy OK
Track 6
Filename Z:\home\filer\felles\rip\06 - Silver Moonlight (Evolution track).wav
Peak level 98.9 %
Extraction speed 6.3 X
Track quality 99.9 %
Test CRC 0EB3E5EC
Copy CRC 0EB3E5EC
Track not present in AccurateRip database
Copy OK
Track 7
Filename Z:\home\filer\felles\rip\07 - Covered By Roses (Evolution track).wav
Peak level 98.9 %
Extraction speed 7.5 X
Track quality 100.0 %
Test CRC A0538EC4
Copy CRC A0538EC4
Track not present in AccurateRip database
Copy OK
Track 8
Filename Z:\home\filer\felles\rip\08 - Tell Me Why (Evolution track).wav
Peak level 98.9 %
Extraction speed 8.0 X
Track quality 100.0 %
Test CRC 00F7C7A8
Copy CRC 00F7C7A8
Track not present in AccurateRip database
Copy OK
None of the tracks are present in the AccurateRip database
No errors occurred
End of status report
==== Log checksum C21C43F3D48BF23C1C2DE3229A147F8D24BDE8251B2C401519A78DE67CE9CA2F ====
REM GENRE "Symphonic Metal"
REM DATE 2014
REM DISCID 5C08A108
REM COMMENT "ExactAudioCopy v1.0b3"
PERFORMER "Within Temptation"
TITLE "Hydra [Bonus CD]"
FILE "01 - Radioactive.wav" WAVE
TRACK 01 AUDIO
TITLE "Radioactive"
PERFORMER "Within Temptation"
ISRC NLR261200109
INDEX 01 00:00:00
FILE "02 - Summertime Sadness.wav" WAVE
TRACK 02 AUDIO
TITLE "Summertime Sadness"
PERFORMER "Within Temptation"
ISRC NLR261200106
INDEX 01 00:00:00
FILE "03 - Let Her Go.wav" WAVE
TRACK 03 AUDIO
TITLE "Let Her Go"
PERFORMER "Within Temptation"
ISRC NLR261200110
INDEX 01 00:00:00
FILE "04 - Dirty Dancer.wav" WAVE
TRACK 04 AUDIO
TITLE "Dirty Dancer"
PERFORMER "Within Temptation"
ISRC NLR261200103
INDEX 01 00:00:00
FILE "05 - And We Run (Evolution track).wav" WAVE
TRACK 05 AUDIO
TITLE "And We Run (Evolution track)"
PERFORMER "Within Temptation"
ISRC NLR261300014
INDEX 01 00:00:00
FILE "06 - Silver Moonlight (Evolution track).wav" WAVE
TRACK 06 AUDIO
TITLE "Silver Moonlight (Evolution track)"
PERFORMER "Within Temptation"
ISRC NLR261300015
INDEX 01 00:00:00
FILE "07 - Covered By Roses (Evolution track).wav" WAVE
TRACK 07 AUDIO
TITLE "Covered By Roses (Evolution track)"
PERFORMER "Within Temptation"
ISRC NLR261300016
INDEX 01 00:00:00
FILE "08 - Tell Me Why (Evolution track).wav" WAVE
TRACK 08 AUDIO
TITLE "Tell Me Why (Evolution track)"
PERFORMER "Within Temptation"
ISRC NLR261300017
INDEX 01 00:00:00
01. Let Us Burn
02. Dangerous
03. And We Run
04. Paradise (What About Us?)
05. Edge Of The World
06. Silver Moonlight
07. Covered By Roses
08. Dog Days
09. Tell Me Why
10. Whole World Is Watching
Exact Audio Copy V1.0 beta 3 from 29. August 2011
EAC extraction logfile from 28. January 2014, 21:49
Within Temptation / Hydra (Instrumental Album)
Used drive : HL-DT-STBD-RE GGW-H20L Adapter: 2 ID: 0
Read mode : Secure
Utilize accurate stream : Yes
Defeat audio cache : Yes
Make use of C2 pointers : No
Read offset correction : 667
Overread into Lead-In and Lead-Out : No
Fill up missing offset samples with silence : Yes
Delete leading and trailing silent blocks : No
Null samples used in CRC calculations : Yes
Used interface : Native Win32 interface for Win NT & 2000
Gap handling : Appended to previous track
Used output format : User Defined Encoder
Selected bitrate : 1024 kBit/s
Quality : High
Add ID3 tag : No
Command line compressor : C:\Program Files (x86)\Exact Audio Copy\Flac\flac.exe
Additional command line options : -8 -V -T "ARTIST=%artist%" -T "TITLE=%title%" -T "ALBUM=%albumtitle%" -T "DATE=%year%" -T "TRACKNUMBER=%tracknr%" -T "GENRE=%genre%" -T "PERFORMER=%albuminterpret%" -T "COMPOSER=%composer%" %haslyrics%--tag-from-file=LYRICS="%lyricsfile%"%haslyrics% -T "ALBUMARTIST=%albumartist%" -T "DISCNUMBER=%cdnumber%" -T "TOTALDISCS=%totalcds%" -T "TOTALTRACKS=%numtracks%" -T "COMMENT=%comment%" %source% -o %dest%
TOC of the extracted CD
Track | Start | Length | Start sector | End sector
---------------------------------------------------------
1 | 0:00.00 | 5:31.23 | 0 | 24847
2 | 5:31.23 | 4:53.23 | 24848 | 46845
3 | 10:24.46 | 3:50.10 | 46846 | 64105
4 | 14:14.56 | 5:19.57 | 64106 | 88087
5 | 19:34.38 | 4:55.38 | 88088 | 110250
6 | 24:30.01 | 5:16.68 | 110251 | 134018
7 | 29:46.69 | 4:47.64 | 134019 | 155607
8 | 34:34.58 | 4:47.32 | 155608 | 177164
9 | 39:22.15 | 6:12.41 | 177165 | 205105
10 | 45:34.56 | 4:02.14 | 205106 | 223269
Track 1
Filename Z:\home\filer\felles\rip\01 - Let Us Burn (Instrumental version).wav
Pre-gap length 0:00:02.00
Peak level 98.9 %
Extraction speed 4.2 X
Track quality 99.9 %
Test CRC 55A6D201
Copy CRC 55A6D201
Track not present in AccurateRip database
Copy OK
Track 2
Filename Z:\home\filer\felles\rip\02 - Dangerous (Instrumental version).wav
Peak level 98.9 %
Extraction speed 5.6 X
Track quality 100.0 %
Test CRC 5E42B249
Copy CRC 5E42B249
Track not present in AccurateRip database
Copy OK
Track 3
Filename Z:\home\filer\felles\rip\03 - And We Run (Instrumental version).wav
Peak level 98.9 %
Extraction speed 5.9 X
Track quality 100.0 %
Test CRC 27CB7592
Copy CRC 27CB7592
Track not present in AccurateRip database
Copy OK
Track 4
Filename Z:\home\filer\felles\rip\04 - Paradise (What About Us) (Instrumental version).wav
Peak level 98.9 %
Extraction speed 6.6 X
Track quality 100.0 %
Test CRC 66DE685C
Copy CRC 66DE685C
Track not present in AccurateRip database
Copy OK
Track 5
Filename Z:\home\filer\felles\rip\05 - Edge Of The World (Instrumental version).wav
Peak level 98.9 %
Extraction speed 7.0 X
Track quality 100.0 %
Test CRC B50AC0D1
Copy CRC B50AC0D1
Track not present in AccurateRip database
Copy OK
Track 6
Filename Z:\home\filer\felles\rip\06 - Silver Moonlight (Instrumental version).wav
Peak level 98.2 %
Extraction speed 7.4 X
Track quality 100.0 %
Test CRC 1974934D
Copy CRC 1974934D
Track not present in AccurateRip database
Copy OK
Track 7
Filename Z:\home\filer\felles\rip\07 - Covered By Roses (Instrumental version).wav
Peak level 98.9 %
Extraction speed 6.6 X
Track quality 99.9 %
Test CRC 61DB9C19
Copy CRC 61DB9C19
Track not present in AccurateRip database
Copy OK
Track 8
Filename Z:\home\filer\felles\rip\08 - Dog Days (Instrumental version).wav
Peak level 98.9 %
Extraction speed 8.1 X
Track quality 100.0 %
Test CRC EE27810A
Copy CRC EE27810A
Track not present in AccurateRip database
Copy OK
Track 9
Filename Z:\home\filer\felles\rip\09 - Tell Me Why (Instrumental version).wav
Peak level 98.9 %
Extraction speed 8.9 X
Track quality 100.0 %
Test CRC ACD28005
Copy CRC ACD28005
Track not present in AccurateRip database
Copy OK
Track 10
Filename Z:\home\filer\felles\rip\10 - Whole World Is Watching (Instrumental version).wav
Peak level 98.9 %
Extraction speed 8.8 X
Track quality 100.0 %
Test CRC 04764E8D
Copy CRC 04764E8D
Track not present in AccurateRip database
Copy OK
None of the tracks are present in the AccurateRip database
No errors occurred
End of status report
==== Log checksum C8D508748D0A46D61CA9F84EEA56FF7F44223719A264A44C684A7B72ACF52DC5 ====
REM GENRE "Symphonic Metal"
REM DATE 2014
REM DISCID 910BA00A
REM COMMENT "ExactAudioCopy v1.0b3"
PERFORMER "Within Temptation"
TITLE "Hydra (Instrumental Album)"
FILE "01 - Let Us Burn (Instrumental version).wav" WAVE
TRACK 01 AUDIO
TITLE "Let Us Burn (Instrumental version)"
PERFORMER "Within Temptation"
ISRC NLR261300020
INDEX 01 00:00:00
FILE "02 - Dangerous (Instrumental version).wav" WAVE
TRACK 02 AUDIO
TITLE "Dangerous (Instrumental version)"
PERFORMER "Within Temptation"
ISRC NLR261300021
INDEX 01 00:00:00
FILE "03 - And We Run (Instrumental version).wav" WAVE
TRACK 03 AUDIO
TITLE "And We Run (Instrumental version)"
PERFORMER "Within Temptation"
ISRC NLR261300022
INDEX 01 00:00:00
FILE "04 - Paradise (What About Us) (Instrumental version).wav" WAVE
TRACK 04 AUDIO
TITLE "Paradise (What About Us?) (Instrumental version)"
PERFORMER "Within Temptation"
ISRC NLR261300023
INDEX 01 00:00:00
FILE "05 - Edge Of The World (Instrumental version).wav" WAVE
TRACK 05 AUDIO
TITLE "Edge Of The World (Instrumental version)"
PERFORMER "Within Temptation"
ISRC NLR261300024
INDEX 01 00:00:00
FILE "06 - Silver Moonlight (Instrumental version).wav" WAVE
TRACK 06 AUDIO
TITLE "Silver Moonlight (Instrumental version)"
PERFORMER "Within Temptation"
ISRC NLR261300025
INDEX 01 00:00:00
FILE "07 - Covered By Roses (Instrumental version).wav" WAVE
TRACK 07 AUDIO
TITLE "Covered By Roses (Instrumental version)"
PERFORMER "Within Temptation"
ISRC NLR261300026
INDEX 01 00:00:00
FILE "08 - Dog Days (Instrumental version).wav" WAVE
TRACK 08 AUDIO
TITLE "Dog Days (Instrumental version)"
PERFORMER "Within Temptation"
ISRC NLR261300027
INDEX 01 00:00:00
FILE "09 - Tell Me Why (Instrumental version).wav" WAVE
TRACK 09 AUDIO
TITLE "Tell Me Why (Instrumental version)"
PERFORMER "Within Temptation"
ISRC NLR261300028
INDEX 01 00:00:00
FILE "10 - Whole World Is Watching (Instrumental version).wav" WAVE
TRACK 10 AUDIO
TITLE "Whole World Is Watching (Instrumental version)"
PERFORMER "Within Temptation"
ISRC NLR261300029
INDEX 01 00:00:00
-
Download / Скачать

Хотите скачать бесплатно? Зарегистрируйтесь на сайте (ссылка на регистрацию). Pirat.ca - самый быстрый торрент трекер в рунете!

Как скачивать  ·   Что такое торрент  ·   Рейтинг и ограничения



Последний раз редактировалось: UnSlayeR (2014-01-29 14:28), всего редактировалось 1 раз

feralman

Штурман

Пост 06-Ноя-2014 00:03 (спустя 9 месяцев 7 дней)

[Q] 

Очень душевно!
[Профиль]  [ЛС] 

BilG

Корсар

Пост 13-Апр-2017 14:53 (спустя 2 года 5 месяцев)

[Q] 

Забираю, Делай лучше - хуже получится само!!!

_________________
[Профиль]  [ЛС] 
Показать сообщения:    
Ответить на тему

Текущее время: Сегодня 18:57

Часовой пояс: GMT + 4



Вы не можете начинать темы
Вы не можете отвечать на сообщения
Вы не можете редактировать свои сообщения
Вы не можете удалять свои сообщения
Вы не можете голосовать в опросах
Вы не можете прикреплять файлы к сообщениям
Вы не можете скачивать файлы

▼ Вниз