Уважаемый Гость!
Вы можете поддержать проект и зарегистрироваться у наших партнеров - онлайн-стратегия MyLands. При регистрации в игре Вы получите код, который сможете активировать после регистрации на pirat.ca и получить 1000 дублонов.

Ваш код:
b35b3ec45a7bd3f86315766471edc285be832af4
 
     

(Heavy Metal) Adrenaline Mob - Coverta (EP) - 2013 [FLAC, image+.cue, lossless]

Ответить на тему
 
Автор
Сообщение

Пост 09-Фев-2014 19:40

[Q] 

Corsarius

Лоцман

-Adrenaline Mob / Coverta (EP)-- Год издания: 2013
Страна: US
Жанр: Heavy Metal
Продолжительность: 00:34:29-Лейбл издания: Elm City Music
Тип альбома: EP
Источник (релизер): kikel-Формат: FLAC
Битрейт аудио: lossless
Тип рипа: image+.cue
Наличие сканов в содержимом раздачи: да-
01. High Wire (Badlands cover) 03:48
02. Stand Up and Shout (Dio cover) 03:35
03. Break on Through (The Doors cover) 03:01
04. Romeo Delight (Van Halen cover) 05:08
05. Barracuda (Heart cover) 04:12
06. Kill the King (Rainbow cover) 04:32
07. The Lemon Song (Led Zeppelin cover) 06:47
08. The Mob Rules (Black Sabbath cover) 03:17
Exact Audio Copy V1.0 beta 3 from 29. August 2011
Отчёт EAC об извлечении, выполненном 16. марта 2013, 20:07
Adrenaline Mob / Coverta
Дисковод: HL-DT-STDVDRAM GU40N Adapter: 0 ID: 1
Режим чтения : Достоверность
Использование точного потока : Да
Отключение кэша аудио : Да
Использование указателей C2 : Нет
Коррекция смещения при чтении : 103
Способность читать области Lead-in и Lead-out : Нет
Заполнение пропущенных сэмплов тишиной : Да
Удаление блоков с тишиной в начале и конце : Нет
При вычислениях CRC использовались нулевые сэмплы : Да
Интерфейс : Встроенный Win32-интерфейс для Win NT/2000
Выходной формат : Пользовательский кодировщик
Выбранный битрейт : 128 kBit/s
Качество : Высокий
Добавление ID3-тега : Нет
Утилита сжатия : C:\Program Files (x86)\Easy CD-DA Extractor\ezcddax.exe
Дополнительные параметры : -V -8 -T "Date=%year%" -T "Genre=%genre%" %source%
TOC извлечённого CD
Трек | Старт | Длительность | Начальный сектор | Конечный сектор
---------------------------------------------------------------------
1 | 0:00.00 | 3:48.67 | 0 | 17166
2 | 3:48.67 | 3:35.54 | 17167 | 33345
3 | 7:24.46 | 3:01.43 | 33346 | 46963
4 | 10:26.14 | 5:08.48 | 46964 | 70111
5 | 15:34.62 | 4:12.70 | 70112 | 89081
6 | 19:47.57 | 4:33.26 | 89082 | 109582
7 | 24:21.08 | 6:49.34 | 109583 | 140291
8 | 31:10.42 | 3:17.72 | 140292 | 155138
Характеристики диапазона извлечения и сообщения об ошибках
Выбранный диапазон
Имя файла C:\Users\workutagin\Desktop\Adrenaline Mob - Coverta.wav
Пиковый уровень 100.0 %
Скорость извлечения 1.8 X
Качество диапазона 100.0 %
CRC теста F653A0B2
CRC копии F653A0B2
Копирование... OK
Ошибок не произошло
Конец отчёта
==== Контрольная сумма отчёта 892E48A63AAD47C2F200E61CA15FD1CAD060E445533D24A6BCEC4B9A107D3873 ====
AUDIOCHECKER v2.0 beta (build 457) - by Dester - [email protected]
~~~~~~~~~~~~~~~~~~~~~~~~~~~~~~~~~~
Начато: воскресенье, 17. 03. 2013. - 4:06.57
Найдено файлов: 1
1 -===- C:\Users\Администратор\Desktop\Adrenaline_Mob-Coverta-CDEP-FLAC-2013\Adrenaline Mob - Coverta.flac
Извлечение успешно выполнено
Заключение: этот трек - CDDA с вероятностью 100%
Временный файл удалён.
Завершено: воскресенье, 17. 03. 2013. - 4:11.22 (Время операции: 0:04.25)
Adrenaline Mob — американская супер-группа из Нью-Йорка, основанная Майком Портным (экс-Dream Theater), Расселом Алленом (Symphony X), Ричи Уордом (Stuck Mojo), Майком Орландо и Паулем Дилео в начале 2011 года.
http://adrenalinemob.com/
http://www.metal-archives.com/bands/Adrenaline_Mob/3540331861
http://ru.wikipedia.org/wiki/Adrenaline_Mob
http://en.wikipedia.org/wiki/Adrenaline_Mob
Mike Portnoy - Drums (ex-Dream Theater, A7X)
Russell Allen - Vocals (Symphony X)
John Moyer - Bass (Disturbed)
Mike Orlando - Guitars
Download / Скачать

Хотите скачать бесплатно? Зарегистрируйтесь на сайте (ссылка на регистрацию). Pirat.ca - самый быстрый торрент трекер в рунете!

Как скачивать  ·   Что такое торрент  ·   Рейтинг и ограничения

Показать сообщения:    
Ответить на тему

Текущее время: Сегодня 19:00

Часовой пояс: GMT + 4



Вы не можете начинать темы
Вы не можете отвечать на сообщения
Вы не можете редактировать свои сообщения
Вы не можете удалять свои сообщения
Вы не можете голосовать в опросах
Вы не можете прикреплять файлы к сообщениям
Вы не можете скачивать файлы

▼ Вниз