Уважаемый Гость!
Вы можете поддержать проект и зарегистрироваться у наших партнеров - онлайн-стратегия MyLands. При регистрации в игре Вы получите код, который сможете активировать после регистрации на pirat.ca и получить 1000 дублонов.

Ваш код:
bf76b4fde44c7189cfb4d32d5b204facc1d6d492
 
     

(Gothic Metal) Crematory - Antiserum (Limited Edition) - 2014 [FLAC, image+.cue, lossless]

Ответить на тему
 
Автор
Сообщение

Пост 21-Фев-2014 12:57

[Q] 

Gromilo

Флибустьер

-Crematory - Antiserum (Limited Edition)-- Год издания: 2014
Страна: Germany (Westhofen)
Жанр: Gothic Metal
Продолжительность: 00:51:40-Лейбл издания: SteamHammer/SPV
Номер по каталогу: SPV 266690 CD
Формат: FLAC
Битрейт аудио: lossless MP3 320 kbps
Тип рипа: image+.cue
Наличие сканов в содержимом раздачи: да-
01. Apocalyptic Vision
02. Until the End
03. Shadowmaker
04. If You Believe
05. Inside Your Eyes
06. Kommt Näher
07. Irony of Fate
08. Virus
09. Back from the Dead
10. Welcome
11. Antiserum
12. Shadowmaker (Elektro Mix) (Bonus Track)
13. Shadowmaker (Centhron Mix) (Bonus Track)
Exact Audio Copy V1.0 beta 3 from 29. August 2011
EAC extraction logfile from 21. February 2014, 1:45
Crematory / Antiserum
Used drive : ATAPI iHAP122 9 Adapter: 3 ID: 0
Read mode : Secure
Utilize accurate stream : Yes
Defeat audio cache : Yes
Make use of C2 pointers : No
Read offset correction : 6
Overread into Lead-In and Lead-Out : No
Fill up missing offset samples with silence : Yes
Delete leading and trailing silent blocks : No
Null samples used in CRC calculations : Yes
Used interface : Installed external ASPI interface
Used output format : User Defined Encoder
Selected bitrate : 1024 kBit/s
Quality : High
Add ID3 tag : No
Command line compressor : C:\Program Files\FLAC\flac.exe
Additional command line options : -V -8 -T "Date=%year%" -T "Genre=%genre%" -T"COMMENT=Ripped by Ilijan" -8 -V %source%
TOC of the extracted CD
Track | Start | Length | Start sector | End sector
---------------------------------------------------------
1 | 0:00.00 | 2:16.11 | 0 | 10210
2 | 2:16.11 | 4:47.73 | 10211 | 31808
3 | 7:04.09 | 3:39.02 | 31809 | 48235
4 | 10:43.11 | 3:56.10 | 48236 | 65945
5 | 14:39.21 | 4:07.10 | 65946 | 84480
6 | 18:46.31 | 4:25.23 | 84481 | 104378
7 | 23:11.54 | 3:57.04 | 104379 | 122157
8 | 27:08.58 | 3:43.23 | 122158 | 138905
9 | 30:52.06 | 3:32.47 | 138906 | 154852
10 | 34:24.53 | 3:57.14 | 154853 | 172641
11 | 38:21.67 | 5:03.09 | 172642 | 195375
12 | 43:25.01 | 4:09.05 | 195376 | 214055
13 | 47:34.06 | 4:06.30 | 214056 | 232535
Range status and errors
Selected range
Filename D:\Ilijan\Crematory - Antiserum.wav
Peak level 99.5 %
Extraction speed 5.7 X
Range quality 100.0 %
Test CRC 3932DB3F
Copy CRC 3932DB3F
Copy OK
No errors occurred
AccurateRip summary
Track 1 not present in database
Track 2 not present in database
Track 3 not present in database
Track 4 not present in database
Track 5 not present in database
Track 6 not present in database
Track 7 not present in database
Track 8 not present in database
Track 9 not present in database
Track 10 not present in database
Track 11 not present in database
Track 12 not present in database
Track 13 not present in database
None of the tracks are present in the AccurateRip database
End of status report
---- CUETools DB Plugin V2.1.3
[CTDB TOCID: lfVQf8BX93U.ITdnIHM0ALEuQso-] disk not present in database, Submit result: lfVQf8BX93U.ITdnIHM0ALEuQso- has been uploaded
==== Log checksum 2011A64B7C5516EB7F8A0E6B99AD06FF4253B336744CDB0253C77EDA0522D6B8 ====
REM GENRE "Gothic Metal"
REM DATE 2014
REM DISCID AC0C1C0D
REM COMMENT "ExactAudioCopy v1.0b3"
PERFORMER "Crematory"
TITLE "Antiserum"
FILE "Crematory - Antiserum.flac" WAVE
TRACK 01 AUDIO
TITLE "Apocalyptic Vision"
PERFORMER "Crematory"
FLAGS DCP
INDEX 01 00:00:00
TRACK 02 AUDIO
TITLE "Until The End"
PERFORMER "Crematory"
FLAGS DCP
INDEX 01 02:16:11
TRACK 03 AUDIO
TITLE "Shadowmaker"
PERFORMER "Crematory"
FLAGS DCP
INDEX 00 07:03:11
INDEX 01 07:04:09
TRACK 04 AUDIO
TITLE "If You Believe"
PERFORMER "Crematory"
FLAGS DCP
INDEX 00 10:40:40
INDEX 01 10:43:11
TRACK 05 AUDIO
TITLE "Inside Your Eyes"
PERFORMER "Crematory"
FLAGS DCP
INDEX 00 14:37:70
INDEX 01 14:39:21
TRACK 06 AUDIO
TITLE "Kommt Naher"
PERFORMER "Crematory"
FLAGS DCP
INDEX 00 18:45:19
INDEX 01 18:46:31
TRACK 07 AUDIO
TITLE "Irony Of Fate"
PERFORMER "Crematory"
FLAGS DCP
INDEX 00 23:10:43
INDEX 01 23:11:54
TRACK 08 AUDIO
TITLE "Virus"
PERFORMER "Crematory"
FLAGS DCP
INDEX 00 27:07:65
INDEX 01 27:08:58
TRACK 09 AUDIO
TITLE "Back From The Dead"
PERFORMER "Crematory"
FLAGS DCP
INDEX 00 30:50:56
INDEX 01 30:52:06
TRACK 10 AUDIO
TITLE "Welcome"
PERFORMER "Crematory"
FLAGS DCP
INDEX 00 34:23:46
INDEX 01 34:24:53
TRACK 11 AUDIO
TITLE "Antiserum"
PERFORMER "Crematory"
FLAGS DCP
INDEX 00 38:19:57
INDEX 01 38:21:67
TRACK 12 AUDIO
TITLE "Shadowmaker (Elektro Mix) (Bonus Track)"
PERFORMER "Crematory"
FLAGS DCP
INDEX 00 43:23:40
INDEX 01 43:25:01
TRACK 13 AUDIO
TITLE "Shadowmaker (Centhron Mix) (Bonus Track)"
PERFORMER "Crematory"
FLAGS DCP
INDEX 00 47:32:46
INDEX 01 47:34:06
Download / Скачать

Хотите скачать бесплатно? Зарегистрируйтесь на сайте (ссылка на регистрацию). Pirat.ca - самый быстрый торрент трекер в рунете!

Как скачивать  ·   Что такое торрент  ·   Рейтинг и ограничения

Показать сообщения:    
Ответить на тему

Текущее время: Сегодня 12:26

Часовой пояс: GMT + 4



Вы не можете начинать темы
Вы не можете отвечать на сообщения
Вы не можете редактировать свои сообщения
Вы не можете удалять свои сообщения
Вы не можете голосовать в опросах
Вы не можете прикреплять файлы к сообщениям
Вы не можете скачивать файлы

▼ Вниз