Уважаемый Гость!
Вы можете поддержать проект и зарегистрироваться у наших партнеров - онлайн-стратегия MyLands. При регистрации в игре Вы получите код, который сможете активировать после регистрации на pirat.ca и получить 1000 дублонов.

Ваш код:
1b8effbb2d91248629d5897a85d0d1c4a4c433f0
 
     

(Industrial Metal) Megaherz - Zombieland (Limited Edition) - 2014 [FLAC, image+.cue, lossless]

Ответить на тему
 
Автор
Сообщение

Пост 02-Дек-2014 18:42

[Q] 

Ворон

-Megaherz - Zombieland (Limited Edition)--
Год издания: 2014
Страна: Germany
Жанр: Industrial Metal
Продолжительность: 01:05:52-Страна-выпуска диска: Germany
Лейбл издания: Napalm Records
Номер по каталогу: NPR 570 LTD
Формат: FLAC
Битрейт аудио: lossless
Тип рипа: image+.cue
Наличие сканов в содержимом раздачи: да-Трэклист:

01. Zombieland
02. Himmelsstürmer
03. Für Immer
04. Roter Mond
05. Wir Konnten Götter Sein
06. Lieblingsfeind
07. Fanatisch
08. Schwarzer Engel
09. Unter Strom
10. Gegen Den Wind
11. Hurra Wir Leben Noch
12. Frei
Код:
Exact Audio Copy V1.0 beta 3 from 29. August 2011
EAC extraction logfile from 8. November 2014, 16:00
Megaherz / Zombieland (Limited Edition) CD 1
Used drive  : HP      DVD Writer 1170d   Adapter: 0  ID: 0
Read mode               : Secure
Utilize accurate stream : Yes
Defeat audio cache      : Yes
Make use of C2 pointers : No
Read offset correction                      : 6
Overread into Lead-In and Lead-Out          : No
Fill up missing offset samples with silence : Yes
Delete leading and trailing silent blocks   : No
Null samples used in CRC calculations       : Yes
Used interface                              : Native Win32 interface for Win NT & 2000
Used output format              : User Defined Encoder
Selected bitrate                : 768 kBit/s
Quality                         : High
Add ID3 tag                     : No
Command line compressor         : C:\Program Files (x86)\Exact Audio Copy\FLAC\FLAC.EXE
Additional command line options : -V -8 -T "Date=%year%" -T "Genre=%genre%" -T"COMMENT=Ripped by Ungern666" -8 -V %source%
TOC of the extracted CD
     Track |   Start  |  Length  | Start sector | End sector
    ---------------------------------------------------------
        1  |  0:00.00 |  3:37.64 |         0    |    16338
        2  |  3:37.64 |  4:38.49 |     16339    |    37237
        3  |  8:16.38 |  4:08.74 |     37238    |    55911
        4  | 12:25.37 |  4:08.69 |     55912    |    74580
        5  | 16:34.31 |  3:48.54 |     74581    |    91734
        6  | 20:23.10 |  3:12.74 |     91735    |   106208
        7  | 23:36.09 |  4:44.39 |    106209    |   127547
        8  | 28:20.48 |  3:56.45 |    127548    |   145292
        9  | 32:17.18 |  3:35.30 |    145293    |   161447
       10  | 35:52.48 |  4:40.08 |    161448    |   182455
       11  | 40:32.56 |  5:07.49 |    182456    |   205529
       12  | 45:40.30 |  3:28.54 |    205530    |   221183
Range status and errors
Selected range
     Filename C:\EAC\Ungern666\Megaherz - Zombieland (Limited Edition) CD 1.wav
     Peak level 98.5 %
     Extraction speed 5.6 X
     Range quality 99.9 %
     Test CRC C9FB042B
     Copy CRC C9FB042B
     Copy OK
No errors occurred
AccurateRip summary
Track  1  not present in database
Track  2  not present in database
Track  3  not present in database
Track  4  not present in database
Track  5  not present in database
Track  6  not present in database
Track  7  not present in database
Track  8  not present in database
Track  9  not present in database
Track 10  not present in database
Track 11  not present in database
Track 12  not present in database
None of the tracks are present in the AccurateRip database
End of status report
==== Log checksum C8F3200A6C7FEC27863989144E45F7768B1E94DB4CC7811F09E36AA8877EE7EB ====
Код:
REM DATE 2014
REM DISCID AD0B850C
REM COMMENT "ExactAudioCopy v1.0b3"
PERFORMER "Megaherz"
TITLE "Zombieland (Limited Edition) CD 1"
FILE "Megaherz - Zombieland (Limited Edition) CD 1.flac" WAVE
  TRACK 01 AUDIO
    TITLE "Zombieland"
    PERFORMER "Megaherz"
    INDEX 01 00:00:00
  TRACK 02 AUDIO
    TITLE "Himmelssturmer"
    PERFORMER "Megaherz"
    INDEX 00 03:35:65
    INDEX 01 03:37:64
  TRACK 03 AUDIO
    TITLE "Fur Immer"
    PERFORMER "Megaherz"
    INDEX 00 08:14:39
    INDEX 01 08:16:38
  TRACK 04 AUDIO
    TITLE "Roter Mond"
    PERFORMER "Megaherz"
    INDEX 00 12:23:38
    INDEX 01 12:25:37
  TRACK 05 AUDIO
    TITLE "Wir Konnten Gotter Sein"
    PERFORMER "Megaherz"
    INDEX 00 16:32:32
    INDEX 01 16:34:31
  TRACK 06 AUDIO
    TITLE "Lieblingsfeind"
    PERFORMER "Megaherz"
    INDEX 00 20:21:11
    INDEX 01 20:23:10
  TRACK 07 AUDIO
    TITLE "Fanatisch"
    PERFORMER "Megaherz"
    INDEX 00 23:34:10
    INDEX 01 23:36:09
  TRACK 08 AUDIO
    TITLE "Schwarzer Engel"
    PERFORMER "Megaherz"
    INDEX 00 28:18:49
    INDEX 01 28:20:48
  TRACK 09 AUDIO
    TITLE "Unter Strom"
    PERFORMER "Megaherz"
    INDEX 00 32:15:19
    INDEX 01 32:17:18
  TRACK 10 AUDIO
    TITLE "Gegen Den Wind"
    PERFORMER "Megaherz"
    INDEX 00 35:50:49
    INDEX 01 35:52:48
  TRACK 11 AUDIO
    TITLE "Hurra Wir Leben Noch"
    PERFORMER "Megaherz"
    INDEX 00 40:30:57
    INDEX 01 40:32:56
  TRACK 12 AUDIO
    TITLE "Frei"
    PERFORMER "Megaherz"
    INDEX 00 45:38:31
    INDEX 01 45:40:30
01. Sanctus Dominus
02. Augenblick feat. Nick Flade
03. Herz Aus Stein
04. Gegen Den Wind feat. Lisa Morgenstern
Код:
Exact Audio Copy V1.0 beta 3 from 29. August 2011
EAC extraction logfile from 8. November 2014, 16:10
Megaherz / Zombieland (Limited Edition) CD 2
Used drive  : HP      DVD Writer 1170d   Adapter: 0  ID: 0
Read mode               : Secure
Utilize accurate stream : Yes
Defeat audio cache      : Yes
Make use of C2 pointers : No
Read offset correction                      : 6
Overread into Lead-In and Lead-Out          : No
Fill up missing offset samples with silence : Yes
Delete leading and trailing silent blocks   : No
Null samples used in CRC calculations       : Yes
Used interface                              : Native Win32 interface for Win NT & 2000
Used output format              : User Defined Encoder
Selected bitrate                : 768 kBit/s
Quality                         : High
Add ID3 tag                     : No
Command line compressor         : C:\Program Files (x86)\Exact Audio Copy\FLAC\FLAC.EXE
Additional command line options : -V -8 -T "Date=%year%" -T "Genre=%genre%" -T"COMMENT=Ripped by Ungern666" -8 -V %source%
TOC of the extracted CD
     Track |   Start  |  Length  | Start sector | End sector
    ---------------------------------------------------------
        1  |  0:00.00 |  2:51.14 |         0    |    12838
        2  |  2:51.14 |  5:22.57 |     12839    |    37045
        3  |  8:13.71 |  4:18.52 |     37046    |    56447
        4  | 12:32.48 |  4:10.21 |     56448    |    75218
Range status and errors
Selected range
     Filename C:\EAC\Ungern666\Megaherz - Zombieland (Limited Edition) CD 2.wav
     Peak level 98.5 %
     Extraction speed 4.4 X
     Range quality 100.0 %
     Test CRC 53AB621A
     Copy CRC 53AB621A
     Copy OK
No errors occurred
AccurateRip summary
Track  1  not present in database
Track  2  not present in database
Track  3  not present in database
Track  4  not present in database
None of the tracks are present in the AccurateRip database
End of status report
==== Log checksum 5D8EF56712414D30483B5E2C1D49D6F3704DE6AD6CE90037613C68F08205805E ====
Код:
REM DATE 2014
REM DISCID 2F03EA04
REM COMMENT "ExactAudioCopy v1.0b3"
PERFORMER "Megaherz"
TITLE "Zombieland (Limited Edition) CD 2"
FILE "Megaherz - Zombieland (Limited Edition) CD 2.flac" WAVE
  TRACK 01 AUDIO
    TITLE "Sanctus Dominus"
    PERFORMER "Megaherz"
    INDEX 01 00:00:00
  TRACK 02 AUDIO
    TITLE "Augenblick feat. Nick Flade"
    PERFORMER "Megaherz"
    INDEX 00 02:49:15
    INDEX 01 02:51:14
  TRACK 03 AUDIO
    TITLE "Herz Aus Stein"
    PERFORMER "Megaherz"
    INDEX 00 08:11:72
    INDEX 01 08:13:71
  TRACK 04 AUDIO
    TITLE "Gegen Den Wind feat. Lisa Morgenstern"
    PERFORMER "Megaherz"
    INDEX 00 12:30:49
    INDEX 01 12:32:48
-    
Download / Скачать

Хотите скачать бесплатно? Зарегистрируйтесь на сайте (ссылка на регистрацию). Pirat.ca - самый быстрый торрент трекер в рунете!

Как скачивать  ·   Что такое торрент  ·   Рейтинг и ограничения



Последний раз редактировалось: Ворон (2014-12-02 19:23), всего редактировалось 4 раз(а)

Дядя Витя

59148

Пост 02-Дек-2014 19:01 (спустя 18 минут)

[Q] 

Постер невероятно крут )
Ворон, az

_________________
?
[Профиль]  [ЛС] 

Ворон ®

16793

Пост 02-Дек-2014 19:02 (спустя 1 минута)

[Q] 

612828Постер невероятно крут )
Ага)
п.с. Спасибо за ром)) az

_________________
Временно меня не будет на раздаче в связи с переездом на новое место. Заранее извиняюсь. Если уж кому надо будет скачать, пишите в ЛС, что нибудь придумаю. Раздача с 1:00-7:00
[Профиль]  [ЛС] 

MAXYAK

Корсар

249

Пост 02-Дек-2014 22:09 (спустя 3 часа)

[Q] 

а хде хозяин?

_________________
[Профиль]  [ЛС] 

Ворон ®

16793

Пост 02-Дек-2014 22:58 (спустя 49 минут)

[Q] 

612934а хде хозяин?
Хозяин парился в баньке, но сейчас я дома) Ща все будет, терпение)) aa

_________________
Временно меня не будет на раздаче в связи с переездом на новое место. Заранее извиняюсь. Если уж кому надо будет скачать, пишите в ЛС, что нибудь придумаю. Раздача с 1:00-7:00
[Профиль]  [ЛС] 

MAXYAK

Корсар

249

Пост 02-Дек-2014 22:59 (спустя 1 минута)

[Q] 

Ворон, с легким паром !
ждемс !

_________________
[Профиль]  [ЛС] 

Ворон ®

16793

Пост 02-Дек-2014 23:05 (спустя 5 минут)

[Q] 

612959Ворон, с легким паром !
ждемс !
Спасибо!!! az
Добавлено спустя 3 минуты 20 секунд:
Немножко, подождите еще, а то у меня в торрент-клиенте не сразу соединение происходит с трекером. Сорри за не удобство.

_________________
Временно меня не будет на раздаче в связи с переездом на новое место. Заранее извиняюсь. Если уж кому надо будет скачать, пишите в ЛС, что нибудь придумаю. Раздача с 1:00-7:00
[Профиль]  [ЛС] 

BilG

Корсар

Пост 13-Апр-2017 14:48 (спустя 2 года 4 месяца)

[Q] 

Хороший характер — богатство на всю жизнь

_________________
[Профиль]  [ЛС] 
Показать сообщения:    
Ответить на тему

Текущее время: Сегодня 03:04

Часовой пояс: GMT + 4



Вы не можете начинать темы
Вы не можете отвечать на сообщения
Вы не можете редактировать свои сообщения
Вы не можете удалять свои сообщения
Вы не можете голосовать в опросах
Вы не можете прикреплять файлы к сообщениям
Вы не можете скачивать файлы

▼ Вниз