Уважаемый Гость!
Вы можете поддержать проект и зарегистрироваться у наших партнеров - онлайн-стратегия MyLands. При регистрации в игре Вы получите код, который сможете активировать после регистрации на pirat.ca и получить 1000 дублонов.

Ваш код:
1b8effbb2d91248629d5897a85d0d1c4a4c433f0
 
     

(Heavy Metal) Panzer - Send Them All To Hell (Limited Edition) - 2014 [FLAC, image+.cue, lossless]

Ответить на тему
 
Автор
Сообщение

Пост 14-Дек-2014 14:37

[Q] 

sergej644

-Panzer / Send Them All To Hell (Limited Edition)-- Год издания: 2014
Страна: Germany
Жанр: Heavy Metal
Продолжительность: 00:54:11-Лейбл издания: Nuclear Blast
Тип альбома: Studio
Страна-выпуска диска: Germany
Номер по каталогу: NB 3410-0
Формат: FLAC
Битрейт аудио: lossless
Тип рипа: image+.cue
Наличие сканов в содержимом раздачи: да
-
01. Death Knell (04:57)
02. Hail And Kill (03:55)
03. Temple Of Doom (04:01)
04. Panzer (05:06)
05. Freakshow (04:50)
06. Mr. Nobrain (04:45)
07. Why? (06:09)
08. Virtual Collision (04:43)
09. Roll The Dice (05:47)
10. Bleed For Your Sins (05:20)
11. Murder In The Skies (Bonus Track) (04:33)
-
Код:
Exact Audio Copy V1.0 beta 3 from 29. August 2011
EAC extraction logfile from 5. December 2014, 10:32
Panzer / Send Them All To Hell
Used drive  : ATAPI   iHAS122   W   Adapter: 2  ID: 0
Read mode               : Secure
Utilize accurate stream : Yes
Defeat audio cache      : Yes
Make use of C2 pointers : No
Read offset correction                      : 48
Overread into Lead-In and Lead-Out          : No
Fill up missing offset samples with silence : Yes
Delete leading and trailing silent blocks   : No
Null samples used in CRC calculations       : Yes
Used interface                              : Installed external ASPI interface
Used output format              : User Defined Encoder
Selected bitrate                : 1024 kBit/s
Quality                         : High
Add ID3 tag                     : No
Command line compressor         : C:\Program Files\FLAC\flac.exe
Additional command line options : -V -8 -T "Date=%year%" -T "Genre=%genre%" -T"COMMENT=Ripped by  Ilijan" -8 -V %source%
TOC of the extracted CD
     Track |   Start  |  Length  | Start sector | End sector
    ---------------------------------------------------------
        1  |  0:00.01 |  4:57.55 |         1    |    22330
        2  |  4:57.56 |  3:55.31 |     22331    |    39986
        3  |  8:53.12 |  4:01.00 |     39987    |    58061
        4  | 12:54.12 |  5:06.72 |     58062    |    81083
        5  | 18:01.09 |  4:50.26 |     81084    |   102859
        6  | 22:51.35 |  4:45.24 |    102860    |   124258
        7  | 27:36.59 |  6:09.44 |    124259    |   151977
        8  | 33:46.28 |  4:43.06 |    151978    |   173208
        9  | 38:29.34 |  5:47.24 |    173209    |   199257
       10  | 44:16.58 |  5:20.63 |    199258    |   223320
       11  | 49:37.46 |  4:34.00 |    223321    |   243870
Range status and errors
Selected range
     Filename D:\Ilijan\Panzer - Send Them All To Hell.wav
     Peak level 97.1 %
     Extraction speed 3.8 X
     Range quality 99.9 %
     Test CRC 638EEB64
     Copy CRC 638EEB64
     Copy OK
No errors occurred
AccurateRip summary
Track  1  not present in database
Track  2  not present in database
Track  3  not present in database
Track  4  not present in database
Track  5  not present in database
Track  6  not present in database
Track  7  not present in database
Track  8  not present in database
Track  9  not present in database
Track 10  not present in database
Track 11  not present in database
None of the tracks are present in the AccurateRip database
End of status report
---- CUETools DB Plugin V2.1.3
[CTDB TOCID: 6sQt4eYvPIQ96HdKXT6Xl7Ffp_U-] found, Submit result: discs with pregaps not supported in this protocol version
[f9c2a1ba] (1/1) Accurately ripped
==== Log checksum 59143AED11FBAC29F799967CE6165E55B8939CA424BFF62BD18707ADE9FB03B1 ====
Код:
REM GENRE "Heavy/Power Metal"
REM DATE 2014
REM DISCID A80CB30B
REM COMMENT "ExactAudioCopy v1.0b3"
PERFORMER "Panzer"
TITLE "Send Them All To Hell"
FILE "Panzer - Send Them All To Hell.flac" WAVE
  TRACK 01 AUDIO
    TITLE "Death Knell"
    PERFORMER "Panzer"
    INDEX 00 00:00:00
    INDEX 01 00:00:01
  TRACK 02 AUDIO
    TITLE "Hail And Kill"
    PERFORMER "Panzer"
    INDEX 01 04:57:56
  TRACK 03 AUDIO
    TITLE "Temple Of Doom"
    PERFORMER "Panzer"
    INDEX 01 08:53:12
  TRACK 04 AUDIO
    TITLE "Panzer"
    PERFORMER "Panzer"
    INDEX 01 12:54:12
  TRACK 05 AUDIO
    TITLE "Freakshow"
    PERFORMER "Panzer"
    INDEX 01 18:01:09
  TRACK 06 AUDIO
    TITLE "Mr. Nobrain"
    PERFORMER "Panzer"
    INDEX 01 22:51:35
  TRACK 07 AUDIO
    TITLE "Why?"
    PERFORMER "Panzer"
    INDEX 01 27:36:59
  TRACK 08 AUDIO
    TITLE "Virtual Collision"
    PERFORMER "Panzer"
    INDEX 01 33:46:28
  TRACK 09 AUDIO
    TITLE "Roll The Dice"
    PERFORMER "Panzer"
    INDEX 01 38:29:34
  TRACK 10 AUDIO
    TITLE "Bleed For Your Sins"
    PERFORMER "Panzer"
    INDEX 01 44:16:58
  TRACK 11 AUDIO
    TITLE "Murder In The Skies (Bonus Track)"
    PERFORMER "Panzer"
    INDEX 01 49:37:46
--
Download / Скачать

Хотите скачать бесплатно? Зарегистрируйтесь на сайте (ссылка на регистрацию). Pirat.ca - самый быстрый торрент трекер в рунете!

Как скачивать  ·   Что такое торрент  ·   Рейтинг и ограничения

BilG

Корсар

Пост 13-Апр-2017 14:42 (спустя 2 года 3 месяца)

[Q] 

Уважуха!!!

_________________
[Профиль]  [ЛС] 
Показать сообщения:    
Ответить на тему

Текущее время: Сегодня 02:55

Часовой пояс: GMT + 4



Вы не можете начинать темы
Вы не можете отвечать на сообщения
Вы не можете редактировать свои сообщения
Вы не можете удалять свои сообщения
Вы не можете голосовать в опросах
Вы не можете прикреплять файлы к сообщениям
Вы не можете скачивать файлы

▼ Вниз