Уважаемый Гость!
Вы можете поддержать проект и зарегистрироваться у наших партнеров - онлайн-стратегия MyLands. При регистрации в игре Вы получите код, который сможете активировать после регистрации на pirat.ca и получить 1000 дублонов.

Ваш код:
d49a3625bbdee1b82b14274f97c375f8b2b2ee4c
 
     

(Power Metal) Gamma Ray - The Best Of (2CD) - 2015 [FLAC, image+.cue, lossless]

Ответить на тему
 
Автор
Сообщение

Пост 10-Мар-2015 16:42

[Q] 

sergej644

-Gamma Ray / The Best Of (2CD)-- Год издания: 2015
Страна: Germany
Жанр: Power Metal
Продолжительность: 02:33:14-Лейбл издания: Ear Music
Тип альбома: Compilation
Страна-выпуска диска: Germany
Номер по каталогу: 0210070EMU
Формат: FLAC
Битрейт аудио: lossless
Тип рипа: image+.cue
Наличие сканов в содержимом раздачи: да

01. Armageddon (08:46)
02. Heaven Can Wait (04:31)

03. Hellbent (05:24)

04. Dream Healer (07:36)
05. Land Of The Free (04:40)
06. To The Metal (05:31)
07. Somewhere Out In Space (05:29)
08. Real World (05:43)
09. Induction (00:59)
10. Dethrone Tyranny (04:15)
11. Rebellion In Dreamland (08:48)
12. Heading For Tomorrow (14:19)

01. Eagle (06:08)
02. Avalon (09:23)
03. Man On A Mission (05:51)
04. The Spirit (04:19)
05. Tribute To The Past (05:05)
06. Empathy (05:03)
07. Valley Of The Kings (03:52)
08. Lust For Life (05:28)
09. Master Of Confusion (04:56)
10. Blood Religion (06:56)
11. Time To Break Free (04:40)
12. Insurrection (11:35)
13. Send Me A Sign (04:08)
Код:
Exact Audio Copy V0.99 prebeta 5 from 4. May 2009
EAC extraction logfile from 6. March 2015, 15:43
Gamma Ray / The Best Of - Cd 1
Used drive  : TSSTcorpDVD+-RW TS-H653G   Adapter: 0  ID: 0
Read mode               : Secure
Utilize accurate stream : Yes
Defeat audio cache      : Yes
Make use of C2 pointers : No
Read offset correction                      : 6
Overread into Lead-In and Lead-Out          : No
Fill up missing offset samples with silence : Yes
Delete leading and trailing silent blocks   : No
Null samples used in CRC calculations       : Yes
Used interface                              : Native Win32 interface for Win NT & 2000
Used output format              : User Defined Encoder
Selected bitrate                : 40 kBit/s
Quality                         : High
Add ID3 tag                     : No
Command line compressor         : F:\progjes\##  programma's van C\EAC\Exact Audio Copy\Flac\flac.exe
Additional command line options :  -6 -V %s
TOC of the extracted CD
     Track |   Start  |  Length  | Start sector | End sector
    ---------------------------------------------------------
        1  |  0:00.00 |  8:45.67 |         0    |    39441
        2  |  8:45.67 |  4:30.67 |     39442    |    59758
        3  | 13:16.59 |  5:23.43 |     59759    |    84026
        4  | 18:40.27 |  7:35.55 |     84027    |   118206
        5  | 26:16.07 |  4:39.24 |    118207    |   139155
        6  | 30:55.31 |  5:30.15 |    139156    |   163920
        7  | 36:25.46 |  5:28.63 |    163921    |   188583
        8  | 41:54.34 |  5:42.32 |    188584    |   214265
        9  | 47:36.66 |  0:58.73 |    214266    |   218688
       10  | 48:35.64 |  4:14.69 |    218689    |   237807
       11  | 52:50.58 |  8:47.07 |    237808    |   277339
       12  | 61:37.65 | 14:18.28 |    277340    |   341717
Range status and errors
Selected range
     Filename C:\Users\sammy\Music\Gamma Ray - The Best Of (2015)\Cd 1\Gamma Ray - The Best Of - Cd 1.wav
     Peak level 100.0 %
     Range quality 99.9 %
     Copy CRC 946AAABC
     Copy OK
No errors occurred
AccurateRip summary
Track  1  not present in database
Track  2  not present in database
Track  3  not present in database
Track  4  not present in database
Track  5  not present in database
Track  6  not present in database
Track  7  not present in database
Track  8  not present in database
Track  9  not present in database
Track 10  not present in database
Track 11  not present in database
Track 12  not present in database
None of the tracks are present in the AccurateRip database
End of status report
Код:
Exact Audio Copy V0.99 prebeta 5 from 4. May 2009
EAC extraction logfile from 6. March 2015, 15:59
Gamma Ray  / The Best Of - Cd 2
Used drive  : TSSTcorpDVD+-RW TS-H653G   Adapter: 0  ID: 0
Read mode               : Secure
Utilize accurate stream : Yes
Defeat audio cache      : Yes
Make use of C2 pointers : No
Read offset correction                      : 6
Overread into Lead-In and Lead-Out          : No
Fill up missing offset samples with silence : Yes
Delete leading and trailing silent blocks   : No
Null samples used in CRC calculations       : Yes
Used interface                              : Native Win32 interface for Win NT & 2000
Used output format              : User Defined Encoder
Selected bitrate                : 40 kBit/s
Quality                         : High
Add ID3 tag                     : No
Command line compressor         : F:\progjes\##  programma's van C\EAC\Exact Audio Copy\Flac\flac.exe
Additional command line options :  -6 -V %s
TOC of the extracted CD
     Track |   Start  |  Length  | Start sector | End sector
    ---------------------------------------------------------
        1  |  0:00.00 |  6:07.66 |         0    |    27590
        2  |  6:07.66 |  9:22.59 |     27591    |    69799
        3  | 15:30.50 |  5:50.22 |     69800    |    96071
        4  | 21:20.72 |  4:18.25 |     96072    |   115446
        5  | 25:39.22 |  5:04.24 |    115447    |   138270
        6  | 30:43.46 |  5:02.59 |    138271    |   160979
        7  | 35:46.30 |  3:51.05 |    160980    |   178309
        8  | 39:37.35 |  5:27.46 |    178310    |   202880
        9  | 45:05.06 |  4:55.01 |    202881    |   225006
       10  | 50:00.07 |  6:55.12 |    225007    |   256143
       11  | 56:55.19 |  4:39.70 |    256144    |   277138
       12  | 61:35.14 | 11:34.25 |    277139    |   329213
       13  | 73:09.39 |  4:07.21 |    329214    |   347759
Range status and errors
Selected range
     Filename C:\Users\sammy\Music\Gamma Ray - The Best Of (2015)\Cd 2\Gamma Ray  - The Best Of - Cd 2.wav
     Peak level 100.0 %
     Range quality 100.0 %
     Copy CRC 9A8C45E9
     Copy OK
No errors occurred
AccurateRip summary
Track  1  not present in database
Track  2  not present in database
Track  3  not present in database
Track  4  not present in database
Track  5  not present in database
Track  6  not present in database
Track  7  not present in database
Track  8  not present in database
Track  9  not present in database
Track 10  not present in database
Track 11  not present in database
Track 12  not present in database
Track 13  not present in database
None of the tracks are present in the AccurateRip database
End of status report
Код:
REM GENRE "Heavy Metal"
REM DATE 2015
REM DISCID CA11CC0C
REM COMMENT "ExactAudioCopy v0.99pb5"
PERFORMER "Gamma Ray"
TITLE "The Best Of - Cd 1"
FILE "Gamma Ray - The Best Of - Cd 1.flac" WAVE
  TRACK 01 AUDIO
    TITLE "Armageddon"
    PERFORMER "Gamma Ray"
    INDEX 01 00:00:00
  TRACK 02 AUDIO
    TITLE "Heaven Can Wait "
    PERFORMER "Gamma Ray"
    INDEX 00 08:44:70
    INDEX 01 08:45:67
  TRACK 03 AUDIO
    TITLE "Hellbent"
    PERFORMER "Gamma Ray"
    INDEX 00 13:15:58
    INDEX 01 13:16:59
  TRACK 04 AUDIO
    TITLE "Dream Healer "
    PERFORMER "Gamma Ray"
    INDEX 00 18:39:36
    INDEX 01 18:40:27
  TRACK 05 AUDIO
    TITLE "Land Of The Free"
    PERFORMER "Gamma Ray"
    INDEX 00 26:15:25
    INDEX 01 26:16:07
  TRACK 06 AUDIO
    TITLE "To The Metal"
    PERFORMER "Gamma Ray"
    INDEX 00 30:54:36
    INDEX 01 30:55:31
  TRACK 07 AUDIO
    TITLE "Somewhere Out In Space"
    PERFORMER "Gamma Ray"
    INDEX 00 36:24:56
    INDEX 01 36:25:46
  TRACK 08 AUDIO
    TITLE "Real World"
    PERFORMER "Gamma Ray"
    INDEX 00 41:53:36
    INDEX 01 41:54:34
  TRACK 09 AUDIO
    TITLE "Induction "
    PERFORMER "Gamma Ray"
    INDEX 00 47:35:47
    INDEX 01 47:36:66
  TRACK 10 AUDIO
    TITLE "Dethrone Tyranny "
    PERFORMER "Gamma Ray"
    INDEX 01 48:35:64
  TRACK 11 AUDIO
    TITLE "Rebellion In Dreamland "
    PERFORMER "Gamma Ray"
    INDEX 00 52:49:71
    INDEX 01 52:50:58
  TRACK 12 AUDIO
    TITLE "Heading For Tomorrow"
    PERFORMER "Gamma Ray"
    INDEX 00 61:37:04
    INDEX 01 61:37:65
Код:
REM GENRE "Heavy Metal"
REM DATE 2015
REM DISCID BE121C0D
REM COMMENT "ExactAudioCopy v0.99pb5"
PERFORMER "Gamma Ray "
TITLE "The Best Of - Cd 2"
FILE "Gamma Ray  - The Best Of - Cd 2.flac" WAVE
  TRACK 01 AUDIO
    TITLE "Eagle"
    PERFORMER "Gamma Ray "
    INDEX 01 00:00:00
  TRACK 02 AUDIO
    TITLE "Avalon"
    PERFORMER "Gamma Ray "
    INDEX 00 06:05:66
    INDEX 01 06:07:66
  TRACK 03 AUDIO
    TITLE "Man On A Mission"
    PERFORMER "Gamma Ray "
    INDEX 00 15:29:69
    INDEX 01 15:30:50
  TRACK 04 AUDIO
    TITLE "The Spirit"
    PERFORMER "Gamma Ray "
    INDEX 00 21:20:07
    INDEX 01 21:20:72
  TRACK 05 AUDIO
    TITLE "Tribute To The Past"
    PERFORMER "Gamma Ray "
    INDEX 00 25:38:34
    INDEX 01 25:39:22
  TRACK 06 AUDIO
    TITLE "Empathy"
    PERFORMER "Gamma Ray "
    INDEX 00 30:42:49
    INDEX 01 30:43:46
  TRACK 07 AUDIO
    TITLE "Valley Of The Kings"
    PERFORMER "Gamma Ray "
    INDEX 00 35:45:51
    INDEX 01 35:46:30
  TRACK 08 AUDIO
    TITLE "Lust For Life"
    PERFORMER "Gamma Ray "
    INDEX 00 39:36:53
    INDEX 01 39:37:35
  TRACK 09 AUDIO
    TITLE "Master Of Confusion"
    PERFORMER "Gamma Ray "
    INDEX 00 45:04:20
    INDEX 01 45:05:06
  TRACK 10 AUDIO
    TITLE "Blood Religion"
    PERFORMER "Gamma Ray "
    INDEX 00 49:58:62
    INDEX 01 50:00:07
  TRACK 11 AUDIO
    TITLE "Time To Break Free"
    PERFORMER "Gamma Ray "
    INDEX 00 56:54:48
    INDEX 01 56:55:19
  TRACK 12 AUDIO
    TITLE "Insurrection"
    PERFORMER "Gamma Ray "
    INDEX 00 61:34:27
    INDEX 01 61:35:14
  TRACK 13 AUDIO
    TITLE "Send Me A Sign"
    PERFORMER "Gamma Ray "
    INDEX 00 73:08:50
    INDEX 01 73:09:39
Код:
AUDIOCHECKER v2.0 beta (build 457) - by Dester - [email protected]
~~~~~~~~~~~~~~~~~~~~~~~~~~~~~~~~~~
Started at: среда, 21. 01. 2015. - 15:43.13
1 file found
1 -===- J:\временная папка музыка\Александр Новиков - 2002 - Извозчик '84 (Flac)\Александр Новиков - Извозчик '84.flac
  Extracted successfully
  Conclusion: this track is CDDA with probability 100%
  Tempfile successfully deleted.
Finished at: среда, 21. 01. 2015. - 15:46.27 (operation time: 0:03.14)
Код:
AUDIOCHECKER v2.0 beta (build 457) - by Dester - [email protected]
~~~~~~~~~~~~~~~~~~~~~~~~~~~~~~~~~~
Started at: суббота, 24. 01. 2015. - 17:48.38
1 file found
1 -===- J:\временная папка музыка\Константин Никольский - Один взгляд назад (1996)\Константин Никольский - Один взгляд назад.flac
  Extracted successfully
  Conclusion: this track is CDDA with probability 100%
  Tempfile successfully deleted.
Finished at: суббота, 24. 01. 2015. - 17:50.56 (operation time: 0:02.17)
--

Download / Скачать

Хотите скачать бесплатно? Зарегистрируйтесь на сайте (ссылка на регистрацию). Pirat.ca - самый быстрый торрент трекер в рунете!

Как скачивать  ·   Что такое торрент  ·   Рейтинг и ограничения

BilG

Корсар

Пост 12-Апр-2017 15:52 (спустя 2 года 1 месяц)

[Q] 

YARRRR!!!

_________________
[Профиль]  [ЛС] 
Показать сообщения:    
Ответить на тему

Текущее время: Сегодня 19:37

Часовой пояс: GMT + 4



Вы не можете начинать темы
Вы не можете отвечать на сообщения
Вы не можете редактировать свои сообщения
Вы не можете удалять свои сообщения
Вы не можете голосовать в опросах
Вы не можете прикреплять файлы к сообщениям
Вы не можете скачивать файлы

▼ Вниз