Уважаемый Гость!
Вы можете поддержать проект и зарегистрироваться у наших партнеров - онлайн-стратегия MyLands. При регистрации в игре Вы получите код, который сможете активировать после регистрации на pirat.ca и получить 1000 дублонов.

Ваш код:
1b8effbb2d91248629d5897a85d0d1c4a4c433f0
 
     

(Symphonic Power Metal) Magic Kingdom - Savage Requiem - 2015 [FLAC, image+.cue, lossless]

Ответить на тему
 
Автор
Сообщение

Пост 20-Апр-2015 19:31

[Q] 

Дядя Вова

Гроза морей

-Magic Kingdom / Savage Requiem-- Год издания: 2015
Страна: Brussels, Brussels-Capital Region, Belgium
Жанр: Symphonic Power Metal
Продолжительность: 62:49-Лейбл издания: AFM Records
Тип альбома: Master
Страна-выпуска диска: Hamburg, Germany
Номер по каталогу: [AFM 527-9]
Источник (релизер): RMT (Schkuro666)-Формат: FLAC
Битрейт аудио: lossless
Тип рипа: image+.cue
Наличие сканов в содержимом раздачи: да-
01. In Umbra Mea
02. Guardian Angels
03. Rivals Forever
04. Full Moon Sacrifice
05. Ship Of Ghosts
06. Savage Requiem
07. Four Demon Kings of Shadowlands
08. With Fire And Sword
09. Dragon Princess
10. Battlefield Magic
11. Dragon Princess (Acoustic Version)
Exact Audio Copy V1.0 beta 4 from 7. December 2014
EAC extraction logfile from 25. March 2015, 14:56
Magic Kingdom / Savage Requiem
Used drive : HP DVD Writer 1170d Adapter: 1 ID: 1
Read mode : Secure
Utilize accurate stream : Yes
Defeat audio cache : Yes
Make use of C2 pointers : No
Read offset correction : 6
Overread into Lead-In and Lead-Out : No
Fill up missing offset samples with silence : Yes
Delete leading and trailing silent blocks : No
Null samples used in CRC calculations : Yes
Used interface : Native Win32 interface for Win NT & 2000
Used output format : User Defined Encoder
Selected bitrate : 768 kBit/s
Quality : High
Add ID3 tag : No
Command line compressor : C:\Program Files (x86)\Exact Audio Copy\FLAC\FLAC.EXE
Additional command line options : -V -8 -T "Date=%year%" -T "Genre=%genre%" -T"COMMENT=Ripped by Schkuro666" -8 -V %source%
TOC of the extracted CD
Track | Start | Length | Start sector | End sector
---------------------------------------------------------
1 | 0:00.00 | 1:08.23 | 0 | 5122
2 | 1:08.23 | 7:08.48 | 5123 | 37270
3 | 8:16.71 | 5:16.12 | 37271 | 60982
4 | 13:33.08 | 6:30.12 | 60983 | 90244
5 | 20:03.20 | 4:43.12 | 90245 | 111481
6 | 24:46.32 | 6:35.12 | 111482 | 141118
7 | 31:21.44 | 7:03.34 | 141119 | 172877
8 | 38:25.03 | 5:52.09 | 172878 | 199286
9 | 44:17.12 | 5:55.12 | 199287 | 225923
10 | 50:12.24 | 6:26.12 | 225924 | 254885
11 | 56:38.36 | 6:11.01 | 254886 | 282711
Range status and errors
Selected range
Filename C:\EAC\Schkuro666\Magic Kingdom - Savage Requiem.wav
Peak level 99.5 %
Extraction speed 7.6 X
Range quality 100.0 %
Test CRC 32C7354D
Copy CRC 32C7354D
Copy OK
No errors occurred
AccurateRip summary
Track 1 not present in database
Track 2 not present in database
Track 3 not present in database
Track 4 not present in database
Track 5 not present in database
Track 6 not present in database
Track 7 not present in database
Track 8 not present in database
Track 9 not present in database
Track 10 not present in database
Track 11 not present in database
None of the tracks are present in the AccurateRip database
End of status report
---- CUETools DB Plugin V2.1.5
[CTDB TOCID: 098STj5.at.Rt9tVDKKpEiRtmbE-] disk not present in database
Submit result: 098STj5.at.Rt9tVDKKpEiRtmbE- has been uploaded
==== Log checksum 63A4854BC2B92B55D029693E20A960134992EA1085DB26D959FF5FD1C099770C ====
REM GENRE Symphonic Power Metal
REM DATE 2015
REM DISCID 8E0EB90B
REM COMMENT First press 20 Mar 2015, Europe
PERFORMER "Magic Kingdom"
TITLE "Savage Requiem "
FILE "Magic Kingdom - Savage Requiem.flac" WAVE
TRACK 01 AUDIO
TITLE "In Umbra Mea"
INDEX 01 00:00:00
TRACK 02 AUDIO
TITLE "Guardian Angels"
INDEX 01 01:08:23
TRACK 03 AUDIO
TITLE "Rivals Forever"
INDEX 00 08:16:60
INDEX 01 08:16:71
TRACK 04 AUDIO
TITLE "Full Moon Sacrifice"
INDEX 00 13:32:72
INDEX 01 13:33:08
TRACK 05 AUDIO
TITLE "Ship Of Ghosts"
INDEX 00 20:03:09
INDEX 01 20:03:20
TRACK 06 AUDIO
TITLE "Savage Requiem"
INDEX 00 24:46:21
INDEX 01 24:46:32
TRACK 07 AUDIO
TITLE "Four Demon Kings Of Shadowlands"
INDEX 00 31:21:33
INDEX 01 31:21:44
TRACK 08 AUDIO
TITLE "With Fire And Sword"
INDEX 00 38:24:68
INDEX 01 38:25:03
TRACK 09 AUDIO
TITLE "Dragon Princess"
INDEX 00 44:17:02
INDEX 01 44:17:12
TRACK 10 AUDIO
TITLE "Battlefield Magic"
INDEX 00 50:12:13
INDEX 01 50:12:24
TRACK 11 AUDIO
TITLE "Dragon Princess (Acoustic Version)"
INDEX 00 56:38:25
INDEX 01 56:38:36
Download / Скачать

Хотите скачать бесплатно? Зарегистрируйтесь на сайте (ссылка на регистрацию). Pirat.ca - самый быстрый торрент трекер в рунете!

Как скачивать  ·   Что такое торрент  ·   Рейтинг и ограничения

BilG

Корсар

Пост 06-Апр-2017 17:36 (спустя 1 год 11 месяцев)

[Q] 

Самый короткий ответ — действием

_________________
[Профиль]  [ЛС] 
Показать сообщения:    
Ответить на тему

Текущее время: Сегодня 03:02

Часовой пояс: GMT + 4



Вы не можете начинать темы
Вы не можете отвечать на сообщения
Вы не можете редактировать свои сообщения
Вы не можете удалять свои сообщения
Вы не можете голосовать в опросах
Вы не можете прикреплять файлы к сообщениям
Вы не можете скачивать файлы

▼ Вниз