Уважаемый Гость!
Вы можете поддержать проект и зарегистрироваться у наших партнеров - онлайн-стратегия MyLands. При регистрации в игре Вы получите код, который сможете активировать после регистрации на pirat.ca и получить 1000 дублонов.

Ваш код:
bf76b4fde44c7189cfb4d32d5b204facc1d6d492
 
     

(Symphonic, Progressive, Power Metal) Kamelot - Haven [Deluxe Edition] - 2015 [FLAC, tracks+.cue, Lossless]

Ответить на тему
 
Автор
Сообщение

Пост 03-Май-2015 01:37

[Q] 

Ворон

-Kamelot - Haven [Deluxe Edition]--
Год издания: 2015
Лейбл: Napalm Records
Жанр: Symphonic, Progressive, Power Metal
Продолжительность: 02:01:04
Формат: FLAC
Битрейт аудио: Lossless
Тип рипа: tracks+.cue
Наличие сканов в содержимом раздачи: нет-Трэклист:
CD1
01. Fallen Star
02. Insomnia
03. Citizen Zero
04. Veil Of Elysium
05. Under Grey Skies
06. My Therapy
07. Ecclesia
08. End Of Innocence
09. Beautiful Apocalypse
10. Liar Liar (Wasteland Monarchy)
11. Here's To The Fall
12. Revolution
13. Haven
Код:
Exact Audio Copy V1.0 beta 3 from 29. August 2011
EAC extraction logfile from 1. May 2015, 19:00
Kamelot / Haven
Used drive  : HL-DT-STBDDVDRW GGC-H20L   Adapter: 1  ID: 0
Read mode               : Secure
Utilize accurate stream : Yes
Defeat audio cache      : Yes
Make use of C2 pointers : No
Read offset correction                      : 667
Overread into Lead-In and Lead-Out          : No
Fill up missing offset samples with silence : Yes
Delete leading and trailing silent blocks   : No
Null samples used in CRC calculations       : Yes
Used interface                              : Native Win32 interface for Win NT & 2000
Gap handling                                : Appended to previous track
Used output format              : User Defined Encoder
Selected bitrate                : 1024 kBit/s
Quality                         : High
Add ID3 tag                     : No
Command line compressor         : C:\Program Files (x86)\Exact Audio Copy\Flac\flac.exe
Additional command line options : -8 -V -T "ARTIST=%artist%" -T "TITLE=%title%" -T "ALBUM=%albumtitle%" -T "DATE=%year%" -T "TRACKNUMBER=%tracknr%" -T "GENRE=%genre%" -T "PERFORMER=%albuminterpret%" -T "COMPOSER=%composer%" %haslyrics%--tag-from-file=LYRICS="%lyricsfile%"%haslyrics% -T "ALBUMARTIST=%albumartist%" -T "DISCNUMBER=%cdnumber%" -T "TOTALDISCS=%totalcds%" -T "TOTALTRACKS=%numtracks%" -T "COMMENT=%comment%" %source% -o %dest%
TOC of the extracted CD
     Track |   Start  |  Length  | Start sector | End sector
    ---------------------------------------------------------
        1  |  0:00.00 |  4:39.28 |         0    |    20952
        2  |  4:39.28 |  4:13.37 |     20953    |    39964
        3  |  8:52.65 |  5:49.70 |     39965    |    66209
        4  | 14:42.60 |  3:54.32 |     66210    |    83791
        5  | 18:37.17 |  4:52.35 |     83792    |   105726
        6  | 23:29.52 |  4:26.05 |    105727    |   125681
        7  | 27:55.57 |  0:44.32 |    125682    |   129013
        8  | 28:40.14 |  3:49.68 |    129014    |   146256
        9  | 32:30.07 |  4:25.70 |    146257    |   166201
       10  | 36:56.02 |  5:54.66 |    166202    |   192817
       11  | 42:50.68 |  4:04.67 |    192818    |   211184
       12  | 46:55.60 |  4:49.11 |    211185    |   232870
       13  | 51:44.71 |  2:14.10 |    232871    |   242930
Track  1
     Filename D:\Music\Everything Else\Kamelot\2015 - Haven\Disc 1\01 Fallen Star.wav
     Pre-gap length  0:00:02.00
     Peak level 98.7 %
     Extraction speed 4.6 X
     Track quality 100.0 %
     Test CRC DA88C51B
     Copy CRC DA88C51B
     Track not present in AccurateRip database
     Copy OK
Track  2
     Filename D:\Music\Everything Else\Kamelot\2015 - Haven\Disc 1\02 Insomnia.wav
     Peak level 98.5 %
     Extraction speed 5.1 X
     Track quality 100.0 %
     Test CRC 11A2C74B
     Copy CRC 11A2C74B
     Track not present in AccurateRip database
     Copy OK
Track  3
     Filename D:\Music\Everything Else\Kamelot\2015 - Haven\Disc 1\03 Citizen Zero.wav
     Peak level 98.6 %
     Extraction speed 5.2 X
     Track quality 99.9 %
     Test CRC D978B044
     Copy CRC D978B044
     Track not present in AccurateRip database
     Copy OK
Track  4
     Filename D:\Music\Everything Else\Kamelot\2015 - Haven\Disc 1\04 Veil of Elysium.wav
     Peak level 98.6 %
     Extraction speed 6.1 X
     Track quality 100.0 %
     Test CRC FEFB00CA
     Copy CRC FEFB00CA
     Track not present in AccurateRip database
     Copy OK
Track  5
     Filename D:\Music\Everything Else\Kamelot\2015 - Haven\Disc 1\05 Under Grey Skies.wav
     Peak level 98.6 %
     Extraction speed 5.7 X
     Track quality 99.9 %
     Test CRC 11CABB1B
     Copy CRC 11CABB1B
     Track not present in AccurateRip database
     Copy OK
Track  6
     Filename D:\Music\Everything Else\Kamelot\2015 - Haven\Disc 1\06 My Therapy.wav
     Peak level 98.6 %
     Extraction speed 7.0 X
     Track quality 100.0 %
     Test CRC 7B92A5B7
     Copy CRC 7B92A5B7
     Track not present in AccurateRip database
     Copy OK
Track  7
     Filename D:\Music\Everything Else\Kamelot\2015 - Haven\Disc 1\07 Ecclesia.wav
     Peak level 70.8 %
     Extraction speed 4.1 X
     Track quality 100.0 %
     Test CRC 7E7A79A8
     Copy CRC 7E7A79A8
     Track not present in AccurateRip database
     Copy OK
Track  8
     Filename D:\Music\Everything Else\Kamelot\2015 - Haven\Disc 1\08 End of Innocence.wav
     Peak level 98.8 %
     Extraction speed 7.3 X
     Track quality 100.0 %
     Test CRC 5273BD90
     Copy CRC 5273BD90
     Track not present in AccurateRip database
     Copy OK
Track  9
     Filename D:\Music\Everything Else\Kamelot\2015 - Haven\Disc 1\09 Beautiful Apocalypse.wav
     Peak level 98.5 %
     Extraction speed 6.4 X
     Track quality 99.9 %
     Test CRC BCC892D2
     Copy CRC BCC892D2
     Track not present in AccurateRip database
     Copy OK
Track 10
     Filename D:\Music\Everything Else\Kamelot\2015 - Haven\Disc 1\10 Liar Liar (Wasteland Monarchy).wav
     Peak level 98.7 %
     Extraction speed 7.2 X
     Track quality 99.9 %
     Test CRC 7B8C2D72
     Copy CRC 7B8C2D72
     Track not present in AccurateRip database
     Copy OK
Track 11
     Filename D:\Music\Everything Else\Kamelot\2015 - Haven\Disc 1\11 Here's to the Fall.wav
     Peak level 89.5 %
     Extraction speed 8.1 X
     Track quality 100.0 %
     Test CRC DE91BEDF
     Copy CRC DE91BEDF
     Track not present in AccurateRip database
     Copy OK
Track 12
     Filename D:\Music\Everything Else\Kamelot\2015 - Haven\Disc 1\12 Revolution.wav
     Peak level 98.2 %
     Extraction speed 7.3 X
     Track quality 99.9 %
     Test CRC B45ED7A7
     Copy CRC B45ED7A7
     Track not present in AccurateRip database
     Copy OK
Track 13
     Filename D:\Music\Everything Else\Kamelot\2015 - Haven\Disc 1\13 Haven.wav
     Peak level 97.3 %
     Extraction speed 6.0 X
     Track quality 99.9 %
     Test CRC E8A8015B
     Copy CRC E8A8015B
     Track not present in AccurateRip database
     Copy OK
None of the tracks are present in the AccurateRip database
No errors occurred
End of status report
---- CUETools DB Plugin V2.1.3
[CTDB TOCID: EboBU3B6xe1SoI6eHmcpe2vGv5o-] found, Submit result: already submitted
[69fbfc3c] (2/2) Accurately ripped
==== Log checksum 17C7F3B4CAF618BD4D9482B468339104F147130BE71BF2D2397C7DA25A445CFB ====
Код:
REM GENRE Metal
REM DATE 2015
REM DISCID AB0CA70D
REM COMMENT "ExactAudioCopy v1.0b3"
FILE "01 Fallen Star.wav" WAVE
  TRACK 01 AUDIO
    INDEX 01 00:00:00
FILE "02 Insomnia.wav" WAVE
  TRACK 02 AUDIO
    INDEX 01 00:00:00
FILE "03 Citizen Zero.wav" WAVE
  TRACK 03 AUDIO
    INDEX 01 00:00:00
FILE "04 Veil of Elysium.wav" WAVE
  TRACK 04 AUDIO
    INDEX 01 00:00:00
FILE "05 Under Grey Skies.wav" WAVE
  TRACK 05 AUDIO
    INDEX 01 00:00:00
FILE "06 My Therapy.wav" WAVE
  TRACK 06 AUDIO
    INDEX 01 00:00:00
FILE "07 Ecclesia.wav" WAVE
  TRACK 07 AUDIO
    INDEX 01 00:00:00
FILE "08 End of Innocence.wav" WAVE
  TRACK 08 AUDIO
    INDEX 01 00:00:00
FILE "09 Beautiful Apocalypse.wav" WAVE
  TRACK 09 AUDIO
    INDEX 01 00:00:00
FILE "10 Liar Liar (Wasteland Monarchy).wav" WAVE
  TRACK 10 AUDIO
    INDEX 01 00:00:00
FILE "11 Here's to the Fall.wav" WAVE
  TRACK 11 AUDIO
    INDEX 01 00:00:00
FILE "12 Revolution.wav" WAVE
  TRACK 12 AUDIO
    INDEX 01 00:00:00
FILE "13 Haven.wav" WAVE
  TRACK 13 AUDIO
    INDEX 01 00:00:00
CD2
01. End of Innocence (Piano Version)
02. Veil of Elysium (Acoustic Version)
03. Fallen Star (Orchestral Version)
04. Here's to the Fall (Orchestral Version)
05. My Therapy (Orchestral Version)
06. Fallen Star (Instrumental)
07. Insomnia (Instrumental)
08. Citizen Zero (Instrumental)
09. Veil of Elysium (Instrumental)
10. Under Grey Skies (Instrumental)
11. My Therapy (Instrumental)
12. End of Innocence (Instrumental)
13. Beautiful Apocalypse (Instrumental)
14. Liar Liar (Wasteland Monarchy) (Instrumental)
15. Revolution (Instrumental)
Код:
Exact Audio Copy V1.0 beta 3 from 29. August 2011
EAC extraction logfile from 1. May 2015, 19:41
Kamelot / Haven
Used drive  : HL-DT-STBDDVDRW GGC-H20L   Adapter: 1  ID: 0
Read mode               : Secure
Utilize accurate stream : Yes
Defeat audio cache      : Yes
Make use of C2 pointers : No
Read offset correction                      : 667
Overread into Lead-In and Lead-Out          : No
Fill up missing offset samples with silence : Yes
Delete leading and trailing silent blocks   : No
Null samples used in CRC calculations       : Yes
Used interface                              : Native Win32 interface for Win NT & 2000
Gap handling                                : Appended to previous track
Used output format              : User Defined Encoder
Selected bitrate                : 1024 kBit/s
Quality                         : High
Add ID3 tag                     : No
Command line compressor         : C:\Program Files (x86)\Exact Audio Copy\Flac\flac.exe
Additional command line options : -8 -V -T "ARTIST=%artist%" -T "TITLE=%title%" -T "ALBUM=%albumtitle%" -T "DATE=%year%" -T "TRACKNUMBER=%tracknr%" -T "GENRE=%genre%" -T "PERFORMER=%albuminterpret%" -T "COMPOSER=%composer%" %haslyrics%--tag-from-file=LYRICS="%lyricsfile%"%haslyrics% -T "ALBUMARTIST=%albumartist%" -T "DISCNUMBER=%cdnumber%" -T "TOTALDISCS=%totalcds%" -T "TOTALTRACKS=%numtracks%" -T "COMMENT=%comment%" %source% -o %dest%
TOC of the extracted CD
     Track |   Start  |  Length  | Start sector | End sector
    ---------------------------------------------------------
        1  |  0:00.00 |  3:35.62 |         0    |    16186
        2  |  3:35.62 |  3:07.63 |     16187    |    30274
        3  |  6:43.50 |  4:52.73 |     30275    |    52247
        4  | 11:36.48 |  4:05.46 |     52248    |    70668
        5  | 15:42.19 |  4:22.08 |     70669    |    90326
        6  | 20:04.27 |  4:40.49 |     90327    |   111375
        7  | 24:45.01 |  4:12.51 |    111376    |   130326
        8  | 28:57.52 |  5:51.02 |    130327    |   156653
        9  | 34:48.54 |  3:54.14 |    156654    |   174217
       10  | 38:42.68 |  4:52.43 |    174218    |   196160
       11  | 43:35.36 |  4:26.38 |    196161    |   216148
       12  | 48:01.74 |  3:50.56 |    216149    |   233454
       13  | 51:52.55 |  4:27.18 |    233455    |   253497
       14  | 56:19.73 |  5:54.42 |    253498    |   280089
       15  | 62:14.40 |  4:49.65 |    280090    |   301829
Track  1
     Filename D:\Music\Everything Else\Kamelot\2015 - Haven\Disc 2\01 End of Innocence - Piano Version.wav
     Pre-gap length  0:00:02.00
     Peak level 91.4 %
     Extraction speed 4.4 X
     Track quality 100.0 %
     Test CRC 3ACD7614
     Copy CRC 3ACD7614
     Track not present in AccurateRip database
     Copy OK
Track  2
     Filename D:\Music\Everything Else\Kamelot\2015 - Haven\Disc 2\02 Veil of Elysium - Acoustic Version.wav
     Peak level 92.1 %
     Extraction speed 4.6 X
     Track quality 100.0 %
     Test CRC AA885722
     Copy CRC AA885722
     Track not present in AccurateRip database
     Copy OK
Track  3
     Filename D:\Music\Everything Else\Kamelot\2015 - Haven\Disc 2\03 Fallen Star - Orchestral Version.wav
     Peak level 97.5 %
     Extraction speed 5.5 X
     Track quality 100.0 %
     Test CRC 2BD665D8
     Copy CRC 2BD665D8
     Track not present in AccurateRip database
     Copy OK
Track  4
     Filename D:\Music\Everything Else\Kamelot\2015 - Haven\Disc 2\04 Here's to the Fall - Orchestral Version.wav
     Peak level 97.3 %
     Extraction speed 5.7 X
     Track quality 100.0 %
     Test CRC EEEDC5AA
     Copy CRC EEEDC5AA
     Track not present in AccurateRip database
     Copy OK
Track  5
     Filename D:\Music\Everything Else\Kamelot\2015 - Haven\Disc 2\05 My Therapy - Orchestral Version.wav
     Peak level 98.8 %
     Extraction speed 6.1 X
     Track quality 100.0 %
     Test CRC FBE68789
     Copy CRC FBE68789
     Track not present in AccurateRip database
     Copy OK
Track  6
     Filename D:\Music\Everything Else\Kamelot\2015 - Haven\Disc 2\06 Fallen Star - Instrumental.wav
     Peak level 98.7 %
     Extraction speed 6.7 X
     Track quality 100.0 %
     Test CRC A88F9367
     Copy CRC A88F9367
     Track not present in AccurateRip database
     Copy OK
Track  7
     Filename D:\Music\Everything Else\Kamelot\2015 - Haven\Disc 2\07 Insomnia - Instrumental.wav
     Peak level 98.7 %
     Extraction speed 5.7 X
     Track quality 99.9 %
     Test CRC B33A7796
     Copy CRC B33A7796
     Track not present in AccurateRip database
     Copy OK
Track  8
     Filename D:\Music\Everything Else\Kamelot\2015 - Haven\Disc 2\08 Citizen Zero - Instrumental.wav
     Peak level 98.8 %
     Extraction speed 7.6 X
     Track quality 100.0 %
     Test CRC C811F11E
     Copy CRC C811F11E
     Track not present in AccurateRip database
     Copy OK
Track  9
     Filename D:\Music\Everything Else\Kamelot\2015 - Haven\Disc 2\09 Veil of Elysium - Instrumental.wav
     Peak level 98.7 %
     Extraction speed 7.5 X
     Track quality 100.0 %
     Test CRC FB981F8C
     Copy CRC FB981F8C
     Track not present in AccurateRip database
     Copy OK
Track 10
     Filename D:\Music\Everything Else\Kamelot\2015 - Haven\Disc 2\10 Under Grey Skies - Instrumental.wav
     Peak level 98.5 %
     Extraction speed 8.1 X
     Track quality 100.0 %
     Test CRC 272F6AC8
     Copy CRC 272F6AC8
     Track not present in AccurateRip database
     Copy OK
Track 11
     Filename D:\Music\Everything Else\Kamelot\2015 - Haven\Disc 2\11 My Therapy - Instrumental.wav
     Peak level 98.5 %
     Extraction speed 8.0 X
     Track quality 100.0 %
     Test CRC 377B767C
     Copy CRC 377B767C
     Track not present in AccurateRip database
     Copy OK
Track 12
     Filename D:\Music\Everything Else\Kamelot\2015 - Haven\Disc 2\12 End of Innocence - Instrumental.wav
     Peak level 98.6 %
     Extraction speed 6.7 X
     Track quality 99.9 %
     Test CRC F689E938
     Copy CRC F689E938
     Track not present in AccurateRip database
     Copy OK
Track 13
     Filename D:\Music\Everything Else\Kamelot\2015 - Haven\Disc 2\13 Beautiful Apocalypse - Instrumental.wav
     Peak level 98.7 %
     Extraction speed 7.2 X
     Track quality 99.9 %
     Test CRC 769195F7
     Copy CRC 769195F7
     Track not present in AccurateRip database
     Copy OK
Track 14
     Filename D:\Music\Everything Else\Kamelot\2015 - Haven\Disc 2\14 Liar Liar (Wasteland Monarchy) - Instrumental.wav
     Peak level 98.8 %
     Extraction speed 8.0 X
     Track quality 99.9 %
     Test CRC 3477299A
     Copy CRC 3477299A
     Track not present in AccurateRip database
     Copy OK
Track 15
     Filename D:\Music\Everything Else\Kamelot\2015 - Haven\Disc 2\15 Revolution - Instrumental.wav
     Peak level 98.8 %
     Extraction speed 8.0 X
     Track quality 99.9 %
     Test CRC 6F22362D
     Copy CRC 6F22362D
     Track not present in AccurateRip database
     Copy OK
None of the tracks are present in the AccurateRip database
No errors occurred
End of status report
---- CUETools DB Plugin V2.1.3
[CTDB TOCID: _YosgG6nyNBUo62wFTHnVS6Ctkk-] disk not present in database, Submit result: _YosgG6nyNBUo62wFTHnVS6Ctkk- has been uploaded
==== Log checksum C9B6835939C534A3425B184A8BB122BD7DCE4841A2A54D94DF09497E2C1A81B8 ====
Код:
REM GENRE Metal
REM DATE 2015
REM DISCID D40FB80F
REM COMMENT "ExactAudioCopy v1.0b3"
FILE "01 End of Innocence - Piano Version.wav" WAVE
  TRACK 01 AUDIO
    INDEX 01 00:00:00
FILE "02 Veil of Elysium - Acoustic Version.wav" WAVE
  TRACK 02 AUDIO
    INDEX 01 00:00:00
FILE "03 Fallen Star - Orchestral Version.wav" WAVE
  TRACK 03 AUDIO
    INDEX 01 00:00:00
FILE "04 Here's to the Fall - Orchestral Version.wav" WAVE
  TRACK 04 AUDIO
    INDEX 01 00:00:00
FILE "05 My Therapy - Orchestral Version.wav" WAVE
  TRACK 05 AUDIO
    INDEX 01 00:00:00
FILE "06 Fallen Star - Instrumental.wav" WAVE
  TRACK 06 AUDIO
    INDEX 01 00:00:00
FILE "07 Insomnia - Instrumental.wav" WAVE
  TRACK 07 AUDIO
    INDEX 01 00:00:00
FILE "08 Citizen Zero - Instrumental.wav" WAVE
  TRACK 08 AUDIO
    INDEX 01 00:00:00
FILE "09 Veil of Elysium - Instrumental.wav" WAVE
  TRACK 09 AUDIO
    INDEX 01 00:00:00
FILE "10 Under Grey Skies - Instrumental.wav" WAVE
  TRACK 10 AUDIO
    INDEX 01 00:00:00
FILE "11 My Therapy - Instrumental.wav" WAVE
  TRACK 11 AUDIO
    INDEX 01 00:00:00
FILE "12 End of Innocence - Instrumental.wav" WAVE
  TRACK 12 AUDIO
    INDEX 01 00:00:00
FILE "13 Beautiful Apocalypse - Instrumental.wav" WAVE
  TRACK 13 AUDIO
    INDEX 01 00:00:00
FILE "14 Liar Liar (Wasteland Monarchy) - Instrumental.wav" WAVE
  TRACK 14 AUDIO
    INDEX 01 00:00:00
FILE "15 Revolution - Instrumental.wav" WAVE
  TRACK 15 AUDIO
    INDEX 01 00:00:00
-    
Download / Скачать

Хотите скачать бесплатно? Зарегистрируйтесь на сайте (ссылка на регистрацию). Pirat.ca - самый быстрый торрент трекер в рунете!

Как скачивать  ·   Что такое торрент  ·   Рейтинг и ограничения

Wolf111

58987

Пост 03-Май-2015 16:47 (спустя 15 часов)

[Q] 

Забираю, Спасибо!!!
[Профиль]  [ЛС] 

BilG

Корсар

Пост 06-Апр-2017 11:57 (спустя 1 год 11 месяцев)

[Q] 



_________________
[Профиль]  [ЛС] 
Показать сообщения:    
Ответить на тему

Текущее время: Сегодня 12:19

Часовой пояс: GMT + 4



Вы не можете начинать темы
Вы не можете отвечать на сообщения
Вы не можете редактировать свои сообщения
Вы не можете удалять свои сообщения
Вы не можете голосовать в опросах
Вы не можете прикреплять файлы к сообщениям
Вы не можете скачивать файлы

▼ Вниз